  0
SECTION
  2
HEADER
  9
$ACADVER
  1
AC1027
  9
$ACADMAINTVER
 70
    81
  9
$DWGCODEPAGE
  3
ANSI_1252
  9
$AUTHOR
  1
KIM
  9
$CUSTOMPROPERTYTAG
  1
Manager
  9
$CUSTOMPROPERTY
  1

  9
$CUSTOMPROPERTYTAG
  1
Company
  9
$CUSTOMPROPERTY
  1

  9
$CUSTOMPROPERTYTAG
  1
Category
  9
$CUSTOMPROPERTY
  1

  9
$CUSTOMPROPERTYTAG
  1
Part Number
  9
$CUSTOMPROPERTY
  1
492404
  9
$CUSTOMPROPERTYTAG
  1
Description
  9
$CUSTOMPROPERTY
  1

  9
$CUSTOMPROPERTYTAG
  1
Project
  9
$CUSTOMPROPERTY
  1

  9
$CUSTOMPROPERTYTAG
  1
Designer
  9
$CUSTOMPROPERTY
  1
KIM
  9
$CUSTOMPROPERTYTAG
  1
Engineer
  9
$CUSTOMPROPERTY
  1

  9
$CUSTOMPROPERTYTAG
  1
Authority
  9
$CUSTOMPROPERTY
  1

  9
$CUSTOMPROPERTYTAG
  1
Cost Center
  9
$CUSTOMPROPERTY
  1

  9
$CUSTOMPROPERTYTAG
  1
Cost
  9
$CUSTOMPROPERTY
  1

  9
$CUSTOMPROPERTYTAG
  1
Vendor
  9
$CUSTOMPROPERTY
  1

  9
$CUSTOMPROPERTYTAG
  1
User Status
  9
$CUSTOMPROPERTY
  1

  9
$CUSTOMPROPERTYTAG
  1
Design Status
  9
$CUSTOMPROPERTY
  1
WorkInProgress
  9
$CUSTOMPROPERTYTAG
  1
Checked by
  9
$CUSTOMPROPERTY
  1

  9
$CUSTOMPROPERTYTAG
  1
Engr Approved by
  9
$CUSTOMPROPERTY
  1

  9
$CUSTOMPROPERTYTAG
  1
Mfg Approved by
  9
$CUSTOMPROPERTY
  1

  9
$CUSTOMPROPERTYTAG
  1
Date Created
  9
$CUSTOMPROPERTY
  1
07/31/2017
  9
$CUSTOMPROPERTYTAG
  1
Stock Number
  9
$CUSTOMPROPERTY
  1

  9
$REQUIREDVERSIONS
160
                 0
  9
$INSBASE
 10
0.0
 20
0.0
 30
0.0
  9
$EXTMIN
 10
0.0
 20
0.0
 30
0.0
  9
$EXTMAX
 10
840.9999999999998
 20
594.0
 30
0.0
  9
$LIMMIN
 10
0.0
 20
0.0
  9
$LIMMAX
 10
840.9999999999998
 20
594.0
  9
$ORTHOMODE
 70
     0
  9
$REGENMODE
 70
     1
  9
$FILLMODE
 70
     1
  9
$QTEXTMODE
 70
     0
  9
$MIRRTEXT
 70
     0
  9
$LTSCALE
 40
1.0
  9
$ATTMODE
 70
     1
  9
$TEXTSIZE
 40
0.2
  9
$TRACEWID
 40
0.05
  9
$TEXTSTYLE
  7
Standard
  9
$CLAYER
  8
0
  9
$CELTYPE
  6
ByLayer
  9
$CECOLOR
 62
   256
  9
$CELTSCALE
 40
1.0
  9
$DISPSILH
 70
     0
  9
$DIMSCALE
 40
1.0
  9
$DIMASZ
 40
1.799999999999999
  9
$DIMEXO
 40
0.0625
  9
$DIMDLI
 40
0.38
  9
$DIMRND
 40
0.0
  9
$DIMDLE
 40
0.0
  9
$DIMEXE
 40
0.18
  9
$DIMTP
 40
0.0
  9
$DIMTM
 40
0.0
  9
$DIMTXT
 40
0.25
  9
$DIMCEN
 40
0.09
  9
$DIMTSZ
 40
0.0
  9
$DIMTOL
 70
     0
  9
$DIMLIM
 70
     0
  9
$DIMTIH
 70
     1
  9
$DIMTOH
 70
     1
  9
$DIMSE1
 70
     0
  9
$DIMSE2
 70
     0
  9
$DIMTAD
 70
     0
  9
$DIMZIN
 70
     0
  9
$DIMBLK
  1

  9
$DIMASO
 70
     1
  9
$DIMSHO
 70
     1
  9
$DIMPOST
  1

  9
$DIMAPOST
  1

  9
$DIMALT
 70
     0
  9
$DIMALTD
 70
     2
  9
$DIMALTF
 40
25.4
  9
$DIMLFAC
 40
1.0
  9
$DIMTOFL
 70
     0
  9
$DIMTVP
 40
0.0
  9
$DIMTIX
 70
     0
  9
$DIMSOXD
 70
     0
  9
$DIMSAH
 70
     0
  9
$DIMBLK1
  1

  9
$DIMBLK2
  1

  9
$DIMSTYLE
  2
Standard
  9
$DIMCLRD
 70
     0
  9
$DIMCLRE
 70
     0
  9
$DIMCLRT
 70
     0
  9
$DIMTFAC
 40
1.0
  9
$DIMGAP
 40
0.09
  9
$DIMJUST
 70
     0
  9
$DIMSD1
 70
     0
  9
$DIMSD2
 70
     0
  9
$DIMTOLJ
 70
     1
  9
$DIMTZIN
 70
     0
  9
$DIMALTZ
 70
     0
  9
$DIMALTTZ
 70
     0
  9
$DIMUPT
 70
     0
  9
$DIMDEC
 70
     4
  9
$DIMTDEC
 70
     4
  9
$DIMALTU
 70
     2
  9
$DIMALTTD
 70
     2
  9
$DIMTXSTY
  7
Standard
  9
$DIMAUNIT
 70
     0
  9
$DIMADEC
 70
     0
  9
$DIMALTRND
 40
0.0
  9
$DIMAZIN
 70
     0
  9
$DIMDSEP
 70
    46
  9
$DIMATFIT
 70
     3
  9
$DIMFRAC
 70
     0
  9
$DIMLDRBLK
  1

  9
$DIMLUNIT
 70
     2
  9
$DIMLWD
 70
    -2
  9
$DIMLWE
 70
    -2
  9
$DIMTMOVE
 70
     0
  9
$DIMFXL
 40
1.0
  9
$DIMFXLON
 70
     0
  9
$DIMJOGANG
 40
0.7853981633974483
  9
$DIMTFILL
 70
     0
  9
$DIMTFILLCLR
 70
     0
  9
$DIMARCSYM
 70
     0
  9
$DIMLTYPE
  6

  9
$DIMLTEX1
  6

  9
$DIMLTEX2
  6

  9
$DIMTXTDIRECTION
 70
     0
  9
$LUNITS
 70
     2
  9
$LUPREC
 70
     4
  9
$SKETCHINC
 40
0.1
  9
$FILLETRAD
 40
0.0
  9
$AUNITS
 70
     0
  9
$AUPREC
 70
     0
  9
$MENU
  1
.
  9
$ELEVATION
 40
0.0
  9
$PELEVATION
 40
0.0
  9
$THICKNESS
 40
0.0
  9
$LIMCHECK
 70
     0
  9
$CHAMFERA
 40
0.0
  9
$CHAMFERB
 40
0.0
  9
$CHAMFERC
 40
0.0
  9
$CHAMFERD
 40
0.0
  9
$SKPOLY
 70
     0
  9
$TDCREATE
 40
2457966.668745706
  9
$TDUCREATE
 40
2457966.543745706
  9
$TDUPDATE
 40
2457966.668745706
  9
$TDUUPDATE
 40
2457966.543745706
  9
$TDINDWG
 40
0.0000093287
  9
$TDUSRTIMER
 40
0.0000093287
  9
$USRTIMER
 70
     1
  9
$ANGBASE
 50
0.0
  9
$ANGDIR
 70
     0
  9
$PDMODE
 70
     0
  9
$PDSIZE
 40
0.0
  9
$PLINEWID
 40
0.0
  9
$SPLFRAME
 70
     0
  9
$SPLINETYPE
 70
     6
  9
$SPLINESEGS
 70
     8
  9
$HANDSEED
  5
9AF
  9
$SURFTAB1
 70
     6
  9
$SURFTAB2
 70
     6
  9
$SURFTYPE
 70
     6
  9
$SURFU
 70
     6
  9
$SURFV
 70
     6
  9
$UCSBASE
  2

  9
$UCSNAME
  2

  9
$UCSORG
 10
0.0
 20
0.0
 30
0.0
  9
$UCSXDIR
 10
1.0
 20
0.0
 30
0.0
  9
$UCSYDIR
 10
0.0
 20
1.0
 30
0.0
  9
$UCSORTHOREF
  2

  9
$UCSORTHOVIEW
 70
     0
  9
$UCSORGTOP
 10
0.0
 20
0.0
 30
0.0
  9
$UCSORGBOTTOM
 10
0.0
 20
0.0
 30
0.0
  9
$UCSORGLEFT
 10
0.0
 20
0.0
 30
0.0
  9
$UCSORGRIGHT
 10
0.0
 20
0.0
 30
0.0
  9
$UCSORGFRONT
 10
0.0
 20
0.0
 30
0.0
  9
$UCSORGBACK
 10
0.0
 20
0.0
 30
0.0
  9
$PUCSBASE
  2

  9
$PUCSNAME
  2

  9
$PUCSORG
 10
0.0
 20
0.0
 30
0.0
  9
$PUCSXDIR
 10
1.0
 20
0.0
 30
0.0
  9
$PUCSYDIR
 10
0.0
 20
1.0
 30
0.0
  9
$PUCSORTHOREF
  2

  9
$PUCSORTHOVIEW
 70
     0
  9
$PUCSORGTOP
 10
0.0
 20
0.0
 30
0.0
  9
$PUCSORGBOTTOM
 10
0.0
 20
0.0
 30
0.0
  9
$PUCSORGLEFT
 10
0.0
 20
0.0
 30
0.0
  9
$PUCSORGRIGHT
 10
0.0
 20
0.0
 30
0.0
  9
$PUCSORGFRONT
 10
0.0
 20
0.0
 30
0.0
  9
$PUCSORGBACK
 10
0.0
 20
0.0
 30
0.0
  9
$USERI1
 70
     0
  9
$USERI2
 70
     0
  9
$USERI3
 70
     0
  9
$USERI4
 70
     0
  9
$USERI5
 70
     0
  9
$USERR1
 40
0.0
  9
$USERR2
 40
0.0
  9
$USERR3
 40
0.0
  9
$USERR4
 40
0.0
  9
$USERR5
 40
0.0
  9
$WORLDVIEW
 70
     1
  9
$SHADEDGE
 70
     3
  9
$SHADEDIF
 70
    70
  9
$TILEMODE
 70
     1
  9
$MAXACTVP
 70
    64
  9
$PINSBASE
 10
0.0
 20
0.0
 30
0.0
  9
$PLIMCHECK
 70
     0
  9
$PEXTMIN
 10
0.0
 20
0.0
 30
0.0
  9
$PEXTMAX
 10
840.9999999999998
 20
594.0
 30
0.0
  9
$PLIMMIN
 10
0.0
 20
0.0
  9
$PLIMMAX
 10
840.9999999999998
 20
594.0
  9
$UNITMODE
 70
     0
  9
$VISRETAIN
 70
     1
  9
$PLINEGEN
 70
     0
  9
$PSLTSCALE
 70
     1
  9
$TREEDEPTH
 70
  3020
  9
$CMLSTYLE
  2
Standard
  9
$CMLJUST
 70
     0
  9
$CMLSCALE
 40
1.0
  9
$PROXYGRAPHICS
 70
     1
  9
$MEASUREMENT
 70
     1
  9
$CELWEIGHT
370
    -1
  9
$ENDCAPS
280
     0
  9
$JOINSTYLE
280
     0
  9
$LWDISPLAY
290
     0
  9
$INSUNITS
 70
     4
  9
$HYPERLINKBASE
  1

  9
$STYLESHEET
  1

  9
$XEDIT
290
     1
  9
$CEPSNTYPE
380
     0
  9
$PSTYLEMODE
290
     1
  9
$FINGERPRINTGUID
  2
{63936DB6-277B-4AD7-81FB-BCB46615D0B6}
  9
$VERSIONGUID
  2
{C9A662C6-3BD7-4079-A50B-4B82D4B94D67}
  9
$EXTNAMES
290
     1
  9
$PSVPSCALE
 40
0.0
  9
$OLESTARTUP
290
     0
  9
$SORTENTS
280
   127
  9
$INDEXCTL
280
     0
  9
$HIDETEXT
280
     1
  9
$XCLIPFRAME
280
     2
  9
$HALOGAP
280
     0
  9
$OBSCOLOR
 70
   257
  9
$OBSLTYPE
280
     0
  9
$INTERSECTIONDISPLAY
280
     0
  9
$INTERSECTIONCOLOR
 70
   257
  9
$DIMASSOC
280
     1
  9
$PROJECTNAME
  1

  9
$CAMERADISPLAY
290
     0
  9
$LENSLENGTH
 40
50.0
  9
$CAMERAHEIGHT
 40
0.0
  9
$STEPSPERSEC
 40
2.0
  9
$STEPSIZE
 40
6.0
  9
$3DDWFPREC
 40
2.0
  9
$PSOLWIDTH
 40
0.25
  9
$PSOLHEIGHT
 40
4.0
  9
$LOFTANG1
 40
1.570796326794896
  9
$LOFTANG2
 40
1.570796326794896
  9
$LOFTMAG1
 40
0.0
  9
$LOFTMAG2
 40
0.0
  9
$LOFTPARAM
 70
     7
  9
$LOFTNORMALS
280
     1
  9
$LATITUDE
 40
37.795
  9
$LONGITUDE
 40
-122.394
  9
$NORTHDIRECTION
 40
0.0
  9
$TIMEZONE
 70
 -8000
  9
$LIGHTGLYPHDISPLAY
280
     1
  9
$TILEMODELIGHTSYNCH
280
     1
  9
$CMATERIAL
347
11
  9
$SOLIDHIST
280
     0
  9
$SHOWHIST
280
     1
  9
$DWFFRAME
280
     2
  9
$DGNFRAME
280
     0
  9
$REALWORLDSCALE
290
     1
  9
$INTERFERECOLOR
 62
     1
  9
$INTERFEREOBJVS
345
33
  9
$INTERFEREVPVS
346
30
  9
$CSHADOW
280
     0
  9
$SHADOWPLANELOCATION
 40
0.0
  0
ENDSEC
  0
SECTION
  2
CLASSES
  0
CLASS
  1
ACDBDICTIONARYWDFLT
  2
AcDbDictionaryWithDefault
  3
ObjectDBX Classes
 90
        0
 91
        1
280
     0
281
     0
  0
CLASS
  1
MATERIAL
  2
AcDbMaterial
  3
ObjectDBX Classes
 90
     1153
 91
        3
280
     0
281
     0
  0
CLASS
  1
VISUALSTYLE
  2
AcDbVisualStyle
  3
ObjectDBX Classes
 90
     4095
 91
       24
280
     0
281
     0
  0
CLASS
  1
SCALE
  2
AcDbScale
  3
ObjectDBX Classes
 90
     1153
 91
       17
280
     0
281
     0
  0
CLASS
  1
TABLESTYLE
  2
AcDbTableStyle
  3
ObjectDBX Classes
 90
     4095
 91
        1
280
     0
281
     0
  0
CLASS
  1
MLEADERSTYLE
  2
AcDbMLeaderStyle
  3
ACDB_MLEADERSTYLE_CLASS
 90
     4095
 91
        1
280
     0
281
     0
  0
CLASS
  1
ACDBSECTIONVIEWSTYLE
  2
AcDbSectionViewStyle
  3
ObjectDBX Classes
 90
     1025
 91
        1
280
     0
281
     0
  0
CLASS
  1
ACDBDETAILVIEWSTYLE
  2
AcDbDetailViewStyle
  3
ObjectDBX Classes
 90
     1025
 91
        1
280
     0
281
     0
  0
CLASS
  1
DICTIONARYVAR
  2
AcDbDictionaryVar
  3
ObjectDBX Classes
 90
        0
 91
        5
280
     0
281
     0
  0
CLASS
  1
CELLSTYLEMAP
  2
AcDbCellStyleMap
  3
ObjectDBX Classes
 90
     1152
 91
        1
280
     0
281
     0
  0
ENDSEC
  0
SECTION
  2
TABLES
  0
TABLE
  2
VPORT
  5
8
330
0
100
AcDbSymbolTable
 70
     1
  0
VPORT
  5
57
330
8
100
AcDbSymbolTableRecord
100
AcDbViewportTableRecord
  2
*Active
 70
     0
 10
0.0
 20
0.0
 11
1.0
 21
1.0
 12
420.4999999999999
 22
297.0
 13
0.0
 23
0.0
 14
1.0
 24
1.0
 15
0.0
 25
0.0
 16
0.0
 26
0.0
 36
1.0
 17
0.0
 27
0.0
 37
0.0
 40
594.0
 41
1.415824915824915
 42
50.0
 43
0.0
 44
0.0
 50
0.0
 51
0.0
 71
     0
 72
   100
 73
     1
 74
     1
 75
     0
 76
     0
 77
     0
 78
     0
281
     0
 65
     1
110
0.0
120
0.0
130
0.0
111
1.0
121
0.0
131
0.0
112
0.0
122
1.0
132
0.0
 79
     0
146
0.0
 60
     3
 61
     5
292
     1
282
     1
141
0.0
142
0.0
 63
   250
421
  3355443
  0
ENDTAB
  0
TABLE
  2
LTYPE
  5
5
330
0
100
AcDbSymbolTable
 70
    59
  0
LTYPE
  5
5B
330
5
100
AcDbSymbolTableRecord
100
AcDbLinetypeTableRecord
  2
ByBlock
 70
     0
  3

 72
    65
 73
     0
 40
0.0
  0
LTYPE
  5
5C
330
5
100
AcDbSymbolTableRecord
100
AcDbLinetypeTableRecord
  2
ByLayer
 70
     0
  3

 72
    65
 73
     0
 40
0.0
  0
LTYPE
  5
5D
330
5
100
AcDbSymbolTableRecord
100
AcDbLinetypeTableRecord
  2
Continuous
 70
     0
  3
Solid line
 72
    65
 73
     0
 40
0.0
  0
LTYPE
  5
78
330
5
100
AcDbSymbolTableRecord
100
AcDbLinetypeTableRecord
  2
BY_STANDARD
 70
     0
  3
By Standard ____________    ____    ____   _
 72
    65
 73
     6
 40
1.240299999999999
 49
0.6614
 74
     0
 49
-0.0827
 74
     0
 49
0.1654
 74
     0
 49
-0.0827
 74
     0
 49
0.1654
 74
     0
 49
-0.0827
 74
     0
  0
LTYPE
  5
79
330
5
100
AcDbSymbolTableRecord
100
AcDbLinetypeTableRecord
  2
CHAIN
 70
     0
  3
Chain ____ _ ____ _ ____ _ ____ _ ____ _ ____
 72
    65
 73
     4
 40
0.7087
 49
0.4724000000000001
 74
     0
 49
-0.0591
 74
     0
 49
0.1181
 74
     0
 49
-0.0591
 74
     0
  0
LTYPE
  5
7A
330
5
100
AcDbSymbolTableRecord
100
AcDbLinetypeTableRecord
  2
DASH_DOT
 70
     0
  3
Dash dot __ . __ . __ . __ . __ . __ . __ . __
 72
    65
 73
     4
 40
0.37
 49
0.24
 74
     0
 49
-0.06
 74
     0
 49
0.01
 74
     0
 49
-0.06
 74
     0
  0
LTYPE
  5
7B
330
5
100
AcDbSymbolTableRecord
100
AcDbLinetypeTableRecord
  2
DOUBLE_DASH_DOT
 70
     0
  3
Double-Dash Dot __ __ . __ __ . __ __ . __ _
 72
    65
 73
     6
 40
0.4398
 49
0.24
 74
     0
 49
-0.06
 74
     0
 49
0.0098
 74
     0
 49
-0.06
 74
     0
 49
0.01
 74
     0
 49
-0.06
 74
     0
  0
LTYPE
  5
7C
330
5
100
AcDbSymbolTableRecord
100
AcDbLinetypeTableRecord
  2
DASH_TRIPLE_DOT
 70
     0
  3
Dash Triple-Dot _ . . . _ . . . _ . . . _
 72
    65
 73
     8
 40
0.51
 49
0.24
 74
     0
 49
-0.06
 74
     0
 49
0.01
 74
     0
 49
-0.06
 74
     0
 49
0.01
 74
     0
 49
-0.06
 74
     0
 49
0.01
 74
     0
 49
-0.06
 74
     0
  0
LTYPE
  5
7D
330
5
100
AcDbSymbolTableRecord
100
AcDbLinetypeTableRecord
  2
DASHED
 70
     0
  3
Dashed __ __ __ __ __ __ __ __ __ __ __ __ __ _
 72
    65
 73
     2
 40
0.2067
 49
0.1654
 74
     0
 49
-0.0413
 74
     0
  0
LTYPE
  5
7E
330
5
100
AcDbSymbolTableRecord
100
AcDbLinetypeTableRecord
  2
DASH_DOUBLE_DOT
 70
     0
  3
Dash Double-Dot __ . . __ . . __ . . __ . .
 72
    65
 73
     6
 40
0.4398
 49
0.24
 74
     0
 49
-0.06
 74
     0
 49
0.0098
 74
     0
 49
-0.06
 74
     0
 49
0.01
 74
     0
 49
-0.06
 74
     0
  0
LTYPE
  5
7F
330
5
100
AcDbSymbolTableRecord
100
AcDbLinetypeTableRecord
  2
DASHED_SPACE
 70
     0
  3
Dashed Space __ __ __ __ __ __ __ __ __ __ __ _
 72
    65
 73
     2
 40
0.2067
 49
0.1654
 74
     0
 49
-0.0413
 74
     0
  0
LTYPE
  5
80
330
5
100
AcDbSymbolTableRecord
100
AcDbLinetypeTableRecord
  2
DOTTED
 70
     0
  3
Dotted . . . . . . . . . . . . . . . . . . . . 
 72
    65
 73
     2
 40
0.0482
 49
0.0069
 74
     0
 49
-0.0413
 74
     0
  0
LTYPE
  5
81
330
5
100
AcDbSymbolTableRecord
100
AcDbLinetypeTableRecord
  2
DOUBLE_DASH_CHAIN
 70
     0
  3
Double-Dash Chain ______  __  __  ______  __  _
 72
    65
 73
     6
 40
1.240299999999999
 49
0.6614
 74
     0
 49
-0.0827
 74
     0
 49
0.1654
 74
     0
 49
-0.0827
 74
     0
 49
0.1654
 74
     0
 49
-0.0827
 74
     0
  0
LTYPE
  5
83
330
5
100
AcDbSymbolTableRecord
100
AcDbLinetypeTableRecord
  2
DOUBLE_DASH_DOUBLE_DOT
 70
     0
  3
Double-Dash Double-dot _ _ . . _ _ . . _
 72
    65
 73
     8
 40
0.7400000000000001
 49
0.24
 74
     0
 49
-0.06
 74
     0
 49
0.24
 74
     0
 49
-0.06
 74
     0
 49
0.01
 74
     0
 49
-0.06
 74
     0
 49
0.01
 74
     0
 49
-0.06
 74
     0
  0
LTYPE
  5
84
330
5
100
AcDbSymbolTableRecord
100
AcDbLinetypeTableRecord
  2
DOUBLE_DASH_TRIPLE_DOT
 70
     0
  3
Double Dash Triple Dot __ __ . . . __ __ . .
 72
    65
 73
    10
 40
0.8100000000000001
 49
0.24
 74
     0
 49
-0.06
 74
     0
 49
0.24
 74
     0
 49
-0.06
 74
     0
 49
0.01
 74
     0
 49
-0.06
 74
     0
 49
0.01
 74
     0
 49
-0.06
 74
     0
 49
0.01
 74
     0
 49
-0.06
 74
     0
  0
LTYPE
  5
85
330
5
100
AcDbSymbolTableRecord
100
AcDbLinetypeTableRecord
  2
LONG_DASH_DOTTED
 70
     0
  3
Long Dash Dotted ____ . ____ . ____ . ____ . _
 72
    65
 73
     4
 40
0.3543
 49
0.2362
 74
     0
 49
-0.0295
 74
     0
 49
0.0591
 74
     0
 49
-0.0295
 74
     0
  0
LTYPE
  5
86
330
5
100
AcDbSymbolTableRecord
100
AcDbLinetypeTableRecord
  2
LONG_DASH_DOUBLE_DOT
 70
     0
  3
Long Dash Double Dot ________  .  .  ________  
 72
    65
 73
     6
 40
0.6799999999999999
 49
0.48
 74
     0
 49
-0.06
 74
     0
 49
0.01
 74
     0
 49
-0.06
 74
     0
 49
0.01
 74
     0
 49
-0.06
 74
     0
  0
LTYPE
  5
87
330
5
100
AcDbSymbolTableRecord
100
AcDbLinetypeTableRecord
  2
LONG_DASH_TRIPLE_DOT
 70
     0
  3
Long Dash Triple Dot ____ ... ____ ... ____
 72
    65
 73
     8
 40
0.3689
 49
0.2362
 74
     0
 49
-0.0295
 74
     0
 49
0.0049
 74
     0
 49
-0.0295
 74
     0
 49
0.0049
 74
     0
 49
-0.0295
 74
     0
 49
0.0049
 74
     0
 49
-0.0295
 74
     0
  0
LTYPE
  5
88
330
5
100
AcDbSymbolTableRecord
100
AcDbLinetypeTableRecord
  2
BORDER
 70
     0
  3
Border __ __ . __ __ . __ __ . __ __ . __ __ .
 72
    65
 73
     6
 40
1.75
 49
0.5
 74
     0
 49
-0.25
 74
     0
 49
0.5
 74
     0
 49
-0.25
 74
     0
 49
0.0
 74
     0
 49
-0.25
 74
     0
  0
LTYPE
  5
89
330
5
100
AcDbSymbolTableRecord
100
AcDbLinetypeTableRecord
  2
BORDER2
 70
     0
  3
Border (.5x) __.__.__.__.__.__.__.__.__.__.__.
 72
    65
 73
     6
 40
0.875
 49
0.25
 74
     0
 49
-0.125
 74
     0
 49
0.25
 74
     0
 49
-0.125
 74
     0
 49
0.0
 74
     0
 49
-0.125
 74
     0
  0
LTYPE
  5
8A
330
5
100
AcDbSymbolTableRecord
100
AcDbLinetypeTableRecord
  2
BORDERX2
 70
     0
  3
Border (2x) ____  ____  .  ____  ____  .  ___
 72
    65
 73
     6
 40
3.5
 49
1.0
 74
     0
 49
-0.5
 74
     0
 49
1.0
 74
     0
 49
-0.5
 74
     0
 49
0.0
 74
     0
 49
-0.5
 74
     0
  0
LTYPE
  5
8B
330
5
100
AcDbSymbolTableRecord
100
AcDbLinetypeTableRecord
  2
CENTER
 70
     0
  3
Center ____ _ ____ _ ____ _ ____ _ ____ _ ____
 72
    65
 73
     4
 40
2.0
 49
1.25
 74
     0
 49
-0.25
 74
     0
 49
0.25
 74
     0
 49
-0.25
 74
     0
  0
LTYPE
  5
8C
330
5
100
AcDbSymbolTableRecord
100
AcDbLinetypeTableRecord
  2
CENTER2
 70
     0
  3
Center (.5x) ___ _ ___ _ ___ _ ___ _ ___ _ ___
 72
    65
 73
     4
 40
1.125
 49
0.75
 74
     0
 49
-0.125
 74
     0
 49
0.125
 74
     0
 49
-0.125
 74
     0
  0
LTYPE
  5
8D
330
5
100
AcDbSymbolTableRecord
100
AcDbLinetypeTableRecord
  2
CENTERX2
 70
     0
  3
Center (2x) ________  __  ________  __  _____
 72
    65
 73
     4
 40
4.0
 49
2.5
 74
     0
 49
-0.5
 74
     0
 49
0.5
 74
     0
 49
-0.5
 74
     0
  0
LTYPE
  5
8E
330
5
100
AcDbSymbolTableRecord
100
AcDbLinetypeTableRecord
  2
DASHDOT2
 70
     0
  3
Dash dot (.5x) _._._._._._._._._._._._._._._.
 72
    65
 73
     4
 40
0.5
 49
0.25
 74
     0
 49
-0.125
 74
     0
 49
0.0
 74
     0
 49
-0.125
 74
     0
  0
LTYPE
  5
8F
330
5
100
AcDbSymbolTableRecord
100
AcDbLinetypeTableRecord
  2
DASHDOTX2
 70
     0
  3
Dash dot (2x) ____  .  ____  .  ____  .  ___
 72
    65
 73
     4
 40
2.0
 49
1.0
 74
     0
 49
-0.5
 74
     0
 49
0.0
 74
     0
 49
-0.5
 74
     0
  0
LTYPE
  5
91
330
5
100
AcDbSymbolTableRecord
100
AcDbLinetypeTableRecord
  2
DASHED2
 70
     0
  3
Dashed (.5x) _ _ _ _ _ _ _ _ _ _ _ _ _ _ _ _ _
 72
    65
 73
     2
 40
0.375
 49
0.25
 74
     0
 49
-0.125
 74
     0
  0
LTYPE
  5
92
330
5
100
AcDbSymbolTableRecord
100
AcDbLinetypeTableRecord
  2
DASHEDX2
 70
     0
  3
Dashed (2x) ____  ____  ____  ____  ____  ___
 72
    65
 73
     2
 40
1.5
 49
1.0
 74
     0
 49
-0.5
 74
     0
  0
LTYPE
  5
93
330
5
100
AcDbSymbolTableRecord
100
AcDbLinetypeTableRecord
  2
DIVIDE
 70
     0
  3
Divide ____ . . ____ . . ____ . . ____ . . ____
 72
    65
 73
     6
 40
1.25
 49
0.5
 74
     0
 49
-0.25
 74
     0
 49
0.0
 74
     0
 49
-0.25
 74
     0
 49
0.0
 74
     0
 49
-0.25
 74
     0
  0
LTYPE
  5
94
330
5
100
AcDbSymbolTableRecord
100
AcDbLinetypeTableRecord
  2
DIVIDE2
 70
     0
  3
Divide (.5x) __..__..__..__..__..__..__..__.._
 72
    65
 73
     6
 40
0.625
 49
0.25
 74
     0
 49
-0.125
 74
     0
 49
0.0
 74
     0
 49
-0.125
 74
     0
 49
0.0
 74
     0
 49
-0.125
 74
     0
  0
LTYPE
  5
95
330
5
100
AcDbSymbolTableRecord
100
AcDbLinetypeTableRecord
  2
DIVIDEX2
 70
     0
  3
Divide (2x) ________  .  .  ________  .  .  _
 72
    65
 73
     6
 40
2.5
 49
1.0
 74
     0
 49
-0.5
 74
     0
 49
0.0
 74
     0
 49
-0.5
 74
     0
 49
0.0
 74
     0
 49
-0.5
 74
     0
  0
LTYPE
  5
96
330
5
100
AcDbSymbolTableRecord
100
AcDbLinetypeTableRecord
  2
DOT
 70
     0
  3
Dot . . . . . . . . . . . . . . . . . . . . . .
 72
    65
 73
     2
 40
0.25
 49
0.0
 74
     0
 49
-0.25
 74
     0
  0
LTYPE
  5
97
330
5
100
AcDbSymbolTableRecord
100
AcDbLinetypeTableRecord
  2
DOT2
 70
     0
  3
Dot (.5x) .....................................
 72
    65
 73
     2
 40
0.125
 49
0.0
 74
     0
 49
-0.125
 74
     0
  0
LTYPE
  5
98
330
5
100
AcDbSymbolTableRecord
100
AcDbLinetypeTableRecord
  2
DOTX2
 70
     0
  3
Dot (2x) .  .  .  .  .  .  .  .  .  .  .  .  . 
 72
    65
 73
     2
 40
0.5
 49
0.0
 74
     0
 49
-0.5
 74
     0
  0
LTYPE
  5
99
330
5
100
AcDbSymbolTableRecord
100
AcDbLinetypeTableRecord
  2
HIDDEN
 70
     0
  3
Hidden __ __ __ __ __ __ __ __ __ __ __ __ __ _
 72
    65
 73
     2
 40
0.375
 49
0.25
 74
     0
 49
-0.125
 74
     0
  0
LTYPE
  5
9A
330
5
100
AcDbSymbolTableRecord
100
AcDbLinetypeTableRecord
  2
HIDDEN2
 70
     0
  3
Hidden (.5x) _ _ _ _ _ _ _ _ _ _ _ _ _ _ _ _ _
 72
    65
 73
     2
 40
0.1875
 49
0.125
 74
     0
 49
-0.0625
 74
     0
  0
LTYPE
  5
9B
330
5
100
AcDbSymbolTableRecord
100
AcDbLinetypeTableRecord
  2
HIDDENX2
 70
     0
  3
Hidden (2x) ____ ____ ____ ____ ____ ____ ____
 72
    65
 73
     2
 40
0.75
 49
0.5
 74
     0
 49
-0.25
 74
     0
  0
LTYPE
  5
9C
330
5
100
AcDbSymbolTableRecord
100
AcDbLinetypeTableRecord
  2
PHANTOM
 70
     0
  3
Phantom ______  __  __  ______  __  __  ______
 72
    65
 73
     6
 40
2.5
 49
1.25
 74
     0
 49
-0.25
 74
     0
 49
0.25
 74
     0
 49
-0.25
 74
     0
 49
0.25
 74
     0
 49
-0.25
 74
     0
  0
LTYPE
  5
9D
330
5
100
AcDbSymbolTableRecord
100
AcDbLinetypeTableRecord
  2
PHANTOM2
 70
     0
  3
Phantom (.5x) ___ _ _ ___ _ _ ___ _ _ ___ _ _
 72
    65
 73
     6
 40
1.25
 49
0.625
 74
     0
 49
-0.125
 74
     0
 49
0.125
 74
     0
 49
-0.125
 74
     0
 49
0.125
 74
     0
 49
-0.125
 74
     0
  0
LTYPE
  5
9E
330
5
100
AcDbSymbolTableRecord
100
AcDbLinetypeTableRecord
  2
PHANTOMX2
 70
     0
  3
Phantom (2x) ____________    ____    ____   _
 72
    65
 73
     6
 40
5.0
 49
2.5
 74
     0
 49
-0.5
 74
     0
 49
0.5
 74
     0
 49
-0.5
 74
     0
 49
0.5
 74
     0
 49
-0.5
 74
     0
  0
LTYPE
  5
9F
330
5
100
AcDbSymbolTableRecord
100
AcDbLinetypeTableRecord
  2
ACAD_ISO02W100
 70
     0
  3
ISO dash __ __ __ __ __ __ __ __ __ __ __ __ __
 72
    65
 73
     2
 40
0.59
 49
0.47
 74
     0
 49
-0.12
 74
     0
  0
LTYPE
  5
A0
330
5
100
AcDbSymbolTableRecord
100
AcDbLinetypeTableRecord
  2
ACAD_ISO03W100
 70
     0
  3
ISO dash space __    __    __    __    __    __
 72
    65
 73
     2
 40
1.179999999999999
 49
0.47
 74
     0
 49
-0.71
 74
     0
  0
LTYPE
  5
A1
330
5
100
AcDbSymbolTableRecord
100
AcDbLinetypeTableRecord
  2
ACAD_ISO04W100
 70
     0
  3
ISO long-dash dot ____ . ____ . ____ . ____ . _
 72
    65
 73
     4
 40
1.179999999999999
 49
0.9399999999999998
 74
     0
 49
-0.12
 74
     0
 49
0.0
 74
     0
 49
-0.12
 74
     0
  0
LTYPE
  5
A2
330
5
100
AcDbSymbolTableRecord
100
AcDbLinetypeTableRecord
  2
ACAD_ISO05W100
 70
     0
  3
ISO long-dash double-dot ____ .. ____ .. ____ .
 72
    65
 73
     6
 40
1.299999999999999
 49
0.9399999999999998
 74
     0
 49
-0.12
 74
     0
 49
0.0
 74
     0
 49
-0.12
 74
     0
 49
0.0
 74
     0
 49
-0.12
 74
     0
  0
LTYPE
  5
A3
330
5
100
AcDbSymbolTableRecord
100
AcDbLinetypeTableRecord
  2
ACAD_ISO06W100
 70
     0
  3
ISO long-dash triple-dot ____ ... ____ ... ____
 72
    65
 73
     8
 40
1.419999999999999
 49
0.9399999999999998
 74
     0
 49
-0.12
 74
     0
 49
0.0
 74
     0
 49
-0.12
 74
     0
 49
0.0
 74
     0
 49
-0.12
 74
     0
 49
0.0
 74
     0
 49
-0.12
 74
     0
  0
LTYPE
  5
A4
330
5
100
AcDbSymbolTableRecord
100
AcDbLinetypeTableRecord
  2
ACAD_ISO07W100
 70
     0
  3
ISO dot . . . . . . . . . . . . . . . . . . . .
 72
    65
 73
     2
 40
0.12
 49
0.0
 74
     0
 49
-0.12
 74
     0
  0
LTYPE
  5
A5
330
5
100
AcDbSymbolTableRecord
100
AcDbLinetypeTableRecord
  2
ACAD_ISO08W100
 70
     0
  3
ISO long-dash short-dash ____ __ ____ __ ____ _
 72
    65
 73
     4
 40
0.95
 49
0.47
 74
     0
 49
-0.12
 74
     0
 49
0.24
 74
     0
 49
-0.12
 74
     0
  0
LTYPE
  5
A6
330
5
100
AcDbSymbolTableRecord
100
AcDbLinetypeTableRecord
  2
ACAD_ISO09W100
 70
     0
  3
ISO long-dash double-short-dash ____ __ __ ____
 72
    65
 73
     6
 40
1.31
 49
0.47
 74
     0
 49
-0.12
 74
     0
 49
0.24
 74
     0
 49
-0.12
 74
     0
 49
0.24
 74
     0
 49
-0.12
 74
     0
  0
LTYPE
  5
A7
330
5
100
AcDbSymbolTableRecord
100
AcDbLinetypeTableRecord
  2
ACAD_ISO10W100
 70
     0
  3
ISO dash dot __ . __ . __ . __ . __ . __ . __ .
 72
    65
 73
     4
 40
0.71
 49
0.47
 74
     0
 49
-0.12
 74
     0
 49
0.0
 74
     0
 49
-0.12
 74
     0
  0
LTYPE
  5
A8
330
5
100
AcDbSymbolTableRecord
100
AcDbLinetypeTableRecord
  2
ACAD_ISO11W100
 70
     0
  3
ISO double-dash dot __ __ . __ __ . __ __ . __ 
 72
    65
 73
     6
 40
1.299999999999999
 49
0.47
 74
     0
 49
-0.12
 74
     0
 49
0.47
 74
     0
 49
-0.12
 74
     0
 49
0.0
 74
     0
 49
-0.12
 74
     0
  0
LTYPE
  5
A9
330
5
100
AcDbSymbolTableRecord
100
AcDbLinetypeTableRecord
  2
ACAD_ISO12W100
 70
     0
  3
ISO dash double-dot __ . . __ . . __ . . __ . .
 72
    65
 73
     6
 40
0.8299999999999998
 49
0.47
 74
     0
 49
-0.12
 74
     0
 49
0.0
 74
     0
 49
-0.12
 74
     0
 49
0.0
 74
     0
 49
-0.12
 74
     0
  0
LTYPE
  5
AA
330
5
100
AcDbSymbolTableRecord
100
AcDbLinetypeTableRecord
  2
ACAD_ISO13W100
 70
     0
  3
ISO double-dash double-dot __ __ . . __ __ . . 
 72
    65
 73
     8
 40
1.419999999999999
 49
0.47
 74
     0
 49
-0.12
 74
     0
 49
0.47
 74
     0
 49
-0.12
 74
     0
 49
0.0
 74
     0
 49
-0.12
 74
     0
 49
0.0
 74
     0
 49
-0.12
 74
     0
  0
LTYPE
  5
AB
330
5
100
AcDbSymbolTableRecord
100
AcDbLinetypeTableRecord
  2
ACAD_ISO14W100
 70
     0
  3
ISO dash triple-dot __ . . . __ . . . __ . . . 
 72
    65
 73
     8
 40
0.95
 49
0.47
 74
     0
 49
-0.12
 74
     0
 49
0.0
 74
     0
 49
-0.12
 74
     0
 49
0.0
 74
     0
 49
-0.12
 74
     0
 49
0.0
 74
     0
 49
-0.12
 74
     0
  0
LTYPE
  5
AC
330
5
100
AcDbSymbolTableRecord
100
AcDbLinetypeTableRecord
  2
ACAD_ISO15W100
 70
     0
  3
ISO double-dash triple-dot __ __ . . . __ __ . 
 72
    65
 73
    10
 40
1.539999999999999
 49
0.47
 74
     0
 49
-0.12
 74
     0
 49
0.47
 74
     0
 49
-0.12
 74
     0
 49
0.0
 74
     0
 49
-0.12
 74
     0
 49
0.0
 74
     0
 49
-0.12
 74
     0
 49
0.0
 74
     0
 49
-0.12
 74
     0
  0
LTYPE
  5
AF
330
5
100
AcDbSymbolTableRecord
100
AcDbLinetypeTableRecord
  2
FENCELINE1
 70
     0
  3
Fenceline circle ----0-----0----0-----0----0---
 72
    65
 73
     4
 40
1.45
 49
0.25
 74
     0
 49
-0.1
 74
     4
 75
   133
340
AE
 46
0.1
 50
0.0
 44
-0.1
 45
0.0
 49
-0.1
 74
     0
 49
1.0
 74
     0
  0
LTYPE
  5
B0
330
5
100
AcDbSymbolTableRecord
100
AcDbLinetypeTableRecord
  2
FENCELINE2
 70
     0
  3
Fenceline square ----[]-----[]----[]-----[]----
 72
    65
 73
     4
 40
1.45
 49
0.25
 74
     0
 49
-0.1
 74
     4
 75
   132
340
AE
 46
0.1
 50
0.0
 44
-0.1
 45
0.0
 49
-0.1
 74
     0
 49
1.0
 74
     0
  0
LTYPE
  5
B1
330
5
100
AcDbSymbolTableRecord
100
AcDbLinetypeTableRecord
  2
TRACKS
 70
     0
  3
Tracks -|-|-|-|-|-|-|-|-|-|-|-|-|-|-|-|-|-|-|-|
 72
    65
 73
     2
 40
0.3
 49
0.15
 74
     4
 75
   130
340
AE
 46
0.25
 50
0.0
 44
0.0
 45
0.0
 49
0.15
 74
     0
  0
LTYPE
  5
B2
330
5
100
AcDbSymbolTableRecord
100
AcDbLinetypeTableRecord
  2
BATTING
 70
     0
  3
Batting SSSSSSSSSSSSSSSSSSSSSSSSSSSSSSSSSSSSSSS
 72
    65
 73
     4
 40
0.4001000000000001
 49
0.0001
 74
     0
 49
-0.1
 74
     4
 75
   134
340
AE
 46
0.1
 50
0.0
 44
-0.1
 45
0.0
 49
-0.2
 74
     4
 75
   134
340
AE
 46
0.1
 50
180.0
 44
0.1
 45
0.0
 49
-0.1
 74
     0
  0
LTYPE
  5
B3
330
5
100
AcDbSymbolTableRecord
100
AcDbLinetypeTableRecord
  2
HOT_WATER_SUPPLY
 70
     0
  3
Hot water supply ---- HW ---- HW ---- HW ----
 72
    65
 73
     3
 40
0.9
 49
0.5
 74
     0
 49
-0.2
 74
     2
 75
     0
340
55
 46
0.1
 50
0.0
 44
-0.1
 45
-0.05
  9
HW
 49
-0.2
 74
     0
  0
LTYPE
  5
B4
330
5
100
AcDbSymbolTableRecord
100
AcDbLinetypeTableRecord
  2
GAS_LINE
 70
     0
  3
Gas line ----GAS----GAS----GAS----GAS----GAS---
 72
    65
 73
     3
 40
0.95
 49
0.5
 74
     0
 49
-0.2
 74
     2
 75
     0
340
55
 46
0.1
 50
0.0
 44
-0.1
 45
-0.05
  9
GAS
 49
-0.25
 74
     0
  0
LTYPE
  5
B5
330
5
100
AcDbSymbolTableRecord
100
AcDbLinetypeTableRecord
  2
ZIGZAG
 70
     0
  3
Zig zag /\/\/\/\/\/\/\/\/\/\/\/\/\/\/\/\/\/\/\/
 72
    65
 73
     4
 40
0.8001000000000001
 49
0.0001
 74
     0
 49
-0.2
 74
     4
 75
   131
340
AE
 46
0.2
 50
0.0
 44
-0.2
 45
0.0
 49
-0.4
 74
     4
 75
   131
340
AE
 46
0.2
 50
180.0
 44
0.2
 45
0.0
 49
-0.2
 74
     0
  0
ENDTAB
  0
TABLE
  2
LAYER
  5
2
330
0
100
AcDbSymbolTable
 70
    27
  0
LAYER
  5
54
330
2
100
AcDbSymbolTableRecord
100
AcDbLayerTableRecord
  2
0
 70
     0
 62
     7
  6
Continuous
370
    -3
390
F
347
21
348
0
  0
LAYER
  5
B9
330
2
100
AcDbSymbolTableRecord
100
AcDbLayerTableRecord
  2
Border (ISO)
 70
     0
 62
     7
  6
Continuous
370
    70
390
F
347
21
348
0
  0
LAYER
  5
BE
330
2
100
AcDbSymbolTableRecord
100
AcDbLayerTableRecord
  2
Dimension (ISO)
 70
     0
 62
     7
  6
Continuous
370
    25
390
F
347
21
348
0
  0
LAYER
  5
BF
330
2
100
AcDbSymbolTableRecord
100
AcDbLayerTableRecord
  2
Hatch (ISO)
 70
     0
 62
     7
  6
Continuous
370
    18
390
F
347
21
348
0
  0
LAYER
  5
C5
330
2
100
AcDbSymbolTableRecord
100
AcDbLayerTableRecord
  2
Section Line (ISO)
 70
     0
 62
     7
  6
CHAIN
370
    70
390
F
347
21
348
0
  0
LAYER
  5
C7
330
2
100
AcDbSymbolTableRecord
100
AcDbLayerTableRecord
  2
Symbol (ISO)
 70
     0
 62
     7
  6
Continuous
370
    25
390
F
347
21
348
0
  0
LAYER
  5
C8
330
2
100
AcDbSymbolTableRecord
100
AcDbLayerTableRecord
  2
Title (ISO)
 70
     0
 62
     7
  6
Continuous
370
    50
390
F
347
21
348
0
  0
LAYER
  5
CA
330
2
100
AcDbSymbolTableRecord
100
AcDbLayerTableRecord
  2
Visible (ISO)
 70
     0
 62
     7
  6
Continuous
370
    50
390
F
347
21
348
0
  0
LAYER
  5
26F
330
2
100
AcDbSymbolTableRecord
100
AcDbLayerTableRecord
  2
Defpoints
 70
     0
 62
     7
  6
Continuous
290
     0
370
    -3
390
F
347
21
348
0
  0
ENDTAB
  0
TABLE
  2
STYLE
  5
3
330
0
100
AcDbSymbolTable
 70
     5
  0
STYLE
  5
55
330
3
100
AcDbSymbolTableRecord
100
AcDbTextStyleTableRecord
  2
Standard
 70
     0
 40
0.0
 41
1.0
 50
0.0
 71
     0
 42
0.2
  3
tahoma.ttf
  4

1001
ACAD
1000
Tahoma
1071
      256
  0
STYLE
  5
5A
330
3
100
AcDbSymbolTableRecord
100
AcDbTextStyleTableRecord
  2
Annotative
 70
     0
 40
0.0
 41
1.0
 50
0.0
 71
     0
 42
0.2
  3
txt
  4

1001
AcadAnnotative
1000
AnnotativeData
1002
{
1070
     1
1070
     1
1002
}
  0
STYLE
  5
AE
330
3
100
AcDbSymbolTableRecord
100
AcDbTextStyleTableRecord
  2

 70
     1
 40
0.0
 41
1.0
 50
0.0
 71
     0
 42
0.2
  3
ltypeshp.shx
  4

  0
STYLE
  5
CF
330
3
100
AcDbSymbolTableRecord
100
AcDbTextStyleTableRecord
  2
Label Text (ISO)
 70
     0
 40
0.0
 41
1.0
 50
0.0
 71
     0
 42
0.2
  3
tahoma.ttf
  4

1001
ACAD
1000
Tahoma
1071
      256
  0
STYLE
  5
D0
330
3
100
AcDbSymbolTableRecord
100
AcDbTextStyleTableRecord
  2
Note Text (ISO)
 70
     0
 40
0.0
 41
1.0
 50
0.0
 71
     0
 42
0.2
  3
tahoma.ttf
  4

1001
ACAD
1000
Tahoma
1071
      256
  0
ENDTAB
  0
TABLE
  2
VIEW
  5
6
330
0
100
AcDbSymbolTable
 70
     0
  0
ENDTAB
  0
TABLE
  2
UCS
  5
7
330
0
100
AcDbSymbolTable
 70
     0
  0
ENDTAB
  0
TABLE
  2
APPID
  5
9
330
0
100
AcDbSymbolTable
 70
     3
  0
APPID
  5
56
330
9
100
AcDbSymbolTableRecord
100
AcDbRegAppTableRecord
  2
ACAD
 70
     0
  0
APPID
  5
5E
330
9
100
AcDbSymbolTableRecord
100
AcDbRegAppTableRecord
  2
AcadAnnotative
 70
     0
  0
APPID
  5
173
330
9
100
AcDbSymbolTableRecord
100
AcDbRegAppTableRecord
  2
AcadAnnoPO
 70
     0
  0
ENDTAB
  0
TABLE
  2
DIMSTYLE
  5
A
330
0
100
AcDbSymbolTable
 70
    15
100
AcDbDimStyleTable
 71
     2
340
D9
340
58
  0
DIMSTYLE
105
58
330
A
100
AcDbSymbolTableRecord
100
AcDbDimStyleTableRecord
  2
Standard
 70
     0
340
55
  0
DIMSTYLE
105
59
330
A
100
AcDbSymbolTableRecord
100
AcDbDimStyleTableRecord
  2
Annotative
 70
     0
340
55
1001
AcadAnnotative
1000
AnnotativeData
1002
{
1070
     1
1070
     1
1002
}
  0
DIMSTYLE
105
D1
330
A
100
AcDbSymbolTableRecord
100
AcDbDimStyleTableRecord
  2
Default - Method 1b (ISO)
 70
     0
 41
2.5
 42
0.0
 43
5.999999999999999
 44
3.174999999999999
 45
0.00000001
 46
10.0
 73
     0
 77
     1
 78
     8
 79
     2
140
2.5
143
0.03937
146
1.399999976158142
147
0.762
171
     3
172
     1
176
   256
177
   256
178
   232
179
     2
271
     2
272
     2
274
     3
278
    44
284
     8
286
     8
340
D0
371
    -1
372
    -1
  0
DIMSTYLE
105
D2
330
A
100
AcDbSymbolTableRecord
100
AcDbDimStyleTableRecord
  2
Default - Method 1b (ISO)$7
 70
     0
 41
2.5
 42
0.0
 43
5.999999999999999
 44
3.174999999999999
 45
0.00000001
 46
10.0
 73
     0
 77
     1
 78
     8
 79
     2
140
2.5
143
0.03937
146
1.399999976158142
147
0.762
171
     3
172
     1
176
   256
177
   256
178
   232
179
     2
271
     2
272
     2
274
     3
278
    44
284
     8
286
     8
340
D0
371
    -1
372
    -1
  0
DIMSTYLE
105
D3
330
A
100
AcDbSymbolTableRecord
100
AcDbDimStyleTableRecord
  2
Default - Method 2a (ISO)
 70
     0
 41
2.5
 42
0.0
 43
5.999999999999999
 44
3.174999999999999
 45
0.00000001
 46
10.0
 77
     1
 78
     8
 79
     2
140
2.5
143
0.03937
146
1.399999976158142
147
0.762
171
     3
172
     1
176
   256
177
   256
178
   232
179
     2
271
     2
272
     2
274
     3
278
    44
284
     8
286
     8
340
D0
371
    -1
372
    -1
  0
DIMSTYLE
105
D4
330
A
100
AcDbSymbolTableRecord
100
AcDbDimStyleTableRecord
  2
Default - Method 2a (ISO)$7
 70
     0
 41
2.5
 42
0.0
 43
5.999999999999999
 44
3.174999999999999
 45
0.00000001
 46
10.0
 77
     1
 78
     8
 79
     2
140
2.5
143
0.03937
146
1.399999976158142
147
0.762
171
     3
172
     1
176
   256
177
   256
178
   232
179
     2
271
     2
272
     2
274
     3
278
    44
284
     8
286
     8
340
D0
371
    -1
372
    -1
  0
DIMSTYLE
105
D5
330
A
100
AcDbSymbolTableRecord
100
AcDbDimStyleTableRecord
  2
Default - Method 2b (ISO)
 70
     0
 41
2.5
 42
0.0
 43
5.999999999999999
 44
3.174999999999999
 45
0.00000001
 46
10.0
 77
     1
 78
     8
 79
     2
140
2.5
143
0.03937
147
0.762
171
     3
172
     1
176
   256
177
   256
178
   232
179
     2
271
     2
272
     1
274
     3
278
    44
284
     8
286
     8
340
D0
371
    -1
372
    -1
  0
DIMSTYLE
105
D6
330
A
100
AcDbSymbolTableRecord
100
AcDbDimStyleTableRecord
  2
Default - Method 2b (ISO)$7
 70
     0
 41
2.5
 42
0.0
 43
5.999999999999999
 44
3.174999999999999
 45
0.00000001
 46
10.0
 77
     1
 78
     8
 79
     2
140
2.5
143
0.03937
147
0.762
171
     3
172
     1
176
   256
177
   256
178
   232
179
     2
271
     2
272
     1
274
     3
278
    44
284
     8
286
     8
340
D0
371
    -1
372
    -1
  0
DIMSTYLE
105
D7
330
A
100
AcDbSymbolTableRecord
100
AcDbDimStyleTableRecord
  2
Default - mm [in] (ISO)
 70
     0
  4
 in
 41
2.5
 42
0.0
 43
5.999999999999999
 44
3.174999999999999
 45
0.00000001
 46
10.0
 73
     0
 74
     0
 77
     1
 78
     8
 79
     2
140
2.5
143
0.03937
146
1.399999976158142
147
0.762
170
     1
171
     3
172
     1
176
   256
177
   256
178
   232
179
     3
271
     3
272
     2
274
     3
275
     1
278
    44
284
     8
285
     8
286
     8
340
D0
371
    -1
372
    -1
  0
DIMSTYLE
105
D8
330
A
100
AcDbSymbolTableRecord
100
AcDbDimStyleTableRecord
  2
Default - mm [in] (ISO)$7
 70
     0
  4
 in
 41
2.5
 42
0.0
 43
5.999999999999999
 44
3.174999999999999
 45
0.00000001
 46
10.0
 73
     0
 74
     0
 77
     1
 78
     8
 79
     2
140
2.5
143
0.03937
146
1.399999976158142
147
0.762
170
     1
171
     3
172
     1
176
   256
177
   256
178
   232
179
     3
271
     3
272
     2
274
     3
275
     1
278
    44
284
     8
285
     8
286
     8
340
D0
371
    -1
372
    -1
  0
DIMSTYLE
105
D9
102
{ACAD_REACTORS
330
26E
330
352
330
434
330
516
330
5F8
330
6CE
330
7B0
330
892
102
}
330
A
100
AcDbSymbolTableRecord
100
AcDbDimStyleTableRecord
  2
Default (ISO)
 70
     0
 41
2.5
 42
0.0
 43
5.999999999999999
 44
3.174999999999999
 45
0.00000001
 46
10.0
 73
     0
 74
     0
 77
     1
140
2.5
143
0.03937
146
1.402080059051513
147
0.762
171
     3
172
     1
176
   256
177
   256
178
   232
179
     2
271
     2
272
     2
274
     3
278
    44
340
D0
371
    -1
372
    -1
  0
DIMSTYLE
105
DA
330
A
100
AcDbSymbolTableRecord
100
AcDbDimStyleTableRecord
  2
Default (ISO)$7
 70
     0
 41
2.5
 42
0.0
 43
5.999999999999999
 44
3.174999999999999
 45
0.00000001
 46
10.0
 73
     0
 74
     0
 77
     1
140
2.5
143
0.03937
146
1.402080059051513
147
0.762
171
     3
172
     1
176
   256
177
   256
178
   232
179
     2
271
     2
272
     2
274
     3
278
    44
340
D0
371
    -1
372
    -1
  0
DIMSTYLE
105
DB
330
A
100
AcDbSymbolTableRecord
100
AcDbDimStyleTableRecord
  2
Alternate (ISO)
 70
     0
 41
2.5
340
55
342
DC
  0
DIMSTYLE
105
EE
330
A
100
AcDbSymbolTableRecord
100
AcDbDimStyleTableRecord
  2
Datum (ISO)
 70
     0
 41
2.5
340
55
342
DC
  0
DIMSTYLE
105
FD
330
A
100
AcDbSymbolTableRecord
100
AcDbDimStyleTableRecord
  2
Large (ISO)
 70
     0
 41
5.0
340
55
342
DC
  0
ENDTAB
  0
TABLE
  2
BLOCK_RECORD
  5
1
330
0
100
AcDbSymbolTable
 70
    15
  0
BLOCK_RECORD
  5
70
330
1
100
AcDbSymbolTableRecord
100
AcDbBlockTableRecord
  2
*Model_Space
340
73
 70
     0
280
     1
281
     0
  0
BLOCK_RECORD
  5
6C
330
1
100
AcDbSymbolTableRecord
100
AcDbBlockTableRecord
  2
*Paper_Space
340
6F
 70
     0
280
     1
281
     0
  0
BLOCK_RECORD
  5
74
330
1
100
AcDbSymbolTableRecord
100
AcDbBlockTableRecord
  2
*Paper_Space0
340
77
 70
     0
280
     1
281
     0
  0
BLOCK_RECORD
  5
DC
330
1
100
AcDbSymbolTableRecord
100
AcDbBlockTableRecord
  2
_Closed
340
0
 70
     0
280
     1
281
     0
  0
BLOCK_RECORD
  5
E3
330
1
100
AcDbSymbolTableRecord
100
AcDbBlockTableRecord
  2
DatumFilled45
340
0
 70
     0
280
     1
281
     0
  0
BLOCK_RECORD
  5
EF
330
1
100
AcDbSymbolTableRecord
100
AcDbBlockTableRecord
  2
Filled-1
340
0
 70
     0
280
     1
281
     0
  0
BLOCK_RECORD
  5
FE
330
1
100
AcDbSymbolTableRecord
100
AcDbBlockTableRecord
  2
Borders Default Border
340
0
102
{BLKREFS
331
16D
102
}
 70
     0
280
     1
281
     0
  0
BLOCK_RECORD
  5
16E
330
1
100
AcDbSymbolTableRecord
100
AcDbBlockTableRecord
  2
Title Blocks ISO
340
0
102
{BLKREFS
331
175
102
}
 70
     0
280
     1
281
     0
  0
BLOCK_RECORD
  5
1DD
330
1
100
AcDbSymbolTableRecord
100
AcDbBlockTableRecord
  2
2dTransSection0
340
0
102
{BLKREFS
331
1FD
102
}
 70
     0
280
     1
281
     0
  0
BLOCK_RECORD
  5
270
330
1
100
AcDbSymbolTableRecord
100
AcDbBlockTableRecord
  2
*D7
340
0
 70
     0
280
     1
281
     0
  0
BLOCK_RECORD
  5
353
330
1
100
AcDbSymbolTableRecord
100
AcDbBlockTableRecord
  2
*D8
340
0
 70
     0
280
     1
281
     0
  0
BLOCK_RECORD
  5
435
330
1
100
AcDbSymbolTableRecord
100
AcDbBlockTableRecord
  2
*D9
340
0
 70
     0
280
     1
281
     0
  0
BLOCK_RECORD
  5
517
330
1
100
AcDbSymbolTableRecord
100
AcDbBlockTableRecord
  2
*D10
340
0
 70
     0
280
     1
281
     0
  0
BLOCK_RECORD
  5
5F9
330
1
100
AcDbSymbolTableRecord
100
AcDbBlockTableRecord
  2
*D11
340
0
 70
     0
280
     1
281
     0
  0
BLOCK_RECORD
  5
6CF
330
1
100
AcDbSymbolTableRecord
100
AcDbBlockTableRecord
  2
*D12
340
0
 70
     0
280
     1
281
     0
  0
BLOCK_RECORD
  5
7B1
330
1
100
AcDbSymbolTableRecord
100
AcDbBlockTableRecord
  2
*D13
340
0
 70
     0
280
     1
281
     0
  0
BLOCK_RECORD
  5
893
330
1
100
AcDbSymbolTableRecord
100
AcDbBlockTableRecord
  2
*D14
340
0
 70
     0
280
     1
281
     0
  0
ENDTAB
  0
ENDSEC
  0
SECTION
  2
BLOCKS
  0
BLOCK
  5
71
330
70
100
AcDbEntity
  8
0
100
AcDbBlockBegin
  2
*Model_Space
 70
     0
 10
0.0
 20
0.0
 30
0.0
  3
*Model_Space
  1

  0
ENDBLK
  5
72
330
70
100
AcDbEntity
  8
0
100
AcDbBlockEnd
  0
BLOCK
  5
6D
330
6C
100
AcDbEntity
 67
     1
  8
0
100
AcDbBlockBegin
  2
*Paper_Space
 70
     0
 10
0.0
 20
0.0
 30
0.0
  3
*Paper_Space
  1

  0
ENDBLK
  5
6E
330
6C
100
AcDbEntity
 67
     1
  8
0
100
AcDbBlockEnd
  0
BLOCK
  5
75
330
74
100
AcDbEntity
 67
     1
  8
0
100
AcDbBlockBegin
  2
*Paper_Space0
 70
     0
 10
0.0
 20
0.0
 30
0.0
  3
*Paper_Space0
  1

  0
ENDBLK
  5
76
330
74
100
AcDbEntity
 67
     1
  8
0
100
AcDbBlockEnd
  0
BLOCK
  5
E1
330
DC
100
AcDbEntity
  8
0
100
AcDbBlockBegin
  2
_Closed
 70
     0
 10
0.0
 20
0.0
 30
0.0
  3
_Closed
  1

  0
LINE
  5
DD
330
DC
100
AcDbEntity
  8
0
  6
ByBlock
 62
     0
370
    -2
100
AcDbLine
 10
-1.0
 20
0.1666666666666666
 30
0.0
 11
0.0
 21
0.0
 31
0.0
  0
LINE
  5
DE
330
DC
100
AcDbEntity
  8
0
  6
ByBlock
 62
     0
370
    -2
100
AcDbLine
 10
0.0
 20
0.0
 30
0.0
 11
-1.0
 21
-0.1666666666666666
 31
0.0
  0
LINE
  5
DF
330
DC
100
AcDbEntity
  8
0
  6
ByBlock
 62
     0
370
    -2
100
AcDbLine
 10
-1.0
 20
0.1666666666666666
 30
0.0
 11
-1.0
 21
-0.1666666666666666
 31
0.0
  0
LINE
  5
E0
330
DC
100
AcDbEntity
  8
0
  6
ByBlock
 62
     0
370
    -2
100
AcDbLine
 10
0.0
 20
0.0
 30
0.0
 11
-1.0
 21
0.0
 31
0.0
  0
ENDBLK
  5
E2
330
DC
100
AcDbEntity
  8
0
100
AcDbBlockEnd
  0
BLOCK
  5
E4
330
E3
100
AcDbEntity
  8
0
100
AcDbBlockBegin
  2
DatumFilled45
 70
     0
 10
0.0
 20
0.0
 30
0.0
  3
DatumFilled45
  1

  0
POLYLINE
  5
E6
330
E3
100
AcDbEntity
  8
0
 62
     0
100
AcDb2dPolyline
 66
     1
 10
0.0
 20
0.0
 30
0.0
 70
   128
  0
VERTEX
  5
E7
330
E6
100
AcDbEntity
  8
0
 62
     0
100
AcDbVertex
100
AcDb2dVertex
 10
0.0
 20
1.0
 30
0.0
  0
VERTEX
  5
E8
330
E6
100
AcDbEntity
  8
0
 62
     0
100
AcDbVertex
100
AcDb2dVertex
 10
0.0
 20
-1.0
 30
0.0
  0
VERTEX
  5
EA
330
E6
100
AcDbEntity
  8
0
 62
     0
100
AcDbVertex
100
AcDb2dVertex
 10
-1.0
 20
0.0
 30
0.0
  0
VERTEX
  5
EB
330
E6
100
AcDbEntity
  8
0
 62
     0
100
AcDbVertex
100
AcDb2dVertex
 10
0.0
 20
1.0
 30
0.0
  0
SEQEND
  5
E9
330
E6
100
AcDbEntity
  8
0
 62
     0
  0
SOLID
  5
ED
330
E3
100
AcDbEntity
  8
0
 62
     0
100
AcDbTrace
 10
0.0
 20
1.0
 30
0.0
 11
0.0
 21
-1.0
 31
0.0
 12
-1.0
 22
0.0
 32
0.0
 13
0.0
 23
1.0
 33
0.0
  0
ENDBLK
  5
E5
330
E3
100
AcDbEntity
  8
0
100
AcDbBlockEnd
  0
BLOCK
  5
F0
330
EF
100
AcDbEntity
  8
0
100
AcDbBlockBegin
  2
Filled-1
 70
     0
 10
0.0
 20
0.0
 30
0.0
  3
Filled-1
  1

  0
LINE
  5
F2
330
EF
100
AcDbEntity
  8
0
 62
     0
100
AcDbLine
 10
-1.0
 20
0.0
 30
0.0
 11
0.0
 21
0.0
 31
0.0
  0
POLYLINE
  5
F3
330
EF
100
AcDbEntity
  8
0
 62
     0
100
AcDb2dPolyline
 66
     1
 10
0.0
 20
0.0
 30
0.0
 70
   128
  0
VERTEX
  5
F4
330
F3
100
AcDbEntity
  8
0
 62
     0
100
AcDbVertex
100
AcDb2dVertex
 10
-1.0
 20
-0.1
 30
0.0
  0
VERTEX
  5
F5
330
F3
100
AcDbEntity
  8
0
 62
     0
100
AcDbVertex
100
AcDb2dVertex
 10
0.0
 20
0.0
 30
0.0
  0
VERTEX
  5
F7
330
F3
100
AcDbEntity
  8
0
 62
     0
100
AcDbVertex
100
AcDb2dVertex
 10
-1.0
 20
0.1
 30
0.0
  0
VERTEX
  5
F8
330
F3
100
AcDbEntity
  8
0
 62
     0
100
AcDbVertex
100
AcDb2dVertex
 10
-1.0
 20
-0.1
 30
0.0
  0
SEQEND
  5
F6
330
F3
100
AcDbEntity
  8
0
 62
     0
  0
SOLID
  5
F9
330
EF
100
AcDbEntity
  8
0
 62
     0
100
AcDbTrace
 10
-1.0
 20
-0.1
 30
0.0
 11
0.0
 21
0.0
 31
0.0
 12
-1.0
 22
0.1
 32
0.0
 13
-1.0
 23
-0.1
 33
0.0
  0
LINE
  5
FA
330
EF
100
AcDbEntity
  8
0
 62
     0
100
AcDbLine
 10
-1.0
 20
-0.1
 30
0.0
 11
0.0
 21
0.0
 31
0.0
  0
LINE
  5
FB
330
EF
100
AcDbEntity
  8
0
 62
     0
100
AcDbLine
 10
0.0
 20
0.0
 30
0.0
 11
-1.0
 21
0.1
 31
0.0
  0
LINE
  5
FC
330
EF
100
AcDbEntity
  8
0
 62
     0
100
AcDbLine
 10
-1.0
 20
0.1
 30
0.0
 11
-1.0
 21
-0.1
 31
0.0
  0
ENDBLK
  5
F1
330
EF
100
AcDbEntity
  8
0
100
AcDbBlockEnd
  0
BLOCK
  5
FF
330
FE
100
AcDbEntity
  8
0
100
AcDbBlockBegin
  2
Borders Default Border
 70
     0
 10
0.0
 20
0.0
 30
0.0
  3
Borders Default Border
  1

  0
POLYLINE
  5
101
330
FE
100
AcDbEntity
  8
Border (ISO)
100
AcDb2dPolyline
 66
     1
 10
0.0
 20
0.0
 30
0.0
 70
   128
  0
VERTEX
  5
102
330
101
100
AcDbEntity
  8
Border (ISO)
100
AcDbVertex
100
AcDb2dVertex
 10
20.0
 20
20.0
 30
0.0
  0
VERTEX
  5
103
330
101
100
AcDbEntity
  8
Border (ISO)
100
AcDbVertex
100
AcDb2dVertex
 10
20.0
 20
574.000015258789
 30
0.0
  0
VERTEX
  5
105
330
101
100
AcDbEntity
  8
Border (ISO)
100
AcDbVertex
100
AcDb2dVertex
 10
820.999984741211
 20
574.000015258789
 30
0.0
  0
VERTEX
  5
106
330
101
100
AcDbEntity
  8
Border (ISO)
100
AcDbVertex
100
AcDb2dVertex
 10
820.999984741211
 20
20.0
 30
0.0
  0
VERTEX
  5
107
330
101
100
AcDbEntity
  8
Border (ISO)
100
AcDbVertex
100
AcDb2dVertex
 10
20.0
 20
20.0
 30
0.0
  0
SEQEND
  5
104
330
101
100
AcDbEntity
  8
Border (ISO)
  0
POLYLINE
  5
108
330
FE
100
AcDbEntity
  8
Border (ISO)
100
AcDb2dPolyline
 66
     1
 10
0.0
 20
0.0
 30
0.0
 70
   128
  0
VERTEX
  5
109
330
108
100
AcDbEntity
  8
Border (ISO)
100
AcDbVertex
100
AcDb2dVertex
 10
420.4999923706054
 20
0.0
 30
0.0
  0
VERTEX
  5
10A
330
108
100
AcDbEntity
  8
Border (ISO)
100
AcDbVertex
100
AcDb2dVertex
 10
420.4999923706054
 20
20.0
 30
0.0
  0
VERTEX
  5
10C
330
108
100
AcDbEntity
  8
Border (ISO)
100
AcDbVertex
100
AcDb2dVertex
 10
414.7264862060547
 20
10.0
 30
0.0
  0
VERTEX
  5
10D
330
108
100
AcDbEntity
  8
Border (ISO)
100
AcDbVertex
100
AcDb2dVertex
 10
426.2734985351562
 20
10.0
 30
0.0
  0
VERTEX
  5
10E
330
108
100
AcDbEntity
  8
Border (ISO)
100
AcDbVertex
100
AcDb2dVertex
 10
420.4999923706054
 20
20.0
 30
0.0
  0
SEQEND
  5
10B
330
108
100
AcDbEntity
  8
Border (ISO)
  0
POLYLINE
  5
10F
330
FE
100
AcDbEntity
  8
Border (ISO)
100
AcDb2dPolyline
 66
     1
 10
0.0
 20
0.0
 30
0.0
 70
   128
  0
VERTEX
  5
110
330
10F
100
AcDbEntity
  8
Border (ISO)
100
AcDbVertex
100
AcDb2dVertex
 10
420.4999923706054
 20
594.0000152587891
 30
0.0
  0
VERTEX
  5
111
330
10F
100
AcDbEntity
  8
Border (ISO)
100
AcDbVertex
100
AcDb2dVertex
 10
420.4999923706054
 20
574.000015258789
 30
0.0
  0
VERTEX
  5
113
330
10F
100
AcDbEntity
  8
Border (ISO)
100
AcDbVertex
100
AcDb2dVertex
 10
414.7264862060547
 20
584.000015258789
 30
0.0
  0
VERTEX
  5
114
330
10F
100
AcDbEntity
  8
Border (ISO)
100
AcDbVertex
100
AcDb2dVertex
 10
426.2734985351562
 20
584.000015258789
 30
0.0
  0
VERTEX
  5
115
330
10F
100
AcDbEntity
  8
Border (ISO)
100
AcDbVertex
100
AcDb2dVertex
 10
420.4999923706054
 20
574.000015258789
 30
0.0
  0
SEQEND
  5
112
330
10F
100
AcDbEntity
  8
Border (ISO)
  0
POLYLINE
  5
116
330
FE
100
AcDbEntity
  8
Border (ISO)
100
AcDb2dPolyline
 66
     1
 10
0.0
 20
0.0
 30
0.0
 70
   128
  0
VERTEX
  5
117
330
116
100
AcDbEntity
  8
Border (ISO)
100
AcDbVertex
100
AcDb2dVertex
 10
0.0
 20
297.0000076293946
 30
0.0
  0
VERTEX
  5
118
330
116
100
AcDbEntity
  8
Border (ISO)
100
AcDbVertex
100
AcDb2dVertex
 10
20.0
 20
297.0000076293946
 30
0.0
  0
VERTEX
  5
11A
330
116
100
AcDbEntity
  8
Border (ISO)
100
AcDbVertex
100
AcDb2dVertex
 10
10.0
 20
302.773494720459
 30
0.0
  0
VERTEX
  5
11B
330
116
100
AcDbEntity
  8
Border (ISO)
100
AcDbVertex
100
AcDb2dVertex
 10
10.0
 20
291.2265014648438
 30
0.0
  0
VERTEX
  5
11C
330
116
100
AcDbEntity
  8
Border (ISO)
100
AcDbVertex
100
AcDb2dVertex
 10
20.0
 20
297.0000076293946
 30
0.0
  0
SEQEND
  5
119
330
116
100
AcDbEntity
  8
Border (ISO)
  0
POLYLINE
  5
11D
330
FE
100
AcDbEntity
  8
Border (ISO)
100
AcDb2dPolyline
 66
     1
 10
0.0
 20
0.0
 30
0.0
 70
   128
  0
VERTEX
  5
11E
330
11D
100
AcDbEntity
  8
Border (ISO)
100
AcDbVertex
100
AcDb2dVertex
 10
840.9999847412109
 20
297.0000076293946
 30
0.0
  0
VERTEX
  5
11F
330
11D
100
AcDbEntity
  8
Border (ISO)
100
AcDbVertex
100
AcDb2dVertex
 10
820.999984741211
 20
297.0000076293946
 30
0.0
  0
VERTEX
  5
121
330
11D
100
AcDbEntity
  8
Border (ISO)
100
AcDbVertex
100
AcDb2dVertex
 10
830.9999847412109
 20
302.773494720459
 30
0.0
  0
VERTEX
  5
122
330
11D
100
AcDbEntity
  8
Border (ISO)
100
AcDbVertex
100
AcDb2dVertex
 10
830.9999847412109
 20
291.2265014648438
 30
0.0
  0
VERTEX
  5
123
330
11D
100
AcDbEntity
  8
Border (ISO)
100
AcDbVertex
100
AcDb2dVertex
 10
820.999984741211
 20
297.0000076293946
 30
0.0
  0
SEQEND
  5
120
330
11D
100
AcDbEntity
  8
Border (ISO)
  0
LINE
  5
124
330
FE
100
AcDbEntity
  8
Border (ISO)
100
AcDbLine
 10
70.08333206176757
 20
20.0
 30
0.0
 11
70.08333206176757
 21
17.10000038146972
 31
0.0
  0
LINE
  5
125
330
FE
100
AcDbEntity
  8
Border (ISO)
100
AcDbLine
 10
70.08333206176757
 20
574.000015258789
 30
0.0
 11
70.08333206176757
 21
576.8999862670898
 31
0.0
  0
LINE
  5
126
330
FE
100
AcDbEntity
  8
Border (ISO)
100
AcDbLine
 10
140.1666641235351
 20
20.0
 30
0.0
 11
140.1666641235351
 21
17.10000038146972
 31
0.0
  0
LINE
  5
127
330
FE
100
AcDbEntity
  8
Border (ISO)
100
AcDbLine
 10
140.1666641235351
 20
574.000015258789
 30
0.0
 11
140.1666641235351
 21
576.8999862670898
 31
0.0
  0
LINE
  5
128
330
FE
100
AcDbEntity
  8
Border (ISO)
100
AcDbLine
 10
210.2499961853027
 20
20.0
 30
0.0
 11
210.2499961853027
 21
17.10000038146972
 31
0.0
  0
LINE
  5
129
330
FE
100
AcDbEntity
  8
Border (ISO)
100
AcDbLine
 10
210.2499961853027
 20
574.000015258789
 30
0.0
 11
210.2499961853027
 21
576.8999862670898
 31
0.0
  0
LINE
  5
12A
330
FE
100
AcDbEntity
  8
Border (ISO)
100
AcDbLine
 10
280.3333282470703
 20
20.0
 30
0.0
 11
280.3333282470703
 21
17.10000038146972
 31
0.0
  0
LINE
  5
12B
330
FE
100
AcDbEntity
  8
Border (ISO)
100
AcDbLine
 10
280.3333282470703
 20
574.000015258789
 30
0.0
 11
280.3333282470703
 21
576.8999862670898
 31
0.0
  0
LINE
  5
12C
330
FE
100
AcDbEntity
  8
Border (ISO)
100
AcDbLine
 10
350.4166793823242
 20
20.0
 30
0.0
 11
350.4166793823242
 21
17.10000038146972
 31
0.0
  0
LINE
  5
12D
330
FE
100
AcDbEntity
  8
Border (ISO)
100
AcDbLine
 10
350.4166793823242
 20
574.000015258789
 30
0.0
 11
350.4166793823242
 21
576.8999862670898
 31
0.0
  0
LINE
  5
12E
330
FE
100
AcDbEntity
  8
Border (ISO)
100
AcDbLine
 10
490.5833435058593
 20
20.0
 30
0.0
 11
490.5833435058593
 21
17.10000038146972
 31
0.0
  0
LINE
  5
12F
330
FE
100
AcDbEntity
  8
Border (ISO)
100
AcDbLine
 10
490.5833435058593
 20
574.000015258789
 30
0.0
 11
490.5833435058593
 21
576.8999862670898
 31
0.0
  0
LINE
  5
130
330
FE
100
AcDbEntity
  8
Border (ISO)
100
AcDbLine
 10
560.6666564941406
 20
20.0
 30
0.0
 11
560.6666564941406
 21
17.10000038146972
 31
0.0
  0
LINE
  5
131
330
FE
100
AcDbEntity
  8
Border (ISO)
100
AcDbLine
 10
560.6666564941406
 20
574.000015258789
 30
0.0
 11
560.6666564941406
 21
576.8999862670898
 31
0.0
  0
LINE
  5
132
330
FE
100
AcDbEntity
  8
Border (ISO)
100
AcDbLine
 10
630.7500076293945
 20
20.0
 30
0.0
 11
630.7500076293945
 21
17.10000038146972
 31
0.0
  0
LINE
  5
133
330
FE
100
AcDbEntity
  8
Border (ISO)
100
AcDbLine
 10
630.7500076293945
 20
574.000015258789
 30
0.0
 11
630.7500076293945
 21
576.8999862670898
 31
0.0
  0
LINE
  5
134
330
FE
100
AcDbEntity
  8
Border (ISO)
100
AcDbLine
 10
700.8333587646484
 20
20.0
 30
0.0
 11
700.8333587646484
 21
17.10000038146972
 31
0.0
  0
LINE
  5
135
330
FE
100
AcDbEntity
  8
Border (ISO)
100
AcDbLine
 10
700.8333587646484
 20
574.000015258789
 30
0.0
 11
700.8333587646484
 21
576.8999862670898
 31
0.0
  0
LINE
  5
136
330
FE
100
AcDbEntity
  8
Border (ISO)
100
AcDbLine
 10
770.9166717529297
 20
20.0
 30
0.0
 11
770.9166717529297
 21
17.10000038146972
 31
0.0
  0
LINE
  5
137
330
FE
100
AcDbEntity
  8
Border (ISO)
100
AcDbLine
 10
770.9166717529297
 20
574.000015258789
 30
0.0
 11
770.9166717529297
 21
576.8999862670898
 31
0.0
  0
MTEXT
  5
138
330
FE
100
AcDbEntity
  8
Border (ISO)
 62
   232
420
 13238372
100
AcDbMText
 10
34.47766113364014
 20
574.3999999999999
 30
0.0
 40
2.5
 41
0.0
 46
0.0
 71
     7
 72
     1
  1
1
  7
Note Text (ISO)
 73
     1
 44
1.0
  0
MTEXT
  5
13A
330
FE
100
AcDbEntity
  8
Border (ISO)
 62
   232
420
 13238372
100
AcDbMText
 10
34.47766113364014
 20
17.1
 30
0.0
 40
2.5
 41
0.0
 46
0.0
 71
     7
 72
     1
  1
1
  7
Note Text (ISO)
 73
     1
 44
1.0
  0
MTEXT
  5
13B
330
FE
100
AcDbEntity
  8
Border (ISO)
 62
   232
420
 13238372
100
AcDbMText
 10
104.3669939703322
 20
574.3999999999999
 30
0.0
 40
2.5
 41
0.0
 46
0.0
 71
     7
 72
     1
  1
2
  7
Note Text (ISO)
 73
     1
 44
1.0
  0
MTEXT
  5
13C
330
FE
100
AcDbEntity
  8
Border (ISO)
 62
   232
420
 13238372
100
AcDbMText
 10
104.3669939703322
 20
17.1
 30
0.0
 40
2.5
 41
0.0
 46
0.0
 71
     7
 72
     1
  1
2
  7
Note Text (ISO)
 73
     1
 44
1.0
  0
MTEXT
  5
13D
330
FE
100
AcDbEntity
  8
Border (ISO)
 62
   232
420
 13238372
100
AcDbMText
 10
174.4303272524654
 20
574.3473257688805
 30
0.0
 40
2.5
 41
0.0
 46
0.0
 71
     7
 72
     1
  1
3
  7
Note Text (ISO)
 73
     1
 44
1.0
  0
MTEXT
  5
13E
330
FE
100
AcDbEntity
  8
Border (ISO)
 62
   232
420
 13238372
100
AcDbMText
 10
174.4303272524654
 20
17.04732576888055
 30
0.0
 40
2.5
 41
0.0
 46
0.0
 71
     7
 72
     1
  1
3
  7
Note Text (ISO)
 73
     1
 44
1.0
  0
MTEXT
  5
13F
330
FE
100
AcDbEntity
  8
Border (ISO)
 62
   232
420
 13238372
100
AcDbMText
 10
244.4196603451581
 20
574.3999999999999
 30
0.0
 40
2.5
 41
0.0
 46
0.0
 71
     7
 72
     1
  1
4
  7
Note Text (ISO)
 73
     1
 44
1.0
  0
MTEXT
  5
140
330
FE
100
AcDbEntity
  8
Border (ISO)
 62
   232
420
 13238372
100
AcDbMText
 10
244.4196603451581
 20
17.1
 30
0.0
 40
2.5
 41
0.0
 46
0.0
 71
     7
 72
     1
  1
4
  7
Note Text (ISO)
 73
     1
 44
1.0
  0
MTEXT
  5
141
330
FE
100
AcDbEntity
  8
Border (ISO)
 62
   232
420
 13238372
100
AcDbMText
 10
314.6429940368923
 20
574.3473257688805
 30
0.0
 40
2.5
 41
0.0
 46
0.0
 71
     7
 72
     1
  1
5
  7
Note Text (ISO)
 73
     1
 44
1.0
  0
MTEXT
  5
142
330
FE
100
AcDbEntity
  8
Border (ISO)
 62
   232
420
 13238372
100
AcDbMText
 10
314.6429940368923
 20
17.04732576888055
 30
0.0
 40
2.5
 41
0.0
 46
0.0
 71
     7
 72
     1
  1
5
  7
Note Text (ISO)
 73
     1
 44
1.0
  0
MTEXT
  5
143
330
FE
100
AcDbEntity
  8
Border (ISO)
 62
   232
420
 13238372
100
AcDbMText
 10
384.6603272012653
 20
574.3473257688805
 30
0.0
 40
2.5
 41
0.0
 46
0.0
 71
     7
 72
     1
  1
6
  7
Note Text (ISO)
 73
     1
 44
1.0
  0
MTEXT
  5
144
330
FE
100
AcDbEntity
  8
Border (ISO)
 62
   232
420
 13238372
100
AcDbMText
 10
384.6603272012653
 20
17.04732576888055
 30
0.0
 40
2.5
 41
0.0
 46
0.0
 71
     7
 72
     1
  1
6
  7
Note Text (ISO)
 73
     1
 44
1.0
  0
MTEXT
  5
145
330
FE
100
AcDbEntity
  8
Border (ISO)
 62
   232
420
 13238372
100
AcDbMText
 10
454.7676605960387
 20
574.3999999999999
 30
0.0
 40
2.5
 41
0.0
 46
0.0
 71
     7
 72
     1
  1
7
  7
Note Text (ISO)
 73
     1
 44
1.0
  0
MTEXT
  5
146
330
FE
100
AcDbEntity
  8
Border (ISO)
 62
   232
420
 13238372
100
AcDbMText
 10
454.7676605960387
 20
17.1
 30
0.0
 40
2.5
 41
0.0
 46
0.0
 71
     7
 72
     1
  1
7
  7
Note Text (ISO)
 73
     1
 44
1.0
  0
MTEXT
  5
147
330
FE
100
AcDbEntity
  8
Border (ISO)
 62
   232
420
 13238372
100
AcDbMText
 10
524.8089938218518
 20
574.3432739056646
 30
0.0
 40
2.5
 41
0.0
 46
0.0
 71
     7
 72
     1
  1
8
  7
Note Text (ISO)
 73
     1
 44
1.0
  0
MTEXT
  5
148
330
FE
100
AcDbEntity
  8
Border (ISO)
 62
   232
420
 13238372
100
AcDbMText
 10
524.8089938218518
 20
17.04327390566468
 30
0.0
 40
2.5
 41
0.0
 46
0.0
 71
     7
 72
     1
  1
8
  7
Note Text (ISO)
 73
     1
 44
1.0
  0
MTEXT
  5
149
330
FE
100
AcDbEntity
  8
Border (ISO)
 62
   232
420
 13238372
100
AcDbMText
 10
594.882327129585
 20
574.3513776320964
 30
0.0
 40
2.5
 41
0.0
 46
0.0
 71
     7
 72
     1
  1
9
  7
Note Text (ISO)
 73
     1
 44
1.0
  0
MTEXT
  5
14A
330
FE
100
AcDbEntity
  8
Border (ISO)
 62
   232
420
 13238372
100
AcDbMText
 10
594.882327129585
 20
17.05137763209641
 30
0.0
 40
2.5
 41
0.0
 46
0.0
 71
     7
 72
     1
  1
9
  7
Note Text (ISO)
 73
     1
 44
1.0
  0
MTEXT
  5
14B
330
FE
100
AcDbEntity
  8
Border (ISO)
 62
   232
420
 13238372
100
AcDbMText
 10
664.2896546431711
 20
574.3473257688805
 30
0.0
 40
2.5
 41
0.0
 46
0.0
 71
     7
 72
     1
  1
10
  7
Note Text (ISO)
 73
     1
 44
1.0
  0
MTEXT
  5
14C
330
FE
100
AcDbEntity
  8
Border (ISO)
 62
   232
420
 13238372
100
AcDbMText
 10
664.2896546431711
 20
17.04732576888055
 30
0.0
 40
2.5
 41
0.0
 46
0.0
 71
     7
 72
     1
  1
10
  7
Note Text (ISO)
 73
     1
 44
1.0
  0
MTEXT
  5
14D
330
FE
100
AcDbEntity
  8
Border (ISO)
 62
   232
420
 13238372
100
AcDbMText
 10
734.3729879765045
 20
574.3999999999999
 30
0.0
 40
2.5
 41
0.0
 46
0.0
 71
     7
 72
     1
  1
11
  7
Note Text (ISO)
 73
     1
 44
1.0
  0
MTEXT
  5
14E
330
FE
100
AcDbEntity
  8
Border (ISO)
 62
   232
420
 13238372
100
AcDbMText
 10
734.3729879765045
 20
17.1
 30
0.0
 40
2.5
 41
0.0
 46
0.0
 71
     7
 72
     1
  1
11
  7
Note Text (ISO)
 73
     1
 44
1.0
  0
MTEXT
  5
14F
330
FE
100
AcDbEntity
  8
Border (ISO)
 62
   232
420
 13238372
100
AcDbMText
 10
804.4563213098378
 20
574.3999999999999
 30
0.0
 40
2.5
 41
0.0
 46
0.0
 71
     7
 72
     1
  1
12
  7
Note Text (ISO)
 73
     1
 44
1.0
  0
MTEXT
  5
150
330
FE
100
AcDbEntity
  8
Border (ISO)
 62
   232
420
 13238372
100
AcDbMText
 10
804.4563213098378
 20
17.1
 30
0.0
 40
2.5
 41
0.0
 46
0.0
 71
     7
 72
     1
  1
12
  7
Note Text (ISO)
 73
     1
 44
1.0
  0
LINE
  5
151
330
FE
100
AcDbEntity
  8
Border (ISO)
100
AcDbLine
 10
20.0
 20
74.25000190734863
 30
0.0
 11
17.10000038146972
 21
74.25000190734863
 31
0.0
  0
LINE
  5
152
330
FE
100
AcDbEntity
  8
Border (ISO)
100
AcDbLine
 10
820.999984741211
 20
74.25000190734863
 30
0.0
 11
823.8999938964843
 21
74.25000190734863
 31
0.0
  0
LINE
  5
153
330
FE
100
AcDbEntity
  8
Border (ISO)
100
AcDbLine
 10
20.0
 20
148.5000038146973
 30
0.0
 11
17.10000038146972
 21
148.5000038146973
 31
0.0
  0
LINE
  5
154
330
FE
100
AcDbEntity
  8
Border (ISO)
100
AcDbLine
 10
820.999984741211
 20
148.5000038146973
 30
0.0
 11
823.8999938964843
 21
148.5000038146973
 31
0.0
  0
LINE
  5
155
330
FE
100
AcDbEntity
  8
Border (ISO)
100
AcDbLine
 10
20.0
 20
222.7499961853027
 30
0.0
 11
17.10000038146972
 21
222.7499961853027
 31
0.0
  0
LINE
  5
156
330
FE
100
AcDbEntity
  8
Border (ISO)
100
AcDbLine
 10
820.999984741211
 20
222.7499961853027
 30
0.0
 11
823.8999938964843
 21
222.7499961853027
 31
0.0
  0
LINE
  5
157
330
FE
100
AcDbEntity
  8
Border (ISO)
100
AcDbLine
 10
20.0
 20
371.25
 30
0.0
 11
17.10000038146972
 21
371.25
 31
0.0
  0
LINE
  5
158
330
FE
100
AcDbEntity
  8
Border (ISO)
100
AcDbLine
 10
820.999984741211
 20
371.25
 30
0.0
 11
823.8999938964843
 21
371.25
 31
0.0
  0
LINE
  5
159
330
FE
100
AcDbEntity
  8
Border (ISO)
100
AcDbLine
 10
20.0
 20
445.4999923706054
 30
0.0
 11
17.10000038146972
 21
445.4999923706054
 31
0.0
  0
LINE
  5
15A
330
FE
100
AcDbEntity
  8
Border (ISO)
100
AcDbLine
 10
820.999984741211
 20
445.4999923706054
 30
0.0
 11
823.8999938964843
 21
445.4999923706054
 31
0.0
  0
LINE
  5
15B
330
FE
100
AcDbEntity
  8
Border (ISO)
100
AcDbLine
 10
20.0
 20
519.7499847412109
 30
0.0
 11
17.10000038146972
 21
519.7499847412109
 31
0.0
  0
LINE
  5
15C
330
FE
100
AcDbEntity
  8
Border (ISO)
100
AcDbLine
 10
820.999984741211
 20
519.7499847412109
 30
0.0
 11
823.8999938964843
 21
519.7499847412109
 31
0.0
  0
MTEXT
  5
15D
330
FE
100
AcDbEntity
  8
Border (ISO)
 62
   232
420
 13238372
100
AcDbMText
 10
17.28659316639921
 20
555.625
 30
0.0
 40
2.5
 41
0.0
 46
0.0
 71
     7
 72
     1
  1
A
  7
Note Text (ISO)
 73
     1
 44
1.0
  0
MTEXT
  5
15E
330
FE
100
AcDbEntity
  8
Border (ISO)
 62
   232
420
 13238372
100
AcDbMText
 10
821.5865931663993
 20
555.625
 30
0.0
 40
2.5
 41
0.0
 46
0.0
 71
     7
 72
     1
  1
A
  7
Note Text (ISO)
 73
     1
 44
1.0
  0
MTEXT
  5
15F
330
FE
100
AcDbEntity
  8
Border (ISO)
 62
   232
420
 13238372
100
AcDbMText
 10
17.58703467771087
 20
481.3749999999999
 30
0.0
 40
2.5
 41
0.0
 46
0.0
 71
     7
 72
     1
  1
B
  7
Note Text (ISO)
 73
     1
 44
1.0
  0
MTEXT
  5
160
330
FE
100
AcDbEntity
  8
Border (ISO)
 62
   232
420
 13238372
100
AcDbMText
 10
821.8870346777109
 20
481.3749999999999
 30
0.0
 40
2.5
 41
0.0
 46
0.0
 71
     7
 72
     1
  1
B
  7
Note Text (ISO)
 73
     1
 44
1.0
  0
MTEXT
  5
161
330
FE
100
AcDbEntity
  8
Border (ISO)
 62
   232
420
 13238372
100
AcDbMText
 10
17.42778797951198
 20
407.0804294999689
 30
0.0
 40
2.5
 41
0.0
 46
0.0
 71
     7
 72
     1
  1
C
  7
Note Text (ISO)
 73
     1
 44
1.0
  0
MTEXT
  5
162
330
FE
100
AcDbEntity
  8
Border (ISO)
 62
   232
420
 13238372
100
AcDbMText
 10
821.7277879795119
 20
407.0804294999689
 30
0.0
 40
2.5
 41
0.0
 46
0.0
 71
     7
 72
     1
  1
C
  7
Note Text (ISO)
 73
     1
 44
1.0
  0
MTEXT
  5
163
330
FE
100
AcDbEntity
  8
Border (ISO)
 62
   232
420
 13238372
100
AcDbMText
 10
17.43407686575924
 20
332.8750000000001
 30
0.0
 40
2.5
 41
0.0
 46
0.0
 71
     7
 72
     1
  1
D
  7
Note Text (ISO)
 73
     1
 44
1.0
  0
MTEXT
  5
164
330
FE
100
AcDbEntity
  8
Border (ISO)
 62
   232
420
 13238372
100
AcDbMText
 10
821.7340768657592
 20
332.8750000000001
 30
0.0
 40
2.5
 41
0.0
 46
0.0
 71
     7
 72
     1
  1
D
  7
Note Text (ISO)
 73
     1
 44
1.0
  0
MTEXT
  5
165
330
FE
100
AcDbEntity
  8
Border (ISO)
 62
   232
420
 13238372
100
AcDbMText
 10
17.63565709218059
 20
258.6250000000001
 30
0.0
 40
2.5
 41
0.0
 46
0.0
 71
     7
 72
     1
  1
E
  7
Note Text (ISO)
 73
     1
 44
1.0
  0
MTEXT
  5
166
330
FE
100
AcDbEntity
  8
Border (ISO)
 62
   232
420
 13238372
100
AcDbMText
 10
821.9356570921807
 20
258.6250000000001
 30
0.0
 40
2.5
 41
0.0
 46
0.0
 71
     7
 72
     1
  1
E
  7
Note Text (ISO)
 73
     1
 44
1.0
  0
MTEXT
  5
167
330
FE
100
AcDbEntity
  8
Border (ISO)
 62
   232
420
 13238372
100
AcDbMText
 10
17.70352577194248
 20
184.375
 30
0.0
 40
2.5
 41
0.0
 46
0.0
 71
     7
 72
     1
  1
F
  7
Note Text (ISO)
 73
     1
 44
1.0
  0
MTEXT
  5
168
330
FE
100
AcDbEntity
  8
Border (ISO)
 62
   232
420
 13238372
100
AcDbMText
 10
822.0035257719425
 20
184.375
 30
0.0
 40
2.5
 41
0.0
 46
0.0
 71
     7
 72
     1
  1
F
  7
Note Text (ISO)
 73
     1
 44
1.0
  0
MTEXT
  5
169
330
FE
100
AcDbEntity
  8
Border (ISO)
 62
   232
420
 13238372
100
AcDbMText
 10
17.31230986621833
 20
110.0763776320965
 30
0.0
 40
2.5
 41
0.0
 46
0.0
 71
     7
 72
     1
  1
G
  7
Note Text (ISO)
 73
     1
 44
1.0
  0
MTEXT
  5
16A
330
FE
100
AcDbEntity
  8
Border (ISO)
 62
   232
420
 13238372
100
AcDbMText
 10
821.6123098662183
 20
110.0763776320965
 30
0.0
 40
2.5
 41
0.0
 46
0.0
 71
     7
 72
     1
  1
G
  7
Note Text (ISO)
 73
     1
 44
1.0
  0
MTEXT
  5
16B
330
FE
100
AcDbEntity
  8
Border (ISO)
 62
   232
420
 13238372
100
AcDbMText
 10
17.43914169594322
 20
35.87500000000007
 30
0.0
 40
2.5
 41
0.0
 46
0.0
 71
     7
 72
     1
  1
H
  7
Note Text (ISO)
 73
     1
 44
1.0
  0
MTEXT
  5
16C
330
FE
100
AcDbEntity
  8
Border (ISO)
 62
   232
420
 13238372
100
AcDbMText
 10
821.7391416959433
 20
35.87500000000007
 30
0.0
 40
2.5
 41
0.0
 46
0.0
 71
     7
 72
     1
  1
H
  7
Note Text (ISO)
 73
     1
 44
1.0
  0
ENDBLK
  5
100
330
FE
100
AcDbEntity
  8
0
100
AcDbBlockEnd
  0
BLOCK
  5
16F
330
16E
100
AcDbEntity
  8
0
100
AcDbBlockBegin
  2
Title Blocks ISO
 70
     2
 10
0.0
 20
0.0
 30
0.0
  3
Title Blocks ISO
  1

  0
ATTDEF
  5
171
102
{ACAD_XDICTIONARY
360
99E
102
}
330
16E
100
AcDbEntity
  8
Title (ISO)
 62
   232
420
 13238372
100
AcDbText
 10
34.15585882339947
 20
73.13494450671268
 30
0.0
 40
2.5
  1
492404050025
  7
Note Text (ISO)
100
AcDbAttributeDefinition
280
     0
  3
PART NUMBER
  2
PART_NUMBER_001
 70
     0
280
     0
  0
ATTDEF
  5
174
102
{ACAD_XDICTIONARY
360
9A3
102
}
330
16E
100
AcDbEntity
  8
Title (ISO)
 62
   232
420
 13238372
100
AcDbText
 10
33.83688029166227
 20
63.39776635682264
 30
0.0
 40
2.5
  1
PLASSON REDUCING TEE WITH
  7
Note Text (ISO)
100
AcDbAttributeDefinition
280
     0
  3
DESCRIPTION
  2
DESCRIPTION_001
 70
     0
280
     0
  0
ATTDEF
  5
9A1
102
{ACAD_XDICTIONARY
360
9A2
102
}
330
16E
100
AcDbEntity
  8
Title (ISO)
 62
   232
420
 13238372
100
AcDbText
 10
34.09040614630361
 20
59.17905135204449
 30
0.0
 40
2.5
  1
TWO OUTLETS 50X25X25X50
  7
Note Text (ISO)
100
AcDbAttributeDefinition
280
     0
  3
DESCRIPTION
  2
DESCRIPTION_002
 70
     0
280
     0
  0
ENDBLK
  5
170
330
16E
100
AcDbEntity
  8
0
100
AcDbBlockEnd
  0
BLOCK
  5
1DE
330
1DD
100
AcDbEntity
  8
0
100
AcDbBlockBegin
  2
2dTransSection0
 70
     0
 10
0.0
 20
0.0
 30
0.0
  3
2dTransSection0
  1

  0
LINE
  5
1E0
330
1DD
100
AcDbEntity
  8
Section Line (ISO)
  6
CHAIN
100
AcDbLine
 10
272.2454643934254
 20
252.4273716077983
 30
0.0
 11
569.8325729299385
 21
252.4273716077983
 31
0.0
  0
LINE
  5
1E1
330
1DD
100
AcDbEntity
  8
Section Line (ISO)
  6
Continuous
370
   140
100
AcDbLine
 10
272.2454643934254
 20
252.4273716077983
 30
0.0
 11
282.6026806321892
 21
252.4273716077983
 31
0.0
  0
LINE
  5
1E2
330
1DD
100
AcDbEntity
  8
Section Line (ISO)
  6
Continuous
370
   140
100
AcDbLine
 10
559.4753566911747
 20
252.4273716077983
 30
0.0
 11
569.8325729299385
 21
252.4273716077983
 31
0.0
  0
LINE
  5
1E3
330
1DD
100
AcDbEntity
  8
Section Line (ISO)
  6
Continuous
100
AcDbLine
 10
277.4240725128073
 20
254.9273716077983
 30
0.0
 11
277.4240725128073
 21
252.4273716077983
 31
0.0
  0
POLYLINE
  5
1E4
330
1DD
100
AcDbEntity
  8
Section Line (ISO)
  6
Continuous
100
AcDb2dPolyline
 66
     1
 10
0.0
 20
0.0
 30
0.0
 70
   128
  0
VERTEX
  5
1E5
330
1E4
100
AcDbEntity
  8
Section Line (ISO)
  6
Continuous
100
AcDbVertex
100
AcDb2dVertex
 10
276.9240696645178
 20
254.9273713693797
 30
0.0
  0
VERTEX
  5
1E6
330
1E4
100
AcDbEntity
  8
Section Line (ISO)
  6
Continuous
100
AcDbVertex
100
AcDb2dVertex
 10
277.4240715718665
 20
252.4273713693797
 30
0.0
  0
VERTEX
  5
1E8
330
1E4
100
AcDbEntity
  8
Section Line (ISO)
  6
Continuous
100
AcDbVertex
100
AcDb2dVertex
 10
277.9240734792151
 20
254.9273713693797
 30
0.0
  0
VERTEX
  5
1E9
330
1E4
100
AcDbEntity
  8
Section Line (ISO)
  6
Continuous
100
AcDbVertex
100
AcDb2dVertex
 10
276.9240696645178
 20
254.9273713693797
 30
0.0
  0
SEQEND
  5
1E7
330
1E4
100
AcDbEntity
  8
Section Line (ISO)
  6
Continuous
  0
SOLID
  5
1EA
330
1DD
100
AcDbEntity
  8
Section Line (ISO)
100
AcDbTrace
 10
276.9240696645178
 20
254.9273713693797
 30
0.0
 11
277.4240715718665
 21
252.4273713693797
 31
0.0
 12
277.9240734792151
 22
254.9273713693797
 32
0.0
 13
276.9240696645178
 23
254.9273713693797
 33
0.0
  0
LINE
  5
1EB
330
1DD
100
AcDbEntity
  8
Section Line (ISO)
  6
Continuous
100
AcDbLine
 10
276.9240725128073
 20
254.9273716077983
 30
0.0
 11
277.4240725128073
 21
252.4273716077983
 31
0.0
  0
LINE
  5
1EC
330
1DD
100
AcDbEntity
  8
Section Line (ISO)
  6
Continuous
100
AcDbLine
 10
277.4240725128073
 20
252.4273716077983
 30
0.0
 11
277.9240725128073
 21
254.9273716077983
 31
0.0
  0
LINE
  5
1ED
330
1DD
100
AcDbEntity
  8
Section Line (ISO)
  6
Continuous
100
AcDbLine
 10
277.9240725128073
 20
254.9273716077983
 30
0.0
 11
276.9240725128073
 21
254.9273716077983
 31
0.0
  0
LINE
  5
1EE
330
1DD
100
AcDbEntity
  8
Section Line (ISO)
  6
Continuous
100
AcDbLine
 10
277.4240725128073
 20
259.6258424213898
 30
0.0
 11
277.4240725128073
 21
254.9273716077983
 31
0.0
  0
LINE
  5
1EF
330
1DD
100
AcDbEntity
  8
Section Line (ISO)
  6
Continuous
100
AcDbLine
 10
564.6539648105566
 20
254.9273716077983
 30
0.0
 11
564.6539648105566
 21
252.4273716077983
 31
0.0
  0
POLYLINE
  5
1F0
330
1DD
100
AcDbEntity
  8
Section Line (ISO)
  6
Continuous
100
AcDb2dPolyline
 66
     1
 10
0.0
 20
0.0
 30
0.0
 70
   128
  0
VERTEX
  5
1F1
330
1F0
100
AcDbEntity
  8
Section Line (ISO)
  6
Continuous
100
AcDbVertex
100
AcDb2dVertex
 10
564.1539604878821
 20
254.9273713693797
 30
0.0
  0
VERTEX
  5
1F2
330
1F0
100
AcDbEntity
  8
Section Line (ISO)
  6
Continuous
100
AcDbVertex
100
AcDb2dVertex
 10
564.6539623952308
 20
252.4273713693797
 30
0.0
  0
VERTEX
  5
1F4
330
1F0
100
AcDbEntity
  8
Section Line (ISO)
  6
Continuous
100
AcDbVertex
100
AcDb2dVertex
 10
565.1539643025794
 20
254.9273713693797
 30
0.0
  0
VERTEX
  5
1F5
330
1F0
100
AcDbEntity
  8
Section Line (ISO)
  6
Continuous
100
AcDbVertex
100
AcDb2dVertex
 10
564.1539604878821
 20
254.9273713693797
 30
0.0
  0
SEQEND
  5
1F3
330
1F0
100
AcDbEntity
  8
Section Line (ISO)
  6
Continuous
  0
SOLID
  5
1F6
330
1DD
100
AcDbEntity
  8
Section Line (ISO)
100
AcDbTrace
 10
564.1539604878821
 20
254.9273713693797
 30
0.0
 11
564.6539623952308
 21
252.4273713693797
 31
0.0
 12
565.1539643025794
 22
254.9273713693797
 32
0.0
 13
564.1539604878821
 23
254.9273713693797
 33
0.0
  0
LINE
  5
1F7
330
1DD
100
AcDbEntity
  8
Section Line (ISO)
  6
Continuous
100
AcDbLine
 10
564.1539648105566
 20
254.9273716077983
 30
0.0
 11
564.6539648105566
 21
252.4273716077983
 31
0.0
  0
LINE
  5
1F8
330
1DD
100
AcDbEntity
  8
Section Line (ISO)
  6
Continuous
100
AcDbLine
 10
564.6539648105566
 20
252.4273716077983
 30
0.0
 11
565.1539648105567
 21
254.9273716077983
 31
0.0
  0
LINE
  5
1F9
330
1DD
100
AcDbEntity
  8
Section Line (ISO)
  6
Continuous
100
AcDbLine
 10
565.1539648105567
 20
254.9273716077983
 30
0.0
 11
564.1539648105566
 21
254.9273716077983
 31
0.0
  0
LINE
  5
1FA
330
1DD
100
AcDbEntity
  8
Section Line (ISO)
  6
Continuous
100
AcDbLine
 10
564.6539648105566
 20
259.6258424213898
 30
0.0
 11
564.6539648105566
 21
254.9273716077983
 31
0.0
  0
MTEXT
  5
1FB
330
1DD
100
AcDbEntity
  8
Section Line (ISO)
100
AcDbMText
 10
276.3559209513339
 20
260.9273716077983
 30
0.0
 40
3.499999940395355
 41
0.0
 46
0.0
 71
     7
 72
     1
  1
B
  7
Label Text (ISO)
 73
     1
 44
1.0
  0
MTEXT
  5
1FC
330
1DD
100
AcDbEntity
  8
Section Line (ISO)
100
AcDbMText
 10
563.5858132490832
 20
260.9273716077983
 30
0.0
 40
3.499999940395355
 41
0.0
 46
0.0
 71
     7
 72
     1
  1
B
  7
Label Text (ISO)
 73
     1
 44
1.0
  0
ENDBLK
  5
1DF
330
1DD
100
AcDbEntity
  8
0
100
AcDbBlockEnd
  0
BLOCK
  5
271
330
270
100
AcDbEntity
  8
0
100
AcDbBlockBegin
  2
*D7
 70
     1
 10
0.0
 20
0.0
 30
0.0
  3
*D7
  1

  0
LINE
  5
349
330
270
100
AcDbEntity
  8
Dimension (ISO)
440
 16777216
100
AcDbLine
 10
508.0312187886633
 20
-175.0621072925917
 30
0.0
 11
523.4145936685658
 21
-175.0621072925917
 31
0.0
  0
LINE
  5
34A
330
270
100
AcDbEntity
  8
Dimension (ISO)
440
 16777216
100
AcDbLine
 10
508.0312187886633
 20
-225.0621072925918
 30
0.0
 11
523.4145936685658
 21
-225.0621072925918
 31
0.0
  0
LINE
  5
34B
330
270
100
AcDbEntity
  8
Dimension (ISO)
440
 16777216
100
AcDbLine
 10
520.2395936685659
 20
-177.5621072925918
 30
0.0
 11
520.2395936685659
 21
-222.5621072925918
 31
0.0
  0
SOLID
  5
34C
330
270
100
AcDbEntity
  8
Dimension (ISO)
440
 16777216
100
AcDbTrace
 10
519.8229270018993
 20
-177.5621072925918
 30
0.0
 11
520.6562603352325
 21
-177.5621072925918
 31
0.0
 12
520.2395936685659
 22
-175.0621072925917
 32
0.0
 13
520.2395936685659
 23
-175.0621072925917
 33
0.0
  0
SOLID
  5
34D
330
270
100
AcDbEntity
  8
Dimension (ISO)
440
 16777216
100
AcDbTrace
 10
519.8229270018993
 20
-222.5621072925918
 30
0.0
 11
520.6562603352325
 21
-222.5621072925918
 31
0.0
 12
520.2395936685659
 22
-225.0621072925918
 32
0.0
 13
520.2395936685659
 23
-225.0621072925918
 33
0.0
  0
MTEXT
  5
34E
330
270
100
AcDbEntity
  8
Dimension (ISO)
 62
   232
420
 13238372
440
 16777216
100
AcDbMText
 10
515.7160957355558
 20
-212.1173076980252
 30
0.0
 40
2.5
 41
0.0
 46
0.0
 71
     1
 72
     1
  1
\A1;\fAIGDT|b0|i0;\H2.5000;\ln\fTahoma|b0|i0;\H2.5000;50,00
  7
Note Text (ISO)
 11
0.0000000000000001
 21
1.0
 31
0.0
 73
     1
 44
1.0
  0
POINT
  5
34F
330
270
100
AcDbEntity
  8
Defpoints
 62
     0
440
 16777216
100
AcDbPoint
 10
508.0312187886633
 20
-175.0621072925917
 30
0.0
  0
POINT
  5
350
330
270
100
AcDbEntity
  8
Defpoints
 62
     0
440
 16777216
100
AcDbPoint
 10
508.0312187886633
 20
-225.0621072925918
 30
0.0
  0
POINT
  5
351
330
270
100
AcDbEntity
  8
Defpoints
 62
     0
440
 16777216
100
AcDbPoint
 10
520.2395936685659
 20
-225.0621072925918
 30
0.0
  0
ENDBLK
  5
272
330
270
100
AcDbEntity
  8
0
100
AcDbBlockEnd
  0
BLOCK
  5
354
330
353
100
AcDbEntity
  8
0
100
AcDbBlockBegin
  2
*D8
 70
     1
 10
0.0
 20
0.0
 30
0.0
  3
*D8
  1

  0
LINE
  5
42B
330
353
100
AcDbEntity
  8
Dimension (ISO)
440
 16777216
100
AcDbLine
 10
455.5312187886634
 20
-121.0621072925917
 30
0.0
 11
455.5312187886634
 21
-100.1174917109175
 31
0.0
  0
LINE
  5
42C
330
353
100
AcDbEntity
  8
Dimension (ISO)
440
 16777216
100
AcDbLine
 10
430.5312187886634
 20
-121.0621072925917
 30
0.0
 11
430.5312187886634
 21
-100.1174917109175
 31
0.0
  0
LINE
  5
42D
330
353
100
AcDbEntity
  8
Dimension (ISO)
440
 16777216
100
AcDbLine
 10
453.0312187886633
 20
-103.2924917109175
 30
0.0
 11
433.0312187886633
 21
-103.2924917109175
 31
0.0
  0
SOLID
  5
42E
330
353
100
AcDbEntity
  8
Dimension (ISO)
440
 16777216
100
AcDbTrace
 10
453.0312187886633
 20
-102.8758250442508
 30
0.0
 11
453.0312187886633
 21
-103.7091583775841
 31
0.0
 12
455.5312187886634
 22
-103.2924917109175
 32
0.0
 13
455.5312187886634
 23
-103.2924917109175
 33
0.0
  0
SOLID
  5
42F
330
353
100
AcDbEntity
  8
Dimension (ISO)
440
 16777216
100
AcDbTrace
 10
433.0312187886633
 20
-102.8758250442508
 30
0.0
 11
433.0312187886633
 21
-103.7091583775841
 31
0.0
 12
430.5312187886634
 22
-103.2924917109175
 32
0.0
 13
430.5312187886634
 23
-103.2924917109175
 33
0.0
  0
MTEXT
  5
430
330
353
100
AcDbEntity
  8
Dimension (ISO)
 62
   232
420
 13238372
440
 16777216
100
AcDbMText
 10
431.4177198226284
 20
-99.35722107997621
 30
0.0
 40
2.5
 41
0.0
 46
0.0
 71
     1
 72
     1
  1
\A1;25,00
  7
Note Text (ISO)
 73
     1
 44
1.0
  0
POINT
  5
431
330
353
100
AcDbEntity
  8
Defpoints
 62
     0
440
 16777216
100
AcDbPoint
 10
455.5312187886634
 20
-121.0621072925917
 30
0.0
  0
POINT
  5
432
330
353
100
AcDbEntity
  8
Defpoints
 62
     0
440
 16777216
100
AcDbPoint
 10
430.5312187886634
 20
-121.0621072925917
 30
0.0
  0
POINT
  5
433
330
353
100
AcDbEntity
  8
Defpoints
 62
     0
440
 16777216
100
AcDbPoint
 10
430.5312187886634
 20
-103.2924917109175
 30
0.0
  0
ENDBLK
  5
355
330
353
100
AcDbEntity
  8
0
100
AcDbBlockEnd
  0
BLOCK
  5
436
330
435
100
AcDbEntity
  8
0
100
AcDbBlockBegin
  2
*D9
 70
     1
 10
0.0
 20
0.0
 30
0.0
  3
*D9
  1

  0
LINE
  5
50D
330
435
100
AcDbEntity
  8
Dimension (ISO)
440
 16777216
100
AcDbLine
 10
390.531103302335
 20
-121.0621072925917
 30
0.0
 11
390.531103302335
 21
-100.1174917109188
 31
0.0
  0
LINE
  5
50E
330
435
100
AcDbEntity
  8
Dimension (ISO)
440
 16777216
100
AcDbLine
 10
365.5313342749918
 20
-121.0621072925917
 30
0.0
 11
365.5313342749918
 21
-100.1174917109188
 31
0.0
  0
LINE
  5
50F
330
435
100
AcDbEntity
  8
Dimension (ISO)
440
 16777216
100
AcDbLine
 10
388.031103302335
 20
-103.2924917109188
 30
0.0
 11
368.0313342749918
 21
-103.2924917109188
 31
0.0
  0
SOLID
  5
510
330
435
100
AcDbEntity
  8
Dimension (ISO)
440
 16777216
100
AcDbTrace
 10
388.031103302335
 20
-102.8758250442521
 30
0.0
 11
388.031103302335
 21
-103.7091583775855
 31
0.0
 12
390.531103302335
 22
-103.2924917109188
 32
0.0
 13
390.531103302335
 23
-103.2924917109188
 33
0.0
  0
SOLID
  5
511
330
435
100
AcDbEntity
  8
Dimension (ISO)
440
 16777216
100
AcDbTrace
 10
368.0313342749918
 20
-102.8758250442521
 30
0.0
 11
368.0313342749918
 21
-103.7091583775855
 31
0.0
 12
365.5313342749918
 22
-103.2924917109188
 32
0.0
 13
365.5313342749918
 23
-103.2924917109188
 33
0.0
  0
MTEXT
  5
512
330
435
100
AcDbEntity
  8
Dimension (ISO)
 62
   232
420
 13238372
440
 16777216
100
AcDbMText
 10
366.4176765150547
 20
-99.35722107997756
 30
0.0
 40
2.5
 41
0.0
 46
0.0
 71
     1
 72
     1
  1
\A1;25,00
  7
Note Text (ISO)
 73
     1
 44
1.0
  0
POINT
  5
513
330
435
100
AcDbEntity
  8
Defpoints
 62
     0
440
 16777216
100
AcDbPoint
 10
390.531103302335
 20
-121.0621072925917
 30
0.0
  0
POINT
  5
514
330
435
100
AcDbEntity
  8
Defpoints
 62
     0
440
 16777216
100
AcDbPoint
 10
365.5313342749918
 20
-121.0621072925917
 30
0.0
  0
POINT
  5
515
330
435
100
AcDbEntity
  8
Defpoints
 62
     0
440
 16777216
100
AcDbPoint
 10
365.5313342749918
 20
-103.2924917109188
 30
0.0
  0
ENDBLK
  5
437
330
435
100
AcDbEntity
  8
0
100
AcDbBlockEnd
  0
BLOCK
  5
518
330
517
100
AcDbEntity
  8
0
100
AcDbBlockBegin
  2
*D10
 70
     1
 10
0.0
 20
0.0
 30
0.0
  3
*D10
  1

  0
LINE
  5
5EF
330
517
100
AcDbEntity
  8
Dimension (ISO)
440
 16777216
100
AcDbLine
 10
378.0312187886634
 20
-121.0621072925917
 30
0.0
 11
378.0312187886634
 21
-74.05113758610546
 31
0.0
  0
LINE
  5
5F0
330
517
100
AcDbEntity
  8
Dimension (ISO)
440
 16777216
100
AcDbLine
 10
443.0312187886634
 20
-121.0621072925917
 30
0.0
 11
443.0312187886634
 21
-74.05113758610546
 31
0.0
  0
LINE
  5
5F1
330
517
100
AcDbEntity
  8
Dimension (ISO)
440
 16777216
100
AcDbLine
 10
380.5312187886634
 20
-77.22613758610546
 30
0.0
 11
440.5312187886633
 21
-77.22613758610546
 31
0.0
  0
SOLID
  5
5F2
330
517
100
AcDbEntity
  8
Dimension (ISO)
440
 16777216
100
AcDbTrace
 10
380.5312187886634
 20
-76.80947091943879
 30
0.0
 11
380.5312187886634
 21
-77.64280425277213
 31
0.0
 12
378.0312187886634
 22
-77.22613758610546
 32
0.0
 13
378.0312187886634
 23
-77.22613758610546
 33
0.0
  0
SOLID
  5
5F3
330
517
100
AcDbEntity
  8
Dimension (ISO)
440
 16777216
100
AcDbTrace
 10
440.5312187886633
 20
-76.80947091943879
 30
0.0
 11
440.5312187886633
 21
-77.64280425277213
 31
0.0
 12
443.0312187886634
 22
-77.22613758610546
 32
0.0
 13
443.0312187886634
 23
-77.22613758610546
 33
0.0
  0
MTEXT
  5
5F4
330
517
100
AcDbEntity
  8
Dimension (ISO)
 62
   232
420
 13238372
440
 16777216
100
AcDbMText
 10
406.3975720725906
 20
-73.29254593433401
 30
0.0
 40
2.5
 41
0.0
 46
0.0
 71
     1
 72
     1
  1
\A1;65,00
  7
Note Text (ISO)
 73
     1
 44
1.0
  0
POINT
  5
5F5
330
517
100
AcDbEntity
  8
Defpoints
 62
     0
440
 16777216
100
AcDbPoint
 10
378.0312187886634
 20
-121.0621072925917
 30
0.0
  0
POINT
  5
5F6
330
517
100
AcDbEntity
  8
Defpoints
 62
     0
440
 16777216
100
AcDbPoint
 10
443.0312187886634
 20
-121.0621072925917
 30
0.0
  0
POINT
  5
5F7
330
517
100
AcDbEntity
  8
Defpoints
 62
     0
440
 16777216
100
AcDbPoint
 10
443.0312187886634
 20
-77.22613758610546
 30
0.0
  0
ENDBLK
  5
519
330
517
100
AcDbEntity
  8
0
100
AcDbBlockEnd
  0
BLOCK
  5
5FA
330
5F9
100
AcDbEntity
  8
0
100
AcDbBlockBegin
  2
*D11
 70
     1
 10
0.0
 20
0.0
 30
0.0
  3
*D11
  1

  0
LINE
  5
6C5
330
5F9
100
AcDbEntity
  8
Dimension (ISO)
440
 16777216
100
AcDbLine
 10
368.0313631469489
 20
-121.0621072925917
 30
0.0
 11
292.2231800670029
 21
-121.0621072925917
 31
0.0
  0
LINE
  5
6C6
330
5F9
100
AcDbEntity
  8
Dimension (ISO)
440
 16777216
100
AcDbLine
 10
326.09788545533
 20
-200.0621072925918
 30
0.0
 11
292.2231800670029
 21
-200.0621072925917
 31
0.0
  0
LINE
  5
6C7
330
5F9
100
AcDbEntity
  8
Dimension (ISO)
440
 16777216
100
AcDbLine
 10
295.398180067003
 20
-123.5621072925917
 30
0.0
 11
295.3981800670029
 21
-197.5621072925917
 31
0.0
  0
SOLID
  5
6C8
330
5F9
100
AcDbEntity
  8
Dimension (ISO)
440
 16777216
100
AcDbTrace
 10
294.9815134003363
 20
-123.5621072925917
 30
0.0
 11
295.8148467336696
 21
-123.5621072925917
 31
0.0
 12
295.398180067003
 22
-121.0621072925917
 32
0.0
 13
295.398180067003
 23
-121.0621072925917
 33
0.0
  0
SOLID
  5
6C9
330
5F9
100
AcDbEntity
  8
Dimension (ISO)
440
 16777216
100
AcDbTrace
 10
294.9815134003362
 20
-197.5621072925917
 30
0.0
 11
295.8148467336696
 21
-197.5621072925917
 31
0.0
 12
295.3981800670029
 22
-200.0621072925917
 32
0.0
 13
295.3981800670029
 23
-200.0621072925917
 33
0.0
  0
MTEXT
  5
6CA
330
5F9
100
AcDbEntity
  8
Dimension (ISO)
 62
   232
420
 13238372
440
 16777216
100
AcDbMText
 10
291.4645884152315
 20
-173.1840011544757
 30
0.0
 40
2.5
 41
0.0
 46
0.0
 71
     1
 72
     1
  1
\A1;79,00
  7
Note Text (ISO)
 11
0.0000000000000001
 21
1.0
 31
0.0
 73
     1
 44
1.0
  0
POINT
  5
6CB
330
5F9
100
AcDbEntity
  8
Defpoints
 62
     0
440
 16777216
100
AcDbPoint
 10
368.0313631469489
 20
-121.0621072925917
 30
0.0
  0
POINT
  5
6CC
330
5F9
100
AcDbEntity
  8
Defpoints
 62
     0
440
 16777216
100
AcDbPoint
 10
326.09788545533
 20
-200.0621072925918
 30
0.0
  0
POINT
  5
6CD
330
5F9
100
AcDbEntity
  8
Defpoints
 62
     0
440
 16777216
100
AcDbPoint
 10
295.3981800670029
 20
-200.0621072925917
 30
0.0
  0
ENDBLK
  5
5FB
330
5F9
100
AcDbEntity
  8
0
100
AcDbBlockEnd
  0
BLOCK
  5
6D0
330
6CF
100
AcDbEntity
  8
0
100
AcDbBlockBegin
  2
*D12
 70
     1
 10
0.0
 20
0.0
 30
0.0
  3
*D12
  1

  0
LINE
  5
7A7
330
6CF
100
AcDbEntity
  8
Dimension (ISO)
440
 16777216
100
AcDbLine
 10
313.0312187886634
 20
-175.0621072925917
 30
0.0
 11
324.9190204506581
 21
-175.0621072925918
 31
0.0
  0
LINE
  5
7A8
330
6CF
100
AcDbEntity
  8
Dimension (ISO)
440
 16777216
100
AcDbLine
 10
313.0312187886634
 20
-225.0621072925918
 30
0.0
 11
324.9190204506581
 21
-225.0621072925918
 31
0.0
  0
LINE
  5
7A9
330
6CF
100
AcDbEntity
  8
Dimension (ISO)
440
 16777216
100
AcDbLine
 10
321.7440204506581
 20
-177.5621072925918
 30
0.0
 11
321.7440204506581
 21
-222.5621072925918
 31
0.0
  0
SOLID
  5
7AA
330
6CF
100
AcDbEntity
  8
Dimension (ISO)
440
 16777216
100
AcDbTrace
 10
321.3273537839914
 20
-177.5621072925918
 30
0.0
 11
322.1606871173248
 21
-177.5621072925918
 31
0.0
 12
321.7440204506581
 22
-175.0621072925918
 32
0.0
 13
321.7440204506581
 23
-175.0621072925918
 33
0.0
  0
SOLID
  5
7AB
330
6CF
100
AcDbEntity
  8
Dimension (ISO)
440
 16777216
100
AcDbTrace
 10
321.3273537839914
 20
-222.5621072925918
 30
0.0
 11
322.1606871173248
 21
-222.5621072925918
 31
0.0
 12
321.7440204506581
 22
-225.0621072925918
 32
0.0
 13
321.7440204506581
 23
-225.0621072925918
 33
0.0
  0
MTEXT
  5
7AC
330
6CF
100
AcDbEntity
  8
Dimension (ISO)
 62
   232
420
 13238372
440
 16777216
100
AcDbMText
 10
317.220522517648
 20
-212.1173076980252
 30
0.0
 40
2.5
 41
0.0
 46
0.0
 71
     1
 72
     1
  1
\A1;\fAIGDT|b0|i0;\H2.5000;\ln\fTahoma|b0|i0;\H2.5000;50,00
  7
Note Text (ISO)
 11
0.0000000000000001
 21
1.0
 31
0.0
 73
     1
 44
1.0
  0
POINT
  5
7AD
330
6CF
100
AcDbEntity
  8
Defpoints
 62
     0
440
 16777216
100
AcDbPoint
 10
313.0312187886634
 20
-175.0621072925917
 30
0.0
  0
POINT
  5
7AE
330
6CF
100
AcDbEntity
  8
Defpoints
 62
     0
440
 16777216
100
AcDbPoint
 10
313.0312187886634
 20
-225.0621072925918
 30
0.0
  0
POINT
  5
7AF
330
6CF
100
AcDbEntity
  8
Defpoints
 62
     0
440
 16777216
100
AcDbPoint
 10
321.7440204506581
 20
-225.0621072925918
 30
0.0
  0
ENDBLK
  5
6D1
330
6CF
100
AcDbEntity
  8
0
100
AcDbBlockEnd
  0
BLOCK
  5
7B2
330
7B1
100
AcDbEntity
  8
0
100
AcDbBlockBegin
  2
*D13
 70
     1
 10
0.0
 20
0.0
 30
0.0
  3
*D13
  1

  0
LINE
  5
889
330
7B1
100
AcDbEntity
  8
Dimension (ISO)
440
 16777216
100
AcDbLine
 10
459.0312187886633
 20
-223.8121072925918
 30
0.0
 11
459.0312187886633
 21
-261.1271611784089
 31
0.0
  0
LINE
  5
88A
330
7B1
100
AcDbEntity
  8
Dimension (ISO)
440
 16777216
100
AcDbLine
 10
508.0312187886633
 20
-225.0621072925918
 30
0.0
 11
508.0312187886633
 21
-261.1271611784089
 31
0.0
  0
LINE
  5
88B
330
7B1
100
AcDbEntity
  8
Dimension (ISO)
440
 16777216
100
AcDbLine
 10
461.5312187886632
 20
-257.9521611784088
 30
0.0
 11
505.5312187886634
 21
-257.9521611784088
 31
0.0
  0
SOLID
  5
88C
330
7B1
100
AcDbEntity
  8
Dimension (ISO)
440
 16777216
100
AcDbTrace
 10
461.5312187886632
 20
-257.5354945117422
 30
0.0
 11
461.5312187886632
 21
-258.3688278450755
 31
0.0
 12
459.0312187886633
 22
-257.9521611784088
 32
0.0
 13
459.0312187886633
 23
-257.9521611784088
 33
0.0
  0
SOLID
  5
88D
330
7B1
100
AcDbEntity
  8
Dimension (ISO)
440
 16777216
100
AcDbTrace
 10
505.5312187886634
 20
-257.5354945117422
 30
0.0
 11
505.5312187886634
 21
-258.3688278450755
 31
0.0
 12
508.0312187886633
 22
-257.9521611784088
 32
0.0
 13
508.0312187886633
 23
-257.9521611784088
 33
0.0
  0
MTEXT
  5
88E
330
7B1
100
AcDbEntity
  8
Dimension (ISO)
 62
   232
420
 13238372
440
 16777216
100
AcDbMText
 10
483.8597950412699
 20
-254.0185695266374
 30
0.0
 40
2.5
 41
0.0
 46
0.0
 71
     1
 72
     1
  1
\A1;49,00
  7
Note Text (ISO)
 73
     1
 44
1.0
  0
POINT
  5
88F
330
7B1
100
AcDbEntity
  8
Defpoints
 62
     0
440
 16777216
100
AcDbPoint
 10
459.0312187886633
 20
-223.8121072925918
 30
0.0
  0
POINT
  5
890
330
7B1
100
AcDbEntity
  8
Defpoints
 62
     0
440
 16777216
100
AcDbPoint
 10
508.0312187886633
 20
-225.0621072925918
 30
0.0
  0
POINT
  5
891
330
7B1
100
AcDbEntity
  8
Defpoints
 62
     0
440
 16777216
100
AcDbPoint
 10
508.0312187886633
 20
-257.9521611784088
 30
0.0
  0
ENDBLK
  5
7B3
330
7B1
100
AcDbEntity
  8
0
100
AcDbBlockEnd
  0
BLOCK
  5
894
330
893
100
AcDbEntity
  8
0
100
AcDbBlockBegin
  2
*D14
 70
     1
 10
0.0
 20
0.0
 30
0.0
  3
*D14
  1

  0
LINE
  5
95F
330
893
100
AcDbEntity
  8
Dimension (ISO)
440
 16777216
100
AcDbLine
 10
508.0312187886633
 20
-225.0621072925918
 30
0.0
 11
508.0312187886633
 21
-274.7371072925917
 31
0.0
  0
LINE
  5
960
330
893
100
AcDbEntity
  8
Dimension (ISO)
440
 16777216
100
AcDbLine
 10
313.0312187886634
 20
-225.0621072925918
 30
0.0
 11
313.0312187886634
 21
-274.7371072925917
 31
0.0
  0
LINE
  5
961
330
893
100
AcDbEntity
  8
Dimension (ISO)
440
 16777216
100
AcDbLine
 10
505.5312187886634
 20
-271.5621072925917
 30
0.0
 11
315.5312187886634
 21
-271.5621072925917
 31
0.0
  0
SOLID
  5
962
330
893
100
AcDbEntity
  8
Dimension (ISO)
440
 16777216
100
AcDbTrace
 10
505.5312187886634
 20
-271.145440625925
 30
0.0
 11
505.5312187886634
 21
-271.9787739592584
 31
0.0
 12
508.0312187886633
 22
-271.5621072925917
 32
0.0
 13
508.0312187886633
 23
-271.5621072925917
 33
0.0
  0
SOLID
  5
963
330
893
100
AcDbEntity
  8
Dimension (ISO)
440
 16777216
100
AcDbTrace
 10
315.5312187886634
 20
-271.145440625925
 30
0.0
 11
315.5312187886634
 21
-271.9787739592584
 31
0.0
 12
313.0312187886634
 22
-271.5621072925917
 32
0.0
 13
313.0312187886634
 23
-271.5621072925917
 33
0.0
  0
MTEXT
  5
964
330
893
100
AcDbEntity
  8
Dimension (ISO)
 62
   232
420
 13238372
440
 16777216
100
AcDbMText
 10
396.5773907481384
 20
-267.6285156408203
 30
0.0
 40
2.5
 41
0.0
 46
0.0
 71
     1
 72
     1
  1
\A1;195,00
  7
Note Text (ISO)
 73
     1
 44
1.0
  0
POINT
  5
965
330
893
100
AcDbEntity
  8
Defpoints
 62
     0
440
 16777216
100
AcDbPoint
 10
508.0312187886633
 20
-225.0621072925918
 30
0.0
  0
POINT
  5
966
330
893
100
AcDbEntity
  8
Defpoints
 62
     0
440
 16777216
100
AcDbPoint
 10
313.0312187886634
 20
-225.0621072925918
 30
0.0
  0
POINT
  5
967
330
893
100
AcDbEntity
  8
Defpoints
 62
     0
440
 16777216
100
AcDbPoint
 10
313.0312187886634
 20
-271.5621072925917
 30
0.0
  0
ENDBLK
  5
895
330
893
100
AcDbEntity
  8
0
100
AcDbBlockEnd
  0
ENDSEC
  0
SECTION
  2
ENTITIES
  0
INSERT
  5
16D
330
70
100
AcDbEntity
  8
0
100
AcDbBlockReference
  2
Borders Default Border
 10
0.0
 20
0.0
 30
0.0
  0
INSERT
  5
175
330
70
100
AcDbEntity
  8
0
100
AcDbBlockReference
 66
     1
  2
Title Blocks ISO
 10
821.0
 20
20.0
 30
0.0
  0
ATTRIB
  5
177
102
{ACAD_XDICTIONARY
360
9A6
102
}
330
175
100
AcDbEntity
  8
Title (ISO)
 62
   232
420
 13238372
100
AcDbText
 10
855.1558588233993
 20
93.13494450671269
 30
0.0
 40
2.5
  1
492404050025
  7
Note Text (ISO)
100
AcDbAttribute
280
     0
  2
PART_NUMBER_001
 70
     0
280
     0
  0
ATTRIB
  5
178
102
{ACAD_XDICTIONARY
360
9AB
102
}
330
175
100
AcDbEntity
  8
Title (ISO)
 62
   232
420
 13238372
100
AcDbText
 10
854.8368802916622
 20
83.39776635682264
 30
0.0
 40
2.5
  1
PLASSON REDUCING TEE WITH
  7
Note Text (ISO)
100
AcDbAttribute
280
     0
  2
DESCRIPTION_001
 70
     0
280
     0
  0
ATTRIB
  5
9A9
102
{ACAD_XDICTIONARY
360
9AA
102
}
330
175
100
AcDbEntity
  8
Title (ISO)
 62
   232
420
 13238372
100
AcDbText
 10
855.0904061463034
 20
79.17905135204448
 30
0.0
 40
2.5
  1
TWO OUTLETS 50X25X25X50
  7
Note Text (ISO)
100
AcDbAttribute
280
     0
  2
DESCRIPTION_002
 70
     0
280
     1
  0
SEQEND
  5
176
330
175
100
AcDbEntity
  8
0
  0
LINE
  5
179
330
70
100
AcDbEntity
  8
Visible (ISO)
100
AcDbLine
 10
325.0312187886634
 20
303.4273716077983
 30
0.0
 11
340.0312187886634
 21
303.4273716077983
 31
0.0
  0
SPLINE
  5
17A
330
70
100
AcDbEntity
  8
Visible (ISO)
100
AcDbSpline
210
0.0
220
0.0
230
1.0
 70
     8
 71
     3
 72
    14
 73
    10
 74
     0
 42
0.000000001
 43
0.0000000001
 40
0.0
 40
0.0
 40
0.0
 40
0.0
 40
0.3405200123196428
 40
0.3405200123196428
 40
0.6810400246392856
 40
0.6810400246392856
 40
1.023662031564495
 40
1.023662031564495
 40
1.366284038489705
 40
1.366284038489705
 40
1.366284038489705
 40
1.366284038489705
 10
332.232353911106
 20
283.3467508601747
 30
0.0
 10
331.1015761735656
 20
283.2523077523609
 30
0.0
 10
329.8990946817722
 20
283.2224813126018
 30
0.0
 10
327.6989633430283
 20
283.2917158314326
 30
0.0
 10
326.7010655963024
 20
283.3865633830192
 30
0.0
 10
325.1287790531701
 20
283.586580864254
 30
0.0
 10
324.4482819252743
 20
283.7050294513391
 30
0.0
 10
323.546307236518
 20
283.8757299725379
 30
0.0
 10
323.3249626692031
 20
283.9247749204607
 30
0.0
 10
323.3249626692031
 20
283.9247749204607
 30
0.0
  0
SPLINE
  5
17B
330
70
100
AcDbEntity
  8
Visible (ISO)
100
AcDbSpline
210
0.0
220
0.0
230
1.0
 70
     8
 71
     3
 72
    14
 73
    10
 74
     0
 42
0.000000001
 43
0.0000000001
 40
4.159798143471845
 40
4.159798143471845
 40
4.159798143501468
 40
4.159798143501468
 40
4.513207419383512
 40
4.513207419383512
 40
4.86661669529518
 40
4.86661669529518
 40
5.22682245262973
 40
5.22682245262973
 40
5.58702820996428
 40
5.58702820996428
 40
5.58702820996428
 40
5.58702820996428
 10
341.5981017146382
 20
285.5178178116012
 30
0.0
 10
341.5981017145987
 20
285.5178178115862
 30
0.0
 10
341.3622045986938
 20
285.4282062847919
 30
0.0
 10
340.4163378004415
 20
285.0964574389485
 30
0.0
 10
339.7068727343617
 20
284.857510634724
 30
0.0
 10
338.0632154271148
 20
284.3744316783098
 30
0.0
 10
337.0115038217308
 20
284.0971116702432
 30
0.0
 10
334.6947070670839
 20
283.6309633332137
 30
0.0
 10
333.4285028497635
 20
283.4466538025696
 30
0.0
 10
332.232353911106
 20
283.3467508601747
 30
0.0
  0
LINE
  5
17C
330
70
100
AcDbEntity
  8
Visible (ISO)
100
AcDbLine
 10
340.0312187886634
 20
303.4273716077983
 30
0.0
 11
341.5981017146382
 21
285.5178178116012
 31
0.0
  0
LINE
  5
17D
330
70
100
AcDbEntity
  8
Visible (ISO)
100
AcDbLine
 10
325.0312187886634
 20
303.4273716077983
 30
0.0
 11
323.3249626692031
 21
283.9247749204607
 31
0.0
  0
LINE
  5
17E
330
70
100
AcDbEntity
  8
Visible (ISO)
100
AcDbLine
 10
496.0312187886633
 20
303.4273716077983
 30
0.0
 11
481.0312187886633
 21
303.4273716077983
 31
0.0
  0
SPLINE
  5
17F
330
70
100
AcDbEntity
  8
Visible (ISO)
100
AcDbSpline
210
0.0
220
0.0
230
1.0
 70
     8
 71
     3
 72
    14
 73
    10
 74
     0
 42
0.000000001
 43
0.0000000001
 40
0.0
 40
0.0
 40
0.0
 40
0.0
 40
0.3602057573345502
 40
0.3602057573345502
 40
0.7204115146691004
 40
0.7204115146691004
 40
1.073820790580767
 40
1.073820790580767
 40
1.42723006647886
 40
1.42723006647886
 40
1.427230066492434
 40
1.427230066492434
 10
488.8300836662207
 20
283.3467508601747
 30
0.0
 10
487.6339347275632
 20
283.4466538025696
 30
0.0
 10
486.3677305102428
 20
283.6309633332137
 30
0.0
 10
484.0509337555959
 20
284.0971116702432
 30
0.0
 10
482.9992221502118
 20
284.3744316783098
 30
0.0
 10
481.355564842965
 20
284.857510634724
 30
0.0
 10
480.6460997768851
 20
285.0964574389485
 30
0.0
 10
479.7002329786114
 20
285.4282062847995
 30
0.0
 10
479.4643358627065
 20
285.5178178115943
 30
0.0
 10
479.4643358626884
 20
285.5178178116012
 30
0.0
  0
SPLINE
  5
180
330
70
100
AcDbEntity
  8
Visible (ISO)
100
AcDbSpline
210
0.0
220
0.0
230
1.0
 70
     8
 71
     3
 72
    14
 73
    10
 74
     0
 42
0.000000001
 43
0.0000000001
 40
4.220744171474574
 40
4.220744171474574
 40
4.220744171474575
 40
4.220744171474575
 40
4.563366178399784
 40
4.563366178399784
 40
4.905988185324995
 40
4.905988185324995
 40
5.246508197644637
 40
5.246508197644637
 40
5.58702820996428
 40
5.58702820996428
 40
5.58702820996428
 40
5.58702820996428
 10
497.7374749081236
 20
283.9247749204607
 30
0.0
 10
497.7374749081236
 20
283.9247749204607
 30
0.0
 10
497.5161303408087
 20
283.8757299725379
 30
0.0
 10
496.6141556520524
 20
283.7050294513392
 30
0.0
 10
495.9336585241565
 20
283.586580864254
 30
0.0
 10
494.3613719810242
 20
283.3865633830192
 30
0.0
 10
493.3634742342984
 20
283.2917158314326
 30
0.0
 10
491.1633428955545
 20
283.2224813126018
 30
0.0
 10
489.9608614037611
 20
283.2523077523609
 30
0.0
 10
488.8300836662207
 20
283.3467508601747
 30
0.0
  0
LINE
  5
181
330
70
100
AcDbEntity
  8
Visible (ISO)
100
AcDbLine
 10
496.0312187886633
 20
303.4273716077983
 30
0.0
 11
497.7374749081236
 21
283.9247749204607
 31
0.0
  0
LINE
  5
182
330
70
100
AcDbEntity
  8
Visible (ISO)
100
AcDbLine
 10
481.0312187886633
 20
303.4273716077983
 30
0.0
 11
479.4643358626884
 21
285.5178178116012
 31
0.0
  0
LINE
  5
183
330
70
100
AcDbEntity
  8
Visible (ISO)
100
AcDbLine
 10
469.0312187886633
 20
218.4273716077982
 30
0.0
 11
469.0312187886633
 21
286.4273716077983
 31
0.0
  0
LINE
  5
184
330
70
100
AcDbEntity
  8
Visible (ISO)
100
AcDbLine
 10
352.0312187886633
 20
218.4273716077982
 30
0.0
 11
352.0312187886633
 21
286.4273716077983
 31
0.0
  0
LINE
  5
185
330
70
100
AcDbEntity
  8
Visible (ISO)
100
AcDbLine
 10
508.0312187886633
 20
221.8273716077983
 30
0.0
 11
508.0312187886633
 21
283.0273716077983
 31
0.0
  0
LINE
  5
186
330
70
100
AcDbEntity
  8
Visible (ISO)
100
AcDbLine
 10
313.0312187886634
 20
221.8273716077983
 30
0.0
 11
313.0312187886634
 21
283.0273716077983
 31
0.0
  0
LINE
  5
187
330
70
100
AcDbEntity
  8
Visible (ISO)
100
AcDbLine
 10
352.0312187886633
 20
286.4273716077983
 30
0.0
 11
469.0312187886633
 21
286.4273716077983
 31
0.0
  0
LINE
  5
188
330
70
100
AcDbEntity
  8
Visible (ISO)
100
AcDbLine
 10
352.0312187886633
 20
218.4273716077982
 30
0.0
 11
469.0312187886633
 21
218.4273716077982
 31
0.0
  0
LINE
  5
189
330
70
100
AcDbEntity
  8
Visible (ISO)
100
AcDbLine
 10
508.0312187886633
 20
221.8273716077983
 30
0.0
 11
469.0312187886633
 21
218.4273716077982
 31
0.0
  0
LINE
  5
18A
330
70
100
AcDbEntity
  8
Visible (ISO)
100
AcDbLine
 10
508.0312187886633
 20
283.0273716077983
 30
0.0
 11
497.7374749081236
 21
283.9247749204607
 31
0.0
  0
LINE
  5
18B
330
70
100
AcDbEntity
  8
Visible (ISO)
100
AcDbLine
 10
479.4643358626884
 20
285.5178178116012
 30
0.0
 11
469.0312187886633
 21
286.4273716077983
 31
0.0
  0
LINE
  5
18C
330
70
100
AcDbEntity
  8
Visible (ISO)
100
AcDbLine
 10
313.0312187886634
 20
283.0273716077983
 30
0.0
 11
323.3249626692031
 21
283.9247749204607
 31
0.0
  0
LINE
  5
18D
330
70
100
AcDbEntity
  8
Visible (ISO)
100
AcDbLine
 10
341.5981017146382
 20
285.5178178116012
 30
0.0
 11
352.0312187886633
 21
286.4273716077983
 31
0.0
  0
LINE
  5
18E
330
70
100
AcDbEntity
  8
Visible (ISO)
100
AcDbLine
 10
313.0312187886634
 20
221.8273716077983
 30
0.0
 11
352.0312187886633
 21
218.4273716077982
 31
0.0
  0
LINE
  5
18F
330
70
100
AcDbEntity
  8
Visible (ISO)
100
AcDbLine
 10
657.4637468901523
 20
264.981103766449
 30
0.0
 11
657.4637468901523
 21
239.981103766449
 31
0.0
  0
LINE
  5
190
330
70
100
AcDbEntity
  8
Visible (ISO)
100
AcDbLine
 10
657.4637468901713
 20
239.9811037664489
 30
0.0
 11
657.4637468901715
 21
239.9273716077983
 31
0.0
  0
LINE
  5
191
330
70
100
AcDbEntity
  8
Visible (ISO)
100
AcDbLine
 10
657.4637468901523
 20
264.981103766449
 30
0.0
 11
704.8662183651417
 21
264.981103766449
 31
0.0
  0
LINE
  5
192
330
70
100
AcDbEntity
  8
Visible (ISO)
100
AcDbLine
 10
657.4637468901523
 20
239.981103766449
 30
0.0
 11
704.823733982105
 21
239.981103766449
 31
0.0
  0
LINE
  5
193
330
70
100
AcDbEntity
  8
Visible (ISO)
100
AcDbLine
 10
657.4637468901715
 20
239.9273716077983
 30
0.0
 11
704.8449233826468
 21
239.9273716077983
 31
0.0
  0
LINE
  5
194
330
70
100
AcDbEntity
  8
Visible (ISO)
100
AcDbLine
 10
728.9637468901388
 20
303.4273716077983
 30
0.0
 11
743.9637468901388
 21
303.4273716077983
 31
0.0
  0
SPLINE
  5
195
330
70
100
AcDbEntity
  8
Visible (ISO)
100
AcDbSpline
210
0.0
220
0.0
230
1.0
 70
     8
 71
     3
 72
    24
 73
    20
 74
     0
 42
0.000000001
 43
0.0000000001
 40
0.0
 40
0.0
 40
0.0
 40
0.0
 40
0.3405200123196428
 40
0.3405200123196428
 40
0.6810400246392856
 40
0.6810400246392856
 40
1.023662031564495
 40
1.023662031564495
 40
1.366284038489705
 40
1.366284038489705
 40
1.708906045414915
 40
1.708906045414915
 40
2.051528052340125
 40
2.051528052340125
 40
2.392048064659768
 40
2.392048064659768
 40
2.73256807697941
 40
2.73256807697941
 40
2.762431686924838
 40
2.762431686924838
 40
2.762431686924838
 40
2.762431686924838
 10
745.7157477450919
 20
283.3467508601747
 30
0.0
 10
745.687487549209
 20
283.2523077523609
 30
0.0
 10
745.4309058503431
 20
283.2224813126018
 30
0.0
 10
744.4559362618015
 20
283.2917158314326
 30
0.0
 10
743.7378131700782
 20
283.3865633830192
 30
0.0
 10
742.1027979086077
 20
283.586580864254
 30
0.0
 10
741.0727305762836
 20
283.7050294513391
 30
0.0
 10
738.8243895861667
 20
283.8757299725379
 30
0.0
 10
737.6058202465535
 20
283.9247749204607
 30
0.0
 10
735.3216735337187
 20
283.9247749204607
 30
0.0
 10
734.1031041941056
 20
283.8757299725379
 30
0.0
 10
731.8547632039893
 20
283.7050294513392
 30
0.0
 10
730.8246958716656
 20
283.586580864254
 30
0.0
 10
729.1896806101959
 20
283.3865633830192
 30
0.0
 10
728.4715575184732
 20
283.2917158314326
 30
0.0
 10
727.4965879299328
 20
283.2224813126018
 30
0.0
 10
727.2400062310679
 20
283.2523077523609
 30
0.0
 10
727.209267615603
 20
283.3550335220793
 30
0.0
 10
727.2085096661027
 20
283.3638963598446
 30
0.0
 10
727.2094716351016
 20
283.3733190622311
 30
0.0
  0
SPLINE
  5
196
330
70
100
AcDbEntity
  8
Visible (ISO)
100
AcDbSpline
210
0.0
220
0.0
230
1.0
 70
     8
 71
     3
 72
     8
 73
     4
 74
     0
 42
0.000000001
 43
0.0000000001
 40
5.557164600018853
 40
5.557164600018853
 40
5.557164600018853
 40
5.557164600018853
 40
5.58702820996428
 40
5.58702820996428
 40
5.58702820996428
 40
5.58702820996428
 10
745.7180221451761
 20
283.3733190622311
 30
0.0
 10
745.7189841141748
 20
283.3638963598446
 30
0.0
 10
745.7182261646745
 20
283.3550335220793
 30
0.0
 10
745.7157477450919
 20
283.3467508601747
 30
0.0
  0
LINE
  5
197
330
70
100
AcDbEntity
  8
Visible (ISO)
100
AcDbLine
 10
743.9637468901388
 20
303.4273716077983
 30
0.0
 11
745.7182599972232
 21
283.3731950279434
 31
0.0
  0
LINE
  5
198
330
70
100
AcDbEntity
  8
Visible (ISO)
100
AcDbLine
 10
728.9637468901388
 20
303.4273716077983
 30
0.0
 11
727.2092337830543
 21
283.3731950279434
 31
0.0
  0
ARC
  5
199
330
70
100
AcDbEntity
  8
Visible (ISO)
100
AcDbCircle
 10
736.4637468901446
 20
252.4273716077983
 30
0.0
 40
34.0
100
AcDbArc
 50
105.5168264129299
 51
74.4831735870701
  0
CIRCLE
  5
19A
330
70
100
AcDbEntity
  8
Visible (ISO)
100
AcDbCircle
 10
736.4637468901475
 20
252.4273716077983
 30
0.0
 40
23.75
  0
CIRCLE
  5
19B
330
70
100
AcDbEntity
  8
Visible (ISO)
100
AcDbCircle
 10
736.463746890133
 20
252.4273716077983
 30
0.0
 40
25.0
  0
CIRCLE
  5
19C
330
70
100
AcDbEntity
  8
Visible (ISO)
100
AcDbCircle
 10
736.463746890133
 20
252.4273716077983
 30
0.0
 40
30.6
  0
LINE
  5
19D
330
70
100
AcDbEntity
  8
Visible (ISO)
100
AcDbLine
 10
365.5312187887398
 20
461.9823238937693
 30
0.0
 11
390.5312187887398
 21
461.9823238937693
 31
0.0
  0
SPLINE
  5
19E
330
70
100
AcDbEntity
  8
Visible (ISO)
100
AcDbSpline
210
0.0
220
0.0
230
1.0
 70
     8
 71
     3
 72
    14
 73
    10
 74
     0
 42
0.000000001
 43
0.0000000001
 40
0.0
 40
0.0
 40
0.0
 40
0.0
 40
0.4758795738242885
 40
0.4758795738242885
 40
0.9517591476485769
 40
0.9517591476485769
 40
1.427211222668189
 40
1.427211222668189
 40
1.897293716834249
 40
1.897293716834249
 40
1.897293716834249
 40
1.897293716834249
 10
378.0312187887398
 20
509.3423109857185
 30
0.0
 10
379.6174840348208
 20
509.3423109857185
 30
0.0
 10
381.2980797896464
 20
509.2109900735318
 30
0.0
 10
384.372851274086
 20
508.7515319139156
 30
0.0
 10
385.7685121259749
 20
508.4315414583932
 30
0.0
 10
387.9716357078816
 20
507.8422445670014
 30
0.0
 10
388.9313506618089
 20
507.5326780812861
 30
0.0
 10
390.2043002658106
 20
507.1012180581537
 30
0.0
 10
390.5239570097165
 20
506.9825600069604
 30
0.0
 10
390.531096462209
 20
506.9823279159806
 30
0.0
  0
SPLINE
  5
19F
330
70
100
AcDbEntity
  8
Visible (ISO)
100
AcDbSpline
210
0.0
220
0.0
230
1.0
 70
     8
 71
     3
 72
    14
 73
    10
 74
     0
 42
0.000000001
 43
0.0000000001
 40
5.714410335249181
 40
5.714410335249181
 40
5.714410335249181
 40
5.714410335249181
 40
6.184492829415241
 40
6.184492829415241
 40
6.659944904434853
 40
6.659944904434853
 40
7.135824478259142
 40
7.135824478259142
 40
7.61170405208343
 40
7.61170405208343
 40
7.61170405208343
 40
7.61170405208343
 10
365.5313411152706
 20
506.9823279159806
 30
0.0
 10
365.5384805677631
 20
506.9825600069604
 30
0.0
 10
365.858137311669
 20
507.1012180581537
 30
0.0
 10
367.1310869156707
 20
507.5326780812861
 30
0.0
 10
368.0908018695981
 20
507.8422445670014
 30
0.0
 10
370.2939254515047
 20
508.4315414583932
 30
0.0
 10
371.6895863033936
 20
508.7515319139156
 30
0.0
 10
374.7643577878332
 20
509.2109900735318
 30
0.0
 10
376.4449535426588
 20
509.3423109857185
 30
0.0
 10
378.0312187887398
 20
509.3423109857185
 30
0.0
  0
LINE
  5
1A0
330
70
100
AcDbEntity
  8
Visible (ISO)
100
AcDbLine
 10
430.5312187887397
 20
461.9823238937693
 30
0.0
 11
455.5312187887397
 21
461.9823238937693
 31
0.0
  0
SPLINE
  5
1A1
330
70
100
AcDbEntity
  8
Visible (ISO)
100
AcDbSpline
210
0.0
220
0.0
230
1.0
 70
     8
 71
     3
 72
    16
 73
    12
 74
     0
 42
0.000000001
 43
0.0000000001
 40
0.0
 40
0.0
 40
0.0
 40
0.0
 40
0.2379492644459868
 40
0.2379492644459868
 40
0.4758985288919736
 40
0.4758985288919736
 40
0.951797057783947
 40
0.951797057783947
 40
1.427360811341787
 40
1.427360811341787
 40
1.902924564885763
 40
1.902924564885763
 40
1.902924564899627
 40
1.902924564899627
 10
443.0312187887397
 20
509.3635003862408
 30
0.0
 10
443.8243830035597
 20
509.3635003862408
 30
0.0
 10
444.641935999034
 20
509.3328184236963
 30
0.0
 10
446.2631010567435
 20
509.2090355929265
 30
0.0
 10
447.0667430376302
 20
509.1160721577659
 30
0.0
 10
449.3726538418126
 20
508.7696884471927
 30
0.0
 10
450.7681391163063
 20
508.4479770006653
 30
0.0
 10
452.9711928386741
 20
507.8548661035058
 30
0.0
 10
453.9309903183453
 20
507.5429258625504
 30
0.0
 10
455.2113937742046
 20
507.1039387533858
 30
0.0
 10
455.5312187887211
 20
506.982323893776
 30
0.0
 10
455.5312187887397
 20
506.9823238937694
 30
0.0
  0
SPLINE
  5
1A2
330
70
100
AcDbEntity
  8
Visible (ISO)
100
AcDbSpline
210
0.0
220
0.0
230
1.0
 70
     8
 71
     3
 72
    16
 73
    12
 74
     0
 42
0.000000001
 43
0.0000000001
 40
5.708773694698883
 40
5.708773694698883
 40
5.708773694698883
 40
5.708773694698883
 40
6.184337448256723
 40
6.184337448256723
 40
6.659901201814564
 40
6.659901201814564
 40
7.135799730706538
 40
7.135799730706538
 40
7.373748995152524
 40
7.373748995152524
 40
7.611698259598512
 40
7.611698259598512
 40
7.611698259598512
 40
7.611698259598512
 10
430.5312187887397
 20
506.9823238937694
 30
0.0
 10
430.5312187887397
 20
506.9823238937689
 30
0.0
 10
430.8510438032564
 20
507.1039387533793
 30
0.0
 10
432.1314472591343
 20
507.5429258625504
 30
0.0
 10
433.0912447388055
 20
507.8548661035058
 30
0.0
 10
435.2942984611732
 20
508.4479770006653
 30
0.0
 10
436.689783735667
 20
508.7696884471927
 30
0.0
 10
438.9956945398494
 20
509.1160721577659
 30
0.0
 10
439.7993365207359
 20
509.2090355929265
 30
0.0
 10
441.4205015784455
 20
509.3328184236963
 30
0.0
 10
442.2380545739198
 20
509.3635003862408
 30
0.0
 10
443.0312187887397
 20
509.3635003862408
 30
0.0
  0
LINE
  5
1A3
330
70
100
AcDbEntity
  8
Visible (ISO)
100
AcDbLine
 10
365.5312187887398
 20
461.9823238937693
 30
0.0
 11
365.5312187887398
 21
506.9823238937694
 31
0.0
  0
LINE
  5
1A4
330
70
100
AcDbEntity
  8
Visible (ISO)
100
AcDbLine
 10
390.5312187887398
 20
461.9823238937693
 30
0.0
 11
390.5312187887398
 21
506.9823238937694
 31
0.0
  0
LINE
  5
1A5
330
70
100
AcDbEntity
  8
Visible (ISO)
100
AcDbLine
 10
430.5312187887397
 20
461.9823238937693
 30
0.0
 11
430.5312187887397
 21
506.9823238937694
 31
0.0
  0
LINE
  5
1A6
330
70
100
AcDbEntity
  8
Visible (ISO)
100
AcDbLine
 10
455.5312187887397
 20
461.9823238937693
 30
0.0
 11
455.5312187887397
 21
506.9823238937694
 31
0.0
  0
LINE
  5
1A7
330
70
100
AcDbEntity
  8
Visible (ISO)
100
AcDbLine
 10
469.0312187887398
 20
506.9823238937694
 30
0.0
 11
469.0312187887398
 21
574.9823238937693
 31
0.0
  0
LINE
  5
1A8
330
70
100
AcDbEntity
  8
Visible (ISO)
100
AcDbLine
 10
352.0312187887398
 20
506.9823238937694
 30
0.0
 11
352.0312187887398
 21
574.9823238937693
 31
0.0
  0
LINE
  5
1A9
330
70
100
AcDbEntity
  8
Visible (ISO)
100
AcDbLine
 10
508.0312187887398
 20
510.3823238937693
 30
0.0
 11
508.0312187887398
 21
571.5823238937693
 31
0.0
  0
LINE
  5
1AA
330
70
100
AcDbEntity
  8
Visible (ISO)
100
AcDbLine
 10
313.0312187887398
 20
510.3823238937693
 30
0.0
 11
313.0312187887398
 21
571.5823238937693
 31
0.0
  0
LINE
  5
1AB
330
70
100
AcDbEntity
  8
Visible (ISO)
100
AcDbLine
 10
352.0312187887398
 20
574.9823238937693
 30
0.0
 11
469.0312187887398
 21
574.9823238937693
 31
0.0
  0
LINE
  5
1AC
330
70
100
AcDbEntity
  8
Visible (ISO)
100
AcDbLine
 10
352.0312187887398
 20
506.9823238937694
 30
0.0
 11
365.5313342750682
 21
506.9823238937694
 31
0.0
  0
LINE
  5
1AD
330
70
100
AcDbEntity
  8
Visible (ISO)
100
AcDbLine
 10
390.5311033024114
 20
506.9823238937694
 30
0.0
 11
430.5312187887397
 21
506.9823238937694
 31
0.0
  0
LINE
  5
1AE
330
70
100
AcDbEntity
  8
Visible (ISO)
100
AcDbLine
 10
455.5312187887397
 20
506.9823238937694
 30
0.0
 11
469.0312187887398
 21
506.9823238937694
 31
0.0
  0
LINE
  5
1AF
330
70
100
AcDbEntity
  8
Visible (ISO)
100
AcDbLine
 10
508.0312187887398
 20
510.3823238937693
 30
0.0
 11
469.0312187887398
 21
506.9823238937694
 31
0.0
  0
LINE
  5
1B0
330
70
100
AcDbEntity
  8
Visible (ISO)
100
AcDbLine
 10
508.0312187887398
 20
571.5823238937693
 30
0.0
 11
469.0312187887398
 21
574.9823238937693
 31
0.0
  0
LINE
  5
1B1
330
70
100
AcDbEntity
  8
Visible (ISO)
100
AcDbLine
 10
313.0312187887398
 20
571.5823238937693
 30
0.0
 11
352.0312187887398
 21
574.9823238937693
 31
0.0
  0
LINE
  5
1B2
330
70
100
AcDbEntity
  8
Visible (ISO)
100
AcDbLine
 10
313.0312187887398
 20
510.3823238937693
 30
0.0
 11
352.0312187887398
 21
506.9823238937694
 31
0.0
  0
LINE
  5
1B3
330
70
100
AcDbEntity
  8
Visible (ISO)
100
AcDbLine
 10
149.4585420999892
 20
264.9273716077983
 30
0.0
 11
149.4585420999889
 21
264.9811037664489
 31
0.0
  0
LINE
  5
1B4
330
70
100
AcDbEntity
  8
Visible (ISO)
100
AcDbLine
 10
149.4585421000081
 20
239.9273716077983
 30
0.0
 11
149.4585421000081
 21
264.9273716077983
 31
0.0
  0
LINE
  5
1B5
330
70
100
AcDbEntity
  8
Visible (ISO)
100
AcDbLine
 10
149.4585420999889
 20
264.981103766449
 30
0.0
 11
102.0560706249995
 21
264.981103766449
 31
0.0
  0
LINE
  5
1B6
330
70
100
AcDbEntity
  8
Visible (ISO)
100
AcDbLine
 10
149.4585421000081
 20
239.9273716077983
 30
0.0
 11
102.0773656075329
 21
239.9273716077983
 31
0.0
  0
LINE
  5
1B7
330
70
100
AcDbEntity
  8
Visible (ISO)
100
AcDbLine
 10
149.4585421000081
 20
264.9273716077983
 30
0.0
 11
102.0773656075329
 21
264.9273716077983
 31
0.0
  0
LINE
  5
1B8
330
70
100
AcDbEntity
  8
Visible (ISO)
100
AcDbLine
 10
77.95854210002165
 20
303.4273716077983
 30
0.0
 11
62.95854210002165
 21
303.4273716077983
 31
0.0
  0
SPLINE
  5
1B9
330
70
100
AcDbEntity
  8
Visible (ISO)
100
AcDbSpline
210
0.0
220
0.0
230
1.0
 70
     8
 71
     3
 72
     8
 73
     4
 74
     0
 42
0.000000001
 43
0.0000000001
 40
0.0
 40
0.0
 40
0.0
 40
0.0
 40
0.029863609945429
 40
0.029863609945429
 40
0.029863609945429
 40
0.029863609945429
 10
61.20654124506865
 20
283.3467508601747
 30
0.0
 10
61.20406282548596
 20
283.3550335220793
 30
0.0
 10
61.20330487598558
 20
283.3638963598446
 30
0.0
 10
61.20426684498446
 20
283.3733190622311
 30
0.0
  0
SPLINE
  5
1BA
330
70
100
AcDbEntity
  8
Visible (ISO)
100
AcDbSpline
210
0.0
220
0.0
230
1.0
 70
     8
 71
     3
 72
    24
 73
    20
 74
     0
 42
0.000000001
 43
0.0000000001
 40
2.824596523039442
 40
2.824596523039442
 40
2.824596523039442
 40
2.824596523039442
 40
2.854460132984869
 40
2.854460132984869
 40
3.194980145304512
 40
3.194980145304512
 40
3.535500157624155
 40
3.535500157624155
 40
3.878122164549365
 40
3.878122164549365
 40
4.220744171474574
 40
4.220744171474574
 40
4.563366178399784
 40
4.563366178399784
 40
4.905988185324995
 40
4.905988185324995
 40
5.246508197644637
 40
5.246508197644637
 40
5.58702820996428
 40
5.58702820996428
 40
5.58702820996428
 40
5.58702820996428
 10
79.71281735505886
 20
283.3733190622312
 30
0.0
 10
79.71377932405779
 20
283.3638963598446
 30
0.0
 10
79.71302137455746
 20
283.3550335220793
 30
0.0
 10
79.68228275909267
 20
283.2523077523609
 30
0.0
 10
79.42570106022756
 20
283.2224813126018
 30
0.0
 10
78.4507314716873
 20
283.2917158314326
 30
0.0
 10
77.73260837996456
 20
283.3865633830192
 30
0.0
 10
76.09759311849481
 20
283.586580864254
 30
0.0
 10
75.06752578617119
 20
283.7050294513392
 30
0.0
 10
72.81918479605488
 20
283.8757299725379
 30
0.0
 10
71.60061545644174
 20
283.9247749204607
 30
0.0
 10
69.31646874360701
 20
283.9247749204607
 30
0.0
 10
68.09789940399375
 20
283.8757299725379
 30
0.0
 10
65.84955841387693
 20
283.7050294513392
 30
0.0
 10
64.81949108155288
 20
283.586580864254
 30
0.0
 10
63.18447582008221
 20
283.3865633830192
 30
0.0
 10
62.46635272835888
 20
283.2917158314326
 30
0.0
 10
61.4913831398173
 20
283.2224813126018
 30
0.0
 10
61.23480144095148
 20
283.2523077523609
 30
0.0
 10
61.20654124506865
 20
283.3467508601747
 30
0.0
  0
LINE
  5
1BB
330
70
100
AcDbEntity
  8
Visible (ISO)
100
AcDbLine
 10
77.95854210002165
 20
303.4273716077983
 30
0.0
 11
79.71305520710604
 21
283.3731950279434
 31
0.0
  0
LINE
  5
1BC
330
70
100
AcDbEntity
  8
Visible (ISO)
100
AcDbLine
 10
62.95854210002165
 20
303.4273716077983
 30
0.0
 11
61.20402899293726
 21
283.3731950279434
 31
0.0
  0
ARC
  5
1BD
330
70
100
AcDbEntity
  8
Visible (ISO)
100
AcDbCircle
 10
70.45854210001586
 20
252.4273716077983
 30
0.0
 40
34.0
100
AcDbArc
 50
105.5168264129299
 51
74.48317358707003
  0
CIRCLE
  5
1BE
330
70
100
AcDbEntity
  8
Visible (ISO)
100
AcDbCircle
 10
70.45854210002743
 20
252.4273716077983
 30
0.0
 40
30.6
  0
CIRCLE
  5
1BF
330
70
100
AcDbEntity
  8
Visible (ISO)
100
AcDbCircle
 10
70.45854210002743
 20
252.4273716077983
 30
0.0
 40
25.0
  0
CIRCLE
  5
1C0
330
70
100
AcDbEntity
  8
Visible (ISO)
100
AcDbCircle
 10
70.45854210001291
 20
252.4273716077983
 30
0.0
 40
23.75
  0
LINE
  5
1C1
330
70
100
AcDbEntity
  8
Visible (ISO)
100
AcDbLine
 10
390.531218788598
 20
97.52878755548994
 30
0.0
 11
365.531218788598
 21
97.52878755548994
 31
0.0
  0
SPLINE
  5
1C2
330
70
100
AcDbEntity
  8
Visible (ISO)
100
AcDbSpline
210
0.0
220
0.0
230
1.0
 70
     8
 71
     3
 72
    26
 73
    22
 74
     0
 42
0.000000001
 43
0.0000000001
 40
1.902663297687801
 40
1.902663297687801
 40
1.902663297687801
 40
1.902663297687801
 40
2.378340127823542
 40
2.378340127823542
 40
2.854016957959283
 40
2.854016957959283
 40
3.329934492000499
 40
3.329934492000499
 40
3.567893259021107
 40
3.567893259021107
 40
3.805852026041715
 40
3.805852026041715
 40
4.043810793062323
 40
4.043810793062323
 40
4.28176956008293
 40
4.28176956008293
 40
4.757687094124146
 40
4.757687094124146
 40
5.233363924259887
 40
5.233363924259887
 40
5.709040754395628
 40
5.709040754395628
 40
5.709040754395628
 40
5.709040754395628
 10
390.531218788598
 20
52.52874509745058
 30
0.0
 10
390.531218788598
 20
52.52623929912722
 30
0.0
 10
390.211258073329
 20
52.40191411339359
 30
0.0
 10
388.9306282646393
 20
51.95784586804922
 30
0.0
 10
387.9707470950926
 20
51.64352916897114
 30
0.0
 10
385.7677624131324
 20
51.04660028302896
 30
0.0
 10
384.3724540612158
 20
50.72316587192648
 30
0.0
 10
382.0667125384992
 20
50.37498941082706
 30
0.0
 10
381.263109536488
 20
50.28155780650842
 30
0.0
 10
379.6419756413198
 20
50.15715205265836
 30
0.0
 10
378.8244146786667
 20
50.12631608050426
 30
0.0
 10
377.2380228985293
 20
50.12631608050426
 30
0.0
 10
376.4204619358764
 20
50.15715205265836
 30
0.0
 10
374.7993280407081
 20
50.28155780650841
 30
0.0
 10
373.9957250386969
 20
50.37498941082706
 30
0.0
 10
371.6899835159803
 20
50.72316587192648
 30
0.0
 10
370.2946751640638
 20
51.04660028302896
 30
0.0
 10
368.0916904821035
 20
51.64352916897114
 30
0.0
 10
367.1318093125568
 20
51.9578458680492
 30
0.0
 10
365.8511795038671
 20
52.40191411339356
 30
0.0
 10
365.531218788598
 20
52.52623929912721
 30
0.0
 10
365.531218788598
 20
52.52874509745058
 30
0.0
  0
LINE
  5
1C3
330
70
100
AcDbEntity
  8
Visible (ISO)
100
AcDbLine
 10
455.531218788598
 20
97.52878755548991
 30
0.0
 11
430.531218788598
 21
97.52878755548991
 31
0.0
  0
SPLINE
  5
1C4
330
70
100
AcDbEntity
  8
Visible (ISO)
100
AcDbSpline
210
0.0
220
0.0
230
1.0
 70
     8
 71
     3
 72
    26
 73
    22
 74
     0
 42
0.000000001
 43
0.0000000001
 40
1.902924564899627
 40
1.902924564899627
 40
1.902924564899627
 40
1.902924564899627
 40
2.378488318457468
 40
2.378488318457468
 40
2.854052072015308
 40
2.854052072015308
 40
3.329950600907282
 40
3.329950600907282
 40
3.567899865353269
 40
3.567899865353269
 40
3.805849129799256
 40
3.805849129799256
 40
4.043798394245242
 40
4.043798394245242
 40
4.281747658691228
 40
4.281747658691228
 40
4.757646187583202
 40
4.757646187583202
 40
5.233209941141042
 40
5.233209941141042
 40
5.708773694659783
 40
5.708773694659783
 40
5.708773694698883
 40
5.708773694698883
 10
455.531218788598
 20
52.52878755548992
 30
0.0
 10
455.531218788598
 20
52.5287875554904
 30
0.0
 10
455.2113937740814
 20
52.40717269587992
 30
0.0
 10
453.9309903182036
 20
51.9681855867088
 30
0.0
 10
452.9711928385323
 20
51.65624534575339
 30
0.0
 10
450.7681391161646
 20
51.06313444859395
 30
0.0
 10
449.3726538416708
 20
50.74142300206654
 30
0.0
 10
447.0667430374884
 20
50.39503929149337
 30
0.0
 10
446.263101056602
 20
50.30207585633276
 30
0.0
 10
444.6419359988922
 20
50.17829302556304
 30
0.0
 10
443.8243830034179
 20
50.14761106301839
 30
0.0
 10
442.238054573778
 20
50.14761106301839
 30
0.0
 10
441.4205015783038
 20
50.17829302556304
 30
0.0
 10
439.7993365205941
 20
50.30207585633276
 30
0.0
 10
438.9956945397076
 20
50.39503929149337
 30
0.0
 10
436.6897837355252
 20
50.74142300206654
 30
0.0
 10
435.2942984610314
 20
51.06313444859395
 30
0.0
 10
433.0912447386636
 20
51.65624534575339
 30
0.0
 10
432.1314472589925
 20
51.9681855867088
 30
0.0
 10
430.8510438031673
 20
52.40717269586188
 30
0.0
 10
430.5312187886506
 20
52.5287875554704
 30
0.0
 10
430.531218788598
 20
52.52878755548992
 30
0.0
  0
LINE
  5
1C5
330
70
100
AcDbEntity
  8
Visible (ISO)
100
AcDbLine
 10
390.531218788598
 20
97.52878755548994
 30
0.0
 11
390.531218788598
 21
52.52874509745058
 31
0.0
  0
LINE
  5
1C6
330
70
100
AcDbEntity
  8
Visible (ISO)
100
AcDbLine
 10
365.531218788598
 20
97.52878755548994
 30
0.0
 11
365.531218788598
 21
52.52874509745058
 31
0.0
  0
LINE
  5
1C7
330
70
100
AcDbEntity
  8
Visible (ISO)
100
AcDbLine
 10
455.531218788598
 20
97.52878755548991
 30
0.0
 11
455.531218788598
 21
52.52878755548992
 31
0.0
  0
LINE
  5
1C8
330
70
100
AcDbEntity
  8
Visible (ISO)
100
AcDbLine
 10
430.531218788598
 20
97.52878755548991
 30
0.0
 11
430.531218788598
 21
52.52878755548992
 31
0.0
  0
CIRCLE
  5
1C9
330
70
100
AcDbEntity
  8
Visible (ISO)
100
AcDbCircle
 10
488.5312187885981
 20
18.52878755550416
 30
0.0
 40
2.0
  0
CIRCLE
  5
1CA
330
70
100
AcDbEntity
  8
Visible (ISO)
100
AcDbCircle
 10
332.531218788598
 20
18.52878755550416
 30
0.0
 40
2.0
  0
CIRCLE
  5
1CB
330
70
100
AcDbEntity
  8
Visible (ISO)
100
AcDbCircle
 10
488.5312187885981
 20
18.52878755550505
 30
0.0
 40
5.0
  0
CIRCLE
  5
1CC
330
70
100
AcDbEntity
  8
Visible (ISO)
100
AcDbCircle
 10
332.531218788598
 20
18.52878755550505
 30
0.0
 40
5.0
  0
CIRCLE
  5
1CD
330
70
100
AcDbEntity
  8
Visible (ISO)
100
AcDbCircle
 10
332.531218788598
 20
18.52878755550505
 30
0.0
 40
7.5
  0
SPLINE
  5
1CE
330
70
100
AcDbEntity
  8
Visible (ISO)
100
AcDbSpline
210
0.0
220
0.0
230
1.0
 70
     9
 71
     3
 72
    38
 73
    34
 74
     0
 42
0.000000001
 43
0.0000000001
 40
0.0
 40
0.0
 40
0.0
 40
0.0
 40
0.3405200123196428
 40
0.3405200123196428
 40
0.6810400246392856
 40
0.6810400246392856
 40
1.023662031564495
 40
1.023662031564495
 40
1.366284038489705
 40
1.366284038489705
 40
1.708906045414915
 40
1.708906045414915
 40
2.051528052340125
 40
2.051528052340125
 40
2.392048064659768
 40
2.392048064659768
 40
2.73256807697941
 40
2.73256807697941
 40
3.092773834313961
 40
3.092773834313961
 40
3.452979591648511
 40
3.452979591648511
 40
3.806388867560178
 40
3.806388867560178
 40
4.159798143471845
 40
4.159798143471845
 40
4.513207419383512
 40
4.513207419383512
 40
4.86661669529518
 40
4.86661669529518
 40
5.22682245262973
 40
5.22682245262973
 40
5.58702820996428
 40
5.58702820996428
 40
5.58702820996428
 40
5.58702820996428
 10
332.2323539110407
 20
9.276786700546001
 30
0.0
 10
331.1015761735002
 20
9.305046896428475
 30
0.0
 10
329.899094681707
 20
9.561628595293919
 30
0.0
 10
327.698963342963
 20
10.53659818383486
 30
0.0
 10
326.7010655962371
 20
11.25472127555793
 30
0.0
 10
325.1287790531048
 20
12.88973653702819
 30
0.0
 10
324.4482819252089
 20
13.91980386935206
 30
0.0
 10
323.5463072364527
 20
16.16814485946868
 30
0.0
 10
323.3249626691378
 20
17.38671419908189
 30
0.0
 10
323.3249626691378
 20
19.67086091191663
 30
0.0
 10
323.5463072364527
 20
20.88943025152982
 30
0.0
 10
324.4482819252089
 20
23.13777124164632
 30
0.0
 10
325.1287790531048
 20
24.16783857397013
 30
0.0
 10
326.7010655962371
 20
25.80285383544028
 30
0.0
 10
327.698963342963
 20
26.52097692716328
 30
0.0
 10
329.899094681707
 20
27.49594651570419
 30
0.0
 10
331.1015761735002
 20
27.75252821456965
 30
0.0
 10
333.4285028496982
 20
27.81068235175375
 30
0.0
 10
334.6947070670186
 20
27.59027458341086
 30
0.0
 10
337.0115038216655
 20
26.65079145151857
 30
0.0
 10
338.0632154270495
 20
25.93223947082758
 30
0.0
 10
339.7068727342964
 20
24.28199134230168
 30
0.0
 10
340.4163378003762
 20
23.2441290014432
 30
0.0
 10
341.3622045986681
 20
20.95687769255004
 30
0.0
 10
341.598101714573
 20
19.70681847520529
 30
0.0
 10
341.598101714573
 20
17.35075663579418
 30
0.0
 10
341.3622045986681
 20
16.10069741844938
 30
0.0
 10
340.4163378003762
 20
13.81344610955602
 30
0.0
 10
339.7068727342964
 20
12.7755837686974
 30
0.0
 10
338.0632154270495
 20
11.12533564017121
 30
0.0
 10
337.0115038216655
 20
10.40678365948006
 30
0.0
 10
334.6947070670186
 20
9.467300527587488
 30
0.0
 10
333.4285028496982
 20
9.246892759244499
 30
0.0
 10
332.2323539110407
 20
9.276786700546001
 30
0.0
  0
CIRCLE
  5
1CF
330
70
100
AcDbEntity
  8
Visible (ISO)
100
AcDbCircle
 10
488.5312187885981
 20
18.52878755550505
 30
0.0
 40
7.5
  0
SPLINE
  5
1D0
330
70
100
AcDbEntity
  8
Visible (ISO)
100
AcDbSpline
210
0.0
220
0.0
230
1.0
 70
    11
 71
     3
 72
    38
 73
    34
 74
     0
 42
0.000000001
 43
0.0000000001
 40
0.0
 40
0.0
 40
0.0
 40
0.0
 40
0.3602057573345502
 40
0.3602057573345502
 40
0.7204115146691004
 40
0.7204115146691004
 40
1.073820790580767
 40
1.073820790580767
 40
1.427230066492434
 40
1.427230066492434
 40
1.780639342404102
 40
1.780639342404102
 40
2.134048618315769
 40
2.134048618315769
 40
2.494254375650319
 40
2.494254375650319
 40
2.854460132984869
 40
2.854460132984869
 40
3.194980145304512
 40
3.194980145304512
 40
3.535500157624155
 40
3.535500157624155
 40
3.878122164549365
 40
3.878122164549365
 40
4.220744171474574
 40
4.220744171474574
 40
4.563366178399784
 40
4.563366178399784
 40
4.905988185324995
 40
4.905988185324995
 40
5.246508197644637
 40
5.246508197644637
 40
5.58702820996428
 40
5.58702820996428
 40
5.58702820996428
 40
5.58702820996428
 10
488.8300836661554
 20
9.276786700545997
 30
0.0
 10
487.6339347274979
 20
9.246892759244495
 30
0.0
 10
486.3677305101775
 20
9.467300527587488
 30
0.0
 10
484.0509337555306
 20
10.40678365948006
 30
0.0
 10
482.9992221501465
 20
11.1253356401712
 30
0.0
 10
481.3555648428996
 20
12.7755837686974
 30
0.0
 10
480.6460997768199
 20
13.81344610955601
 30
0.0
 10
479.700232978528
 20
16.10069741844937
 30
0.0
 10
479.4643358626231
 20
17.35075663579418
 30
0.0
 10
479.4643358626231
 20
19.70681847520529
 30
0.0
 10
479.700232978528
 20
20.95687769255004
 30
0.0
 10
480.6460997768199
 20
23.2441290014432
 30
0.0
 10
481.3555648428996
 20
24.28199134230168
 30
0.0
 10
482.9992221501465
 20
25.93223947082759
 30
0.0
 10
484.0509337555306
 20
26.65079145151857
 30
0.0
 10
486.3677305101775
 20
27.59027458341086
 30
0.0
 10
487.6339347274979
 20
27.81068235175375
 30
0.0
 10
489.9608614036958
 20
27.75252821456965
 30
0.0
 10
491.1633428954892
 20
27.49594651570419
 30
0.0
 10
493.3634742342331
 20
26.52097692716328
 30
0.0
 10
494.361371980959
 20
25.80285383544028
 30
0.0
 10
495.9336585240913
 20
24.16783857397013
 30
0.0
 10
496.6141556519872
 20
23.13777124164632
 30
0.0
 10
497.5161303407434
 20
20.88943025152982
 30
0.0
 10
497.7374749080582
 20
19.67086091191663
 30
0.0
 10
497.7374749080582
 20
17.3867141990819
 30
0.0
 10
497.5161303407434
 20
16.16814485946868
 30
0.0
 10
496.6141556519872
 20
13.91980386935206
 30
0.0
 10
495.9336585240913
 20
12.88973653702819
 30
0.0
 10
494.361371980959
 20
11.25472127555793
 30
0.0
 10
493.3634742342331
 20
10.53659818383486
 30
0.0
 10
491.1633428954892
 20
9.561628595293919
 30
0.0
 10
489.9608614036958
 20
9.305046896428475
 30
0.0
 10
488.8300836661554
 20
9.276786700545997
 30
0.0
  0
LINE
  5
1D1
330
70
100
AcDbEntity
  8
Visible (ISO)
100
AcDbLine
 10
469.031218788598
 20
-15.47121244451008
 30
0.0
 11
469.031218788598
 21
52.52878755548992
 31
0.0
  0
LINE
  5
1D2
330
70
100
AcDbEntity
  8
Visible (ISO)
100
AcDbLine
 10
352.0312187885981
 20
-15.47121244451008
 30
0.0
 11
352.0312187885981
 21
52.52878755548992
 31
0.0
  0
LINE
  5
1D3
330
70
100
AcDbEntity
  8
Visible (ISO)
100
AcDbLine
 10
508.031218788598
 20
-12.07121244451008
 30
0.0
 11
508.031218788598
 21
49.12878755548992
 31
0.0
  0
LINE
  5
1D4
330
70
100
AcDbEntity
  8
Visible (ISO)
100
AcDbLine
 10
313.031218788598
 20
-12.07121244451008
 30
0.0
 11
313.031218788598
 21
49.12878755548992
 31
0.0
  0
LINE
  5
1D5
330
70
100
AcDbEntity
  8
Visible (ISO)
100
AcDbLine
 10
352.0312187885981
 20
52.52878755548992
 30
0.0
 11
365.531218788598
 21
52.52878755548992
 31
0.0
  0
LINE
  5
1D6
330
70
100
AcDbEntity
  8
Visible (ISO)
100
AcDbLine
 10
390.531218788598
 20
52.52878755548992
 30
0.0
 11
430.531218788598
 21
52.52878755548992
 31
0.0
  0
LINE
  5
1D7
330
70
100
AcDbEntity
  8
Visible (ISO)
100
AcDbLine
 10
455.531218788598
 20
52.52878755548992
 30
0.0
 11
469.031218788598
 21
52.52878755548992
 31
0.0
  0
LINE
  5
1D8
330
70
100
AcDbEntity
  8
Visible (ISO)
100
AcDbLine
 10
352.0312187885981
 20
-15.47121244451008
 30
0.0
 11
469.031218788598
 21
-15.47121244451008
 31
0.0
  0
LINE
  5
1D9
330
70
100
AcDbEntity
  8
Visible (ISO)
100
AcDbLine
 10
508.031218788598
 20
-12.07121244451008
 30
0.0
 11
469.031218788598
 21
-15.47121244451008
 31
0.0
  0
LINE
  5
1DA
330
70
100
AcDbEntity
  8
Visible (ISO)
100
AcDbLine
 10
508.031218788598
 20
49.12878755548991
 30
0.0
 11
469.031218788598
 21
52.52878755548992
 31
0.0
  0
LINE
  5
1DB
330
70
100
AcDbEntity
  8
Visible (ISO)
100
AcDbLine
 10
313.031218788598
 20
49.12878755548992
 30
0.0
 11
352.0312187885981
 21
52.52878755548992
 31
0.0
  0
LINE
  5
1DC
330
70
100
AcDbEntity
  8
Visible (ISO)
100
AcDbLine
 10
313.031218788598
 20
-12.07121244451008
 30
0.0
 11
352.0312187885981
 21
-15.47121244451008
 31
0.0
  0
INSERT
  5
1FD
330
70
100
AcDbEntity
  8
Section Line (ISO)
100
AcDbBlockReference
  2
2dTransSection0
 10
0.0
 20
0.0
 30
0.0
  0
LINE
  5
1FE
330
70
100
AcDbEntity
  8
Visible (ISO)
100
AcDbLine
 10
352.0312187886633
 20
-234.0621072925918
 30
0.0
 11
469.0312187886633
 21
-234.0621072925918
 31
0.0
  0
LINE
  5
1FF
330
70
100
AcDbEntity
  8
Visible (ISO)
100
AcDbLine
 10
469.0312187886633
 20
-234.0621072925918
 30
0.0
 11
508.0312187886633
 21
-230.6621072925918
 31
0.0
  0
LINE
  5
200
330
70
100
AcDbEntity
  8
Visible (ISO)
100
AcDbLine
 10
508.0312187886633
 20
-230.6621072925918
 30
0.0
 11
508.0312187886633
 21
-225.0621072925918
 31
0.0
  0
LINE
  5
201
330
70
100
AcDbEntity
  8
Visible (ISO)
100
AcDbLine
 10
508.0312187886633
 20
-225.0621072925918
 30
0.0
 11
494.9645521219966
 21
-225.0621072925918
 31
0.0
  0
LINE
  5
202
330
70
100
AcDbEntity
  8
Visible (ISO)
100
AcDbLine
 10
494.9645521219966
 20
-225.0621072925918
 30
0.0
 11
488.4312187886633
 21
-226.4508101621693
 31
0.0
  0
LINE
  5
203
330
70
100
AcDbEntity
  8
Visible (ISO)
100
AcDbLine
 10
488.4312187886633
 20
-226.4508101621693
 30
0.0
 11
488.4312187886633
 21
-225.0621072925918
 31
0.0
  0
LINE
  5
204
330
70
100
AcDbEntity
  8
Visible (ISO)
100
AcDbLine
 10
488.4312187886633
 20
-225.0621072925918
 30
0.0
 11
459.0312187886633
 21
-225.0621072925918
 31
0.0
  0
LINE
  5
205
330
70
100
AcDbEntity
  8
Visible (ISO)
100
AcDbLine
 10
459.0312187886633
 20
-225.0621072925918
 30
0.0
 11
459.0312187886633
 21
-223.8121072925918
 31
0.0
  0
LINE
  5
206
330
70
100
AcDbEntity
  8
Visible (ISO)
100
AcDbLine
 10
459.0312187886633
 20
-223.8121072925918
 30
0.0
 11
362.0312187886634
 21
-223.8121072925918
 31
0.0
  0
LINE
  5
207
330
70
100
AcDbEntity
  8
Visible (ISO)
100
AcDbLine
 10
362.0312187886634
 20
-223.8121072925918
 30
0.0
 11
362.0312187886634
 21
-225.0621072925918
 31
0.0
  0
LINE
  5
208
330
70
100
AcDbEntity
  8
Visible (ISO)
100
AcDbLine
 10
362.0312187886634
 20
-225.0621072925918
 30
0.0
 11
332.6312187886634
 21
-225.0621072925918
 31
0.0
  0
LINE
  5
209
330
70
100
AcDbEntity
  8
Visible (ISO)
100
AcDbLine
 10
332.6312187886634
 20
-225.0621072925918
 30
0.0
 11
332.6312187886634
 21
-226.4508101621693
 31
0.0
  0
LINE
  5
20A
330
70
100
AcDbEntity
  8
Visible (ISO)
100
AcDbLine
 10
332.6312187886634
 20
-226.4508101621693
 30
0.0
 11
326.0978854553301
 21
-225.0621072925918
 31
0.0
  0
LINE
  5
20B
330
70
100
AcDbEntity
  8
Visible (ISO)
100
AcDbLine
 10
326.0978854553301
 20
-225.0621072925918
 30
0.0
 11
313.0312187886634
 21
-225.0621072925918
 31
0.0
  0
LINE
  5
20C
330
70
100
AcDbEntity
  8
Visible (ISO)
100
AcDbLine
 10
313.0312187886634
 20
-225.0621072925918
 30
0.0
 11
313.0312187886634
 21
-230.6621072925918
 31
0.0
  0
LINE
  5
20D
330
70
100
AcDbEntity
  8
Visible (ISO)
100
AcDbLine
 10
313.0312187886634
 20
-230.6621072925918
 30
0.0
 11
352.0312187886633
 21
-234.0621072925918
 31
0.0
  0
LINE
  5
20E
330
70
100
AcDbEntity
  8
Visible (ISO)
100
AcDbLine
 10
455.5312187886634
 20
-166.0621072925917
 30
0.0
 11
455.5312187886634
 21
-121.0621072925917
 31
0.0
  0
LINE
  5
20F
330
70
100
AcDbEntity
  8
Visible (ISO)
100
AcDbLine
 10
455.5312187886634
 20
-121.0621072925917
 30
0.0
 11
453.0312187886633
 21
-121.0621072925917
 31
0.0
  0
LINE
  5
210
330
70
100
AcDbEntity
  8
Visible (ISO)
100
AcDbLine
 10
453.0312187886633
 20
-121.0621072925917
 30
0.0
 11
453.0312187886633
 21
-176.3121072925917
 31
0.0
  0
LINE
  5
211
330
70
100
AcDbEntity
  8
Visible (ISO)
100
AcDbLine
 10
453.0312187886633
 20
-176.3121072925917
 30
0.0
 11
459.0312187886633
 21
-176.3121072925917
 31
0.0
  0
LINE
  5
212
330
70
100
AcDbEntity
  8
Visible (ISO)
100
AcDbLine
 10
459.0312187886633
 20
-176.3121072925917
 30
0.0
 11
459.0312187886633
 21
-175.0621072925917
 31
0.0
  0
LINE
  5
213
330
70
100
AcDbEntity
  8
Visible (ISO)
100
AcDbLine
 10
459.0312187886633
 20
-175.0621072925917
 30
0.0
 11
488.4312187886633
 21
-175.0621072925917
 31
0.0
  0
LINE
  5
214
330
70
100
AcDbEntity
  8
Visible (ISO)
100
AcDbLine
 10
488.4312187886633
 20
-175.0621072925917
 30
0.0
 11
488.4312187886633
 21
-173.6734044230143
 31
0.0
  0
LINE
  5
215
330
70
100
AcDbEntity
  8
Visible (ISO)
100
AcDbLine
 10
488.4312187886633
 20
-173.6734044230143
 30
0.0
 11
494.9645521219966
 21
-175.0621072925917
 31
0.0
  0
LINE
  5
216
330
70
100
AcDbEntity
  8
Visible (ISO)
100
AcDbLine
 10
494.9645521219966
 20
-175.0621072925917
 30
0.0
 11
508.0312187886633
 21
-175.0621072925917
 31
0.0
  0
LINE
  5
217
330
70
100
AcDbEntity
  8
Visible (ISO)
100
AcDbLine
 10
508.0312187886633
 20
-175.0621072925917
 30
0.0
 11
508.0312187886633
 21
-169.4621072925918
 31
0.0
  0
LINE
  5
218
330
70
100
AcDbEntity
  8
Visible (ISO)
100
AcDbLine
 10
508.0312187886633
 20
-169.4621072925918
 30
0.0
 11
469.0312187886633
 21
-166.0621072925917
 31
0.0
  0
LINE
  5
219
330
70
100
AcDbEntity
  8
Visible (ISO)
100
AcDbLine
 10
469.0312187886633
 20
-166.0621072925917
 30
0.0
 11
455.5312187886634
 21
-166.0621072925917
 31
0.0
  0
LINE
  5
21A
330
70
100
AcDbEntity
  8
Visible (ISO)
100
AcDbLine
 10
430.5312187886634
 20
-121.0621072925917
 30
0.0
 11
430.5312187886634
 21
-166.0621072925918
 31
0.0
  0
LINE
  5
21B
330
70
100
AcDbEntity
  8
Visible (ISO)
100
AcDbLine
 10
430.5312187886634
 20
-166.0621072925918
 30
0.0
 11
390.5311033022085
 21
-166.0621072925917
 31
0.0
  0
LINE
  5
21C
330
70
100
AcDbEntity
  8
Visible (ISO)
100
AcDbLine
 10
390.5311033022085
 20
-166.0621072925917
 30
0.0
 11
390.531103302335
 21
-121.0621072925917
 31
0.0
  0
LINE
  5
21D
330
70
100
AcDbEntity
  8
Visible (ISO)
100
AcDbLine
 10
390.531103302335
 20
-121.0621072925917
 30
0.0
 11
388.0310744303778
 21
-121.0621072925917
 31
0.0
  0
LINE
  5
21E
330
70
100
AcDbEntity
  8
Visible (ISO)
100
AcDbLine
 10
388.0310744303778
 20
-121.0621072925917
 30
0.0
 11
388.0310744301328
 21
-176.3121072925917
 31
0.0
  0
LINE
  5
21F
330
70
100
AcDbEntity
  8
Visible (ISO)
100
AcDbLine
 10
388.0310744301328
 20
-176.3121072925917
 30
0.0
 11
433.0312187886633
 21
-176.3121072925917
 31
0.0
  0
LINE
  5
220
330
70
100
AcDbEntity
  8
Visible (ISO)
100
AcDbLine
 10
433.0312187886633
 20
-176.3121072925917
 30
0.0
 11
433.0312187886633
 21
-121.0621072925917
 31
0.0
  0
LINE
  5
221
330
70
100
AcDbEntity
  8
Visible (ISO)
100
AcDbLine
 10
433.0312187886633
 20
-121.0621072925917
 30
0.0
 11
430.5312187886634
 21
-121.0621072925917
 31
0.0
  0
LINE
  5
222
330
70
100
AcDbEntity
  8
Visible (ISO)
100
AcDbLine
 10
365.5313342749918
 20
-121.0621072925917
 30
0.0
 11
365.5313342751182
 21
-166.0621072925917
 31
0.0
  0
LINE
  5
223
330
70
100
AcDbEntity
  8
Visible (ISO)
100
AcDbLine
 10
365.5313342751182
 20
-166.0621072925917
 30
0.0
 11
352.0312187886633
 21
-166.0621072925917
 31
0.0
  0
LINE
  5
224
330
70
100
AcDbEntity
  8
Visible (ISO)
100
AcDbLine
 10
352.0312187886633
 20
-166.0621072925917
 30
0.0
 11
313.0312187886634
 21
-169.4621072925918
 31
0.0
  0
LINE
  5
225
330
70
100
AcDbEntity
  8
Visible (ISO)
100
AcDbLine
 10
313.0312187886634
 20
-169.4621072925918
 30
0.0
 11
313.0312187886634
 21
-175.0621072925917
 31
0.0
  0
LINE
  5
226
330
70
100
AcDbEntity
  8
Visible (ISO)
100
AcDbLine
 10
313.0312187886634
 20
-175.0621072925917
 30
0.0
 11
326.0978854553301
 21
-175.0621072925917
 31
0.0
  0
LINE
  5
227
330
70
100
AcDbEntity
  8
Visible (ISO)
100
AcDbLine
 10
326.0978854553301
 20
-175.0621072925917
 30
0.0
 11
332.6312187886634
 21
-173.6734044230143
 31
0.0
  0
LINE
  5
228
330
70
100
AcDbEntity
  8
Visible (ISO)
100
AcDbLine
 10
332.6312187886634
 20
-173.6734044230143
 30
0.0
 11
332.6312187886634
 21
-175.0621072925917
 31
0.0
  0
LINE
  5
229
330
70
100
AcDbEntity
  8
Visible (ISO)
100
AcDbLine
 10
332.6312187886634
 20
-175.0621072925917
 30
0.0
 11
362.0312187886634
 21
-175.0621072925917
 31
0.0
  0
LINE
  5
22A
330
70
100
AcDbEntity
  8
Visible (ISO)
100
AcDbLine
 10
362.0312187886634
 20
-175.0621072925917
 30
0.0
 11
362.0312187886634
 21
-176.3121072925917
 31
0.0
  0
LINE
  5
22B
330
70
100
AcDbEntity
  8
Visible (ISO)
100
AcDbLine
 10
362.0312187886634
 20
-176.3121072925917
 30
0.0
 11
368.0313631471939
 21
-176.3121072925917
 31
0.0
  0
LINE
  5
22C
330
70
100
AcDbEntity
  8
Visible (ISO)
100
AcDbLine
 10
368.0313631471939
 20
-176.3121072925917
 30
0.0
 11
368.0313631469489
 21
-121.0621072925917
 31
0.0
  0
LINE
  5
22D
330
70
100
AcDbEntity
  8
Visible (ISO)
100
AcDbLine
 10
368.0313631469489
 20
-121.0621072925917
 30
0.0
 11
365.5313342749918
 21
-121.0621072925917
 31
0.0
  0
LINE
  5
22E
330
70
100
AcDbEntity
  8
Visible (ISO)
100
AcDbLine
 10
459.0312187886633
 20
-223.8121072925918
 30
0.0
 11
459.0312187886633
 21
-176.3121072925917
 31
0.0
  0
LINE
  5
22F
330
70
100
AcDbEntity
  8
Visible (ISO)
100
AcDbLine
 10
488.4312187886633
 20
-225.0621072925918
 30
0.0
 11
488.4312187886633
 21
-175.0621072925917
 31
0.0
  0
LINE
  5
230
330
70
100
AcDbEntity
  8
Visible (ISO)
100
AcDbLine
 10
326.09788545533
 20
-225.0621072925918
 30
0.0
 11
326.09788545533
 21
-175.0621072925917
 31
0.0
  0
LINE
  5
231
330
70
100
AcDbEntity
  8
Visible (ISO)
100
AcDbLine
 10
313.0312187886634
 20
-225.0621072925918
 30
0.0
 11
313.0312187886634
 21
-175.0621072925917
 31
0.0
  0
LINE
  5
232
330
70
100
AcDbEntity
  8
Visible (ISO)
100
AcDbLine
 10
508.0312187886633
 20
-225.0621072925918
 30
0.0
 11
508.0312187886633
 21
-175.0621072925917
 31
0.0
  0
LINE
  5
233
330
70
100
AcDbEntity
  8
Visible (ISO)
100
AcDbLine
 10
494.9645521219967
 20
-225.0621072925918
 30
0.0
 11
494.9645521219967
 21
-175.0621072925917
 31
0.0
  0
LINE
  5
234
330
70
100
AcDbEntity
  8
Visible (ISO)
100
AcDbLine
 10
362.0312187886634
 20
-223.8121072925918
 30
0.0
 11
362.0312187886634
 21
-176.3121072925917
 31
0.0
  0
LINE
  5
235
330
70
100
AcDbEntity
  8
Visible (ISO)
100
AcDbLine
 10
332.6312187886634
 20
-225.0621072925918
 30
0.0
 11
332.6312187886634
 21
-175.0621072925917
 31
0.0
  0
SPLINE
  5
236
330
70
100
AcDbEntity
  8
Visible (ISO)
100
AcDbSpline
210
0.0
220
0.0
230
1.0
 70
     8
 71
     3
 72
    14
 73
    10
 74
     0
 42
0.000000001
 43
0.0000000001
 40
0.0
 40
0.0
 40
0.0
 40
0.0
 40
0.3821331703306959
 40
0.3821331703306959
 40
0.7642663406613919
 40
0.7642663406613919
 40
1.145796283391883
 40
1.145796283391883
 40
1.521957379014865
 40
1.521957379014865
 40
1.521957379014865
 40
1.521957379014865
 10
378.0312187886634
 20
-178.495135877297
 30
0.0
 10
376.7574415542277
 20
-178.495135877297
 30
0.0
 10
375.4114369420869
 20
-178.3709757564313
 30
0.0
 10
372.9531912785076
 20
-177.9415721100916
 30
0.0
 10
371.8392869048615
 20
-177.6443912883968
 30
0.0
 10
370.0810417061898
 20
-177.100563151332
 30
0.0
 10
369.3138274559755
 20
-176.8161404362699
 30
0.0
 10
368.29572595016
 20
-176.4209213172004
 30
0.0
 10
368.0381114832971
 20
-176.3121072937969
 30
0.0
 10
368.0313631470715
 20
-176.3121072925917
 30
0.0
  0
SPLINE
  5
237
330
70
100
AcDbEntity
  8
Visible (ISO)
100
AcDbSpline
210
0.0
220
0.0
230
1.0
 70
     8
 71
     3
 72
    14
 73
    10
 74
     0
 42
0.000000001
 43
0.0000000001
 40
4.58878303155963
 40
4.58878303155963
 40
4.58878303155963
 40
4.58878303155963
 40
4.964944127182612
 40
4.964944127182612
 40
5.346474069913104
 40
5.346474069913104
 40
5.7286072402438
 40
5.7286072402438
 40
6.110740410574496
 40
6.110740410574496
 40
6.110740410574496
 40
6.110740410574496
 10
388.0310744302552
 20
-176.3121072925917
 30
0.0
 10
388.0243260940296
 20
-176.3121072937969
 30
0.0
 10
387.7667116271667
 20
-176.4209213172004
 30
0.0
 10
386.7486101213512
 20
-176.8161404362699
 30
0.0
 10
385.9813958711368
 20
-177.100563151332
 30
0.0
 10
384.2231506724652
 20
-177.6443912883968
 30
0.0
 10
383.1092462988191
 20
-177.9415721100916
 30
0.0
 10
380.6510006352398
 20
-178.3709757564313
 30
0.0
 10
379.304996023099
 20
-178.495135877297
 30
0.0
 10
378.0312187886634
 20
-178.495135877297
 30
0.0
  0
LINE
  5
238
330
70
100
AcDbEntity
  8
Visible (ISO)
100
AcDbLine
 10
368.0313631469489
 20
-121.0621072925917
 30
0.0
 11
388.0310744303778
 21
-121.0621072925917
 31
0.0
  0
SPLINE
  5
239
330
70
100
AcDbEntity
  8
Visible (ISO)
100
AcDbSpline
210
0.0
220
0.0
230
1.0
 70
     8
 71
     3
 72
    14
 73
    10
 74
     0
 42
0.000000001
 43
0.0000000001
 40
0.0
 40
0.0
 40
0.0
 40
0.0
 40
0.3821623631935656
 40
0.3821623631935656
 40
0.7643247263871313
 40
0.7643247263871313
 40
1.146003636858574
 40
1.146003636858574
 40
1.527682547330017
 40
1.527682547330017
 40
1.527682547330017
 40
1.527682547330017
 10
443.0312187886634
 20
-178.5199973680741
 30
0.0
 10
441.7573442446848
 20
-178.5199973680741
 30
0.0
 10
440.4113904369356
 20
-178.3950267648376
 30
0.0
 10
437.95344903319
 20
-177.9627278695991
 30
0.0
 10
436.8397810377079
 20
-177.6634932585587
 30
0.0
 10
435.0816336878097
 20
-177.1151755015103
 30
0.0
 10
434.3143096410698
 20
-176.8279767717561
 30
0.0
 10
433.2886934705114
 20
-176.4240635434499
 30
0.0
 10
433.0312187886633
 20
-176.3121072925917
 30
0.0
 10
433.0312187886633
 20
-176.3121072925917
 30
0.0
  0
SPLINE
  5
23A
330
70
100
AcDbEntity
  8
Visible (ISO)
100
AcDbSpline
210
0.0
220
0.0
230
1.0
 70
     8
 71
     3
 72
    14
 73
    10
 74
     0
 42
0.000000001
 43
0.0000000001
 40
4.583047641990052
 40
4.583047641990052
 40
4.583047641990052
 40
4.583047641990052
 40
4.964726552461495
 40
4.964726552461495
 40
5.346405462932938
 40
5.346405462932938
 40
5.728567826126504
 40
5.728567826126504
 40
6.11073018932007
 40
6.11073018932007
 40
6.11073018932007
 40
6.11073018932007
 10
453.0312187886633
 20
-176.3121072925917
 30
0.0
 10
453.0312187886633
 20
-176.3121072925917
 30
0.0
 10
452.7737441068152
 20
-176.4240635434499
 30
0.0
 10
451.7481279362568
 20
-176.8279767717561
 30
0.0
 10
450.9808038895169
 20
-177.1151755015103
 30
0.0
 10
449.2226565396188
 20
-177.6634932585587
 30
0.0
 10
448.1089885441366
 20
-177.9627278695991
 30
0.0
 10
445.6510471403911
 20
-178.3950267648376
 30
0.0
 10
444.3050933326419
 20
-178.5199973680741
 30
0.0
 10
443.0312187886634
 20
-178.5199973680741
 30
0.0
  0
LINE
  5
23B
330
70
100
AcDbEntity
  8
Visible (ISO)
100
AcDbLine
 10
433.0312187886633
 20
-121.0621072925917
 30
0.0
 11
453.0312187886633
 21
-121.0621072925917
 31
0.0
  0
MTEXT
  5
23C
330
70
100
AcDbEntity
  8
Symbol (ISO)
100
AcDbMText
 10
398.0923219259433
 20
-102.5621071925917
 30
0.0
 40
3.499999940395355
 41
0.0
 46
0.0
 71
     7
 72
     1
  1
B-B ( 1 : 1 )
  7
Label Text (ISO)
 73
     1
 44
1.0
  0
HATCH
  5
26D
330
70
100
AcDbEntity
  8
Hatch (ISO)
100
AcDbHatch
 10
0.0
 20
0.0
 30
0.0
210
0.0
220
0.0
230
1.0
  2
ANSI31
 70
     0
 71
     0
 91
        4
 92
        1
 93
       12
 72
     1
 10
365.5313342749918
 20
-121.0621072925917
 11
365.5313342751182
 21
-166.0621072925918
 72
     1
 10
365.5313342751182
 20
-166.0621072925918
 11
352.0312187886634
 21
-166.0621072925918
 72
     1
 10
352.0312187886633
 20
-166.0621072925918
 11
313.0312187886634
 21
-169.4621072925918
 72
     1
 10
313.0312187886634
 20
-169.4621072925918
 11
313.0312187886634
 21
-175.0621072925917
 72
     1
 10
313.0312187886634
 20
-175.0621072925917
 11
326.09788545533
 21
-175.0621072925917
 72
     1
 10
326.09788545533
 20
-175.0621072925917
 11
332.6312187886633
 21
-173.6734044230143
 72
     1
 10
332.6312187886634
 20
-173.6734044230143
 11
332.6312187886634
 21
-175.0621072925917
 72
     1
 10
332.6312187886634
 20
-175.0621072925917
 11
362.0312187886634
 21
-175.0621072925917
 72
     1
 10
362.0312187886634
 20
-175.0621072925917
 11
362.0312187886634
 21
-176.3121072925917
 72
     1
 10
362.0312187886634
 20
-176.3121072925918
 11
368.0313631471939
 21
-176.3121072925918
 72
     1
 10
368.0313631471939
 20
-176.3121072925918
 11
368.031363146949
 21
-121.0621072925917
 72
     1
 10
368.0313631469489
 20
-121.0621072925917
 11
365.5313342749917
 21
-121.0621072925917
 97
        0
 92
        1
 93
        8
 72
     1
 10
430.5312187886634
 20
-121.0621072925917
 11
430.5312187886634
 21
-166.0621072925918
 72
     1
 10
430.5312187886634
 20
-166.0621072925918
 11
390.5311033022085
 21
-166.0621072925918
 72
     1
 10
390.5311033022085
 20
-166.0621072925918
 11
390.531103302335
 21
-121.0621072925917
 72
     1
 10
390.531103302335
 20
-121.0621072925917
 11
388.0310744303777
 21
-121.0621072925917
 72
     1
 10
388.0310744303778
 20
-121.0621072925917
 11
388.0310744301329
 21
-176.3121072925917
 72
     1
 10
388.0310744301328
 20
-176.3121072925918
 11
433.0312187886633
 21
-176.3121072925918
 72
     1
 10
433.0312187886633
 20
-176.3121072925918
 11
433.0312187886633
 21
-121.0621072925917
 72
     1
 10
433.0312187886633
 20
-121.0621072925917
 11
430.5312187886634
 21
-121.0621072925917
 97
        0
 92
        1
 93
       12
 72
     1
 10
455.5312187886634
 20
-166.0621072925918
 11
455.5312187886634
 21
-121.0621072925917
 72
     1
 10
455.5312187886634
 20
-121.0621072925917
 11
453.0312187886633
 21
-121.0621072925917
 72
     1
 10
453.0312187886633
 20
-121.0621072925917
 11
453.0312187886633
 21
-176.3121072925917
 72
     1
 10
453.0312187886633
 20
-176.3121072925918
 11
459.0312187886633
 21
-176.3121072925918
 72
     1
 10
459.0312187886633
 20
-176.3121072925918
 11
459.0312187886633
 21
-175.0621072925918
 72
     1
 10
459.0312187886633
 20
-175.0621072925917
 11
488.4312187886633
 21
-175.0621072925917
 72
     1
 10
488.4312187886633
 20
-175.0621072925917
 11
488.4312187886633
 21
-173.6734044230143
 72
     1
 10
488.4312187886633
 20
-173.6734044230143
 11
494.9645521219966
 21
-175.0621072925917
 72
     1
 10
494.9645521219966
 20
-175.0621072925917
 11
508.0312187886633
 21
-175.0621072925917
 72
     1
 10
508.0312187886633
 20
-175.0621072925917
 11
508.0312187886633
 21
-169.4621072925918
 72
     1
 10
508.0312187886633
 20
-169.4621072925918
 11
469.0312187886632
 21
-166.0621072925918
 72
     1
 10
469.0312187886632
 20
-166.0621072925918
 11
455.5312187886633
 21
-166.0621072925918
 97
        0
 92
        1
 93
       16
 72
     1
 10
352.0312187886633
 20
-234.0621072925918
 11
469.0312187886632
 21
-234.0621072925918
 72
     1
 10
469.0312187886632
 20
-234.0621072925918
 11
508.0312187886633
 21
-230.6621072925918
 72
     1
 10
508.0312187886633
 20
-230.6621072925918
 11
508.0312187886633
 21
-225.0621072925918
 72
     1
 10
508.0312187886633
 20
-225.0621072925918
 11
494.9645521219966
 21
-225.0621072925918
 72
     1
 10
494.9645521219966
 20
-225.0621072925918
 11
488.4312187886633
 21
-226.4508101621693
 72
     1
 10
488.4312187886633
 20
-226.4508101621693
 11
488.4312187886633
 21
-225.0621072925918
 72
     1
 10
488.4312187886633
 20
-225.0621072925918
 11
459.0312187886633
 21
-225.0621072925918
 72
     1
 10
459.0312187886633
 20
-225.0621072925918
 11
459.0312187886633
 21
-223.8121072925918
 72
     1
 10
459.0312187886633
 20
-223.8121072925918
 11
362.0312187886633
 21
-223.8121072925918
 72
     1
 10
362.0312187886634
 20
-223.8121072925918
 11
362.0312187886634
 21
-225.0621072925918
 72
     1
 10
362.0312187886634
 20
-225.0621072925918
 11
332.6312187886633
 21
-225.0621072925918
 72
     1
 10
332.6312187886634
 20
-225.0621072925918
 11
332.6312187886634
 21
-226.4508101621693
 72
     1
 10
332.6312187886634
 20
-226.4508101621693
 11
326.0978854553301
 21
-225.0621072925918
 72
     1
 10
326.09788545533
 20
-225.0621072925918
 11
313.0312187886634
 21
-225.0621072925918
 72
     1
 10
313.0312187886634
 20
-225.0621072925918
 11
313.0312187886634
 21
-230.6621072925918
 72
     1
 10
313.0312187886634
 20
-230.6621072925918
 11
352.0312187886633
 21
-234.0621072925918
 97
        0
 75
     0
 76
     1
 52
0.0
 41
25.4
 77
     0
 78
     1
 53
45.0
 43
0.0
 44
0.0
 45
-2.245064030267288
 46
2.245064030267288
 79
     0
 98
        1
 10
410.5312187886633
 20
-177.5621072925918
  0
DIMENSION
  5
26E
330
70
100
AcDbEntity
  8
Dimension (ISO)
100
AcDbDimension
280
     0
  2
*D7
 10
520.2395936685659
 20
-225.0621072925918
 30
0.0
 11
520.2395936685659
 21
-206.5621072925918
 31
0.0
 70
   160
  1
\fAIGDT|b0|i0;\H2.5000;\ln\fTahoma|b0|i0;\H2.5000;<>
 42
50.0
 73
     0
 74
     0
 75
     0
  3
Default (ISO)
100
AcDbAlignedDimension
 13
508.0312187886633
 23
-175.0621072925917
 33
0.0
 14
508.0312187886633
 24
-225.0621072925918
 34
0.0
 50
90.0
100
AcDbRotatedDimension
1001
ACAD
1000
DSTYLE
1002
{
1070
   172
1070
     0
1070
   289
1070
     1
1070
   271
1070
     2
1070
   272
1070
     2
1070
    48
1040
0.0
1070
    47
1040
0.0
1002
}
  0
DIMENSION
  5
352
330
70
100
AcDbEntity
  8
Dimension (ISO)
100
AcDbDimension
280
     0
  2
*D8
 10
430.5312187886634
 20
-103.2924917109175
 30
0.0
 11
435.5312187886633
 21
-103.2924917109175
 31
0.0
 70
   160
  1
<>
 42
25.0
 73
     0
 74
     0
 75
     0
  3
Default (ISO)
100
AcDbAlignedDimension
 13
455.5312187886634
 23
-121.0621072925917
 33
0.0
 14
430.5312187886634
 24
-121.0621072925917
 34
0.0
100
AcDbRotatedDimension
1001
ACAD
1000
DSTYLE
1002
{
1070
   172
1070
     0
1070
   289
1070
     1
1070
   271
1070
     2
1070
   272
1070
     2
1070
    48
1040
0.0
1070
    47
1040
0.0
1002
}
  0
DIMENSION
  5
434
330
70
100
AcDbEntity
  8
Dimension (ISO)
100
AcDbDimension
280
     0
  2
*D9
 10
365.5313342749918
 20
-103.2924917109188
 30
0.0
 11
370.5311754810896
 21
-103.2924917109188
 31
0.0
 70
   160
  1
<>
 42
24.99976902734318
 73
     0
 74
     0
 75
     0
  3
Default (ISO)
100
AcDbAlignedDimension
 13
390.531103302335
 23
-121.0621072925917
 33
0.0
 14
365.5313342749918
 24
-121.0621072925917
 34
0.0
 50
180.0
100
AcDbRotatedDimension
1001
ACAD
1000
DSTYLE
1002
{
1070
   172
1070
     0
1070
   289
1070
     1
1070
   271
1070
     2
1070
   272
1070
     2
1070
    48
1040
0.0
1070
    47
1040
0.0
1002
}
  0
DIMENSION
  5
516
330
70
100
AcDbEntity
  8
Dimension (ISO)
100
AcDbDimension
280
     0
  2
*D10
 10
443.0312187886634
 20
-77.22613758610546
 30
0.0
 11
410.5312187886633
 21
-77.22613758610546
 31
0.0
 70
   160
  1
<>
 42
65.0
 73
     0
 74
     0
 75
     0
  3
Default (ISO)
100
AcDbAlignedDimension
 13
378.0312187886634
 23
-121.0621072925917
 33
0.0
 14
443.0312187886634
 24
-121.0621072925917
 34
0.0
 50
180.0
100
AcDbRotatedDimension
1001
ACAD
1000
DSTYLE
1002
{
1070
   172
1070
     0
1070
   289
1070
     1
1070
   271
1070
     2
1070
   272
1070
     2
1070
    48
1040
0.0
1070
    47
1040
0.0
1002
}
  0
DIMENSION
  5
5F8
330
70
100
AcDbEntity
  8
Dimension (ISO)
100
AcDbDimension
280
     0
  2
*D11
 10
295.3981800670029
 20
-200.0621072925917
 30
0.0
 11
295.398180067003
 21
-169.0621072925917
 31
0.0
 70
   160
  1
<>
 42
79.00000000000003
 73
     0
 74
     0
 75
     0
  3
Default (ISO)
100
AcDbAlignedDimension
 13
368.0313631469489
 23
-121.0621072925917
 33
0.0
 14
326.09788545533
 24
-200.0621072925918
 34
0.0
 50
90.0
100
AcDbRotatedDimension
1001
ACAD
1000
DSTYLE
1002
{
1070
   172
1070
     0
1070
   289
1070
     1
1070
   271
1070
     2
1070
   272
1070
     2
1070
    48
1040
0.0
1070
    47
1040
0.0
1002
}
  0
DIMENSION
  5
6CE
330
70
100
AcDbEntity
  8
Dimension (ISO)
100
AcDbDimension
280
     0
  2
*D12
 10
321.7440204506581
 20
-225.0621072925918
 30
0.0
 11
321.7440204506581
 21
-206.5621072925918
 31
0.0
 70
   160
  1
\fAIGDT|b0|i0;\H2.5000;\ln\fTahoma|b0|i0;\H2.5000;<>
 42
50.0
 73
     0
 74
     0
 75
     0
  3
Default (ISO)
100
AcDbAlignedDimension
 13
313.0312187886634
 23
-175.0621072925917
 33
0.0
 14
313.0312187886634
 24
-225.0621072925918
 34
0.0
 50
90.0
100
AcDbRotatedDimension
1001
ACAD
1000
DSTYLE
1002
{
1070
   172
1070
     0
1070
   289
1070
     1
1070
   271
1070
     2
1070
   272
1070
     2
1070
    48
1040
0.0
1070
    47
1040
0.0
1002
}
  0
DIMENSION
  5
7B0
330
70
100
AcDbEntity
  8
Dimension (ISO)
100
AcDbDimension
280
     0
  2
*D13
 10
508.0312187886633
 20
-257.9521611784088
 30
0.0
 11
488.0312187886633
 21
-257.9521611784088
 31
0.0
 70
   160
  1
<>
 42
49.00000000000005
 73
     0
 74
     0
 75
     0
  3
Default (ISO)
100
AcDbAlignedDimension
 13
459.0312187886633
 23
-223.8121072925918
 33
0.0
 14
508.0312187886633
 24
-225.0621072925918
 34
0.0
 50
180.0
100
AcDbRotatedDimension
1001
ACAD
1000
DSTYLE
1002
{
1070
   172
1070
     0
1070
   289
1070
     1
1070
   271
1070
     2
1070
   272
1070
     2
1070
    48
1040
0.0
1070
    47
1040
0.0
1002
}
  0
DIMENSION
  5
892
330
70
100
AcDbEntity
  8
Dimension (ISO)
100
AcDbDimension
280
     0
  2
*D14
 10
313.0312187886634
 20
-271.5621072925917
 30
0.0
 11
401.5312187886634
 21
-271.5621072925917
 31
0.0
 70
   160
  1
<>
 42
195.0
 73
     0
 74
     0
 75
     0
  3
Default (ISO)
100
AcDbAlignedDimension
 13
508.0312187886633
 23
-225.0621072925918
 33
0.0
 14
313.0312187886634
 24
-225.0621072925918
 34
0.0
 50
180.0
100
AcDbRotatedDimension
1001
ACAD
1000
DSTYLE
1002
{
1070
   172
1070
     0
1070
   289
1070
     1
1070
   271
1070
     2
1070
   272
1070
     2
1070
    48
1040
0.0
1070
    47
1040
0.0
1002
}
  0
ELLIPSE
  5
968
330
70
100
AcDbEntity
  8
Visible (ISO)
100
AcDbEllipse
 10
714.3821165367417
 20
581.4484436743525
 30
0.0
 11
10.0
 21
0.0000000000025668
 31
0.0
210
0.0
220
0.0
230
1.0
 40
0.5758617009851405
 41
0.0
 42
6.283185307179586
  0
ELLIPSE
  5
969
330
70
100
AcDbEntity
  8
Visible (ISO)
100
AcDbEllipse
 10
760.3060629401244
 20
607.9380445755457
 30
0.0
 11
10.0
 21
0.0000000000025668
 31
0.0
210
0.0
220
0.0
230
1.0
 40
0.5758617009851405
 41
0.0
 42
6.283185307179586
  0
ELLIPSE
  5
96A
330
70
100
AcDbEntity
  8
Visible (ISO)
100
AcDbEllipse
 10
714.3821165367417
 20
581.4484436743525
 30
0.0
 11
12.5
 21
0.0000000000039513
 31
0.0
210
0.0
220
0.0
230
1.0
 40
0.5758617009851405
 41
0.0
 42
6.283185307179586
  0
SPLINE
  5
96B
330
70
100
AcDbEntity
  8
Visible (ISO)
100
AcDbSpline
210
0.0
220
0.0
230
1.0
 70
     8
 71
     3
 72
    30
 73
    26
 74
     0
 42
0.000000001
 43
0.0000000001
 40
2.853942058274771
 40
2.853942058274771
 40
2.853942058274771
 40
2.853942058274771
 40
2.854016957959283
 40
2.854016957959283
 40
3.329934492000499
 40
3.329934492000499
 40
3.567893259021107
 40
3.567893259021107
 40
3.805852026041715
 40
3.805852026041715
 40
4.043810793062323
 40
4.043810793062323
 40
4.28176956008293
 40
4.28176956008293
 40
4.757687094124146
 40
4.757687094124146
 40
5.233363924259887
 40
5.233363924259887
 40
5.709040754395628
 40
5.709040754395628
 40
6.184492829415241
 40
6.184492829415241
 40
6.659944904434853
 40
6.659944904434853
 40
6.660019082316995
 40
6.660019082316995
 40
6.660019082316995
 40
6.660019082316995
 10
726.882116535467
 20
543.6912508181763
 30
0.0
 10
726.8821165363231
 20
543.6910711986587
 30
0.0
 10
726.882116529536
 20
543.6908915810107
 30
0.0
 10
726.882024824298
 20
542.5494214716813
 30
0.0
 10
726.5735469265393
 20
541.3263120450909
 30
0.0
 10
725.6218764278781
 20
539.7119158421913
 30
0.0
 10
725.225665078269
 20
539.2092466484274
 30
0.0
 10
724.3056851069667
 20
538.3170827660081
 30
0.0
 10
723.7818254942591
 20
537.9277289537705
 30
0.0
 10
722.6600771089051
 20
537.2817570205032
 30
0.0
 10
722.0277309201618
 20
537.0052961932284
 30
0.0
 10
720.6550813504942
 20
536.5772225284559
 30
0.0
 10
719.914826435895
 20
536.4254443262008
 30
0.0
 10
717.6056860018034
 20
536.1620643987741
 30
0.0
 10
715.9408999045889
 20
536.2488466647268
 30
0.0
 10
712.8255924249012
 20
536.7367585834209
 30
0.0
 10
711.1599331032882
 20
537.1711977112697
 30
0.0
 10
708.0794810964538
 20
538.2652248228382
 30
0.0
 10
706.6644614126329
 20
538.9211488993542
 30
0.0
 10
704.4226318834306
 20
540.2162289138317
 30
0.0
 10
703.4601609566276
 20
540.9336201727474
 30
0.0
 10
702.1906065722811
 20
542.3525322815304
 30
0.0
 10
701.8822073591886
 20
543.058626018023
 30
0.0
 10
701.8821165438348
 20
543.7146992565519
 30
0.0
 10
701.8821165371666
 20
543.714801599155
 30
0.0
 10
701.8821165379968
 20
543.7149039427489
 30
0.0
  0
ELLIPSE
  5
96C
330
70
100
AcDbEntity
  8
Visible (ISO)
100
AcDbEllipse
 10
760.3060629401244
 20
607.9380445755457
 30
0.0
 11
12.5
 21
0.0000000000039513
 31
0.0
210
0.0
220
0.0
230
1.0
 40
0.5758617009851405
 41
0.0
 42
6.283185307179586
  0
SPLINE
  5
96D
330
70
100
AcDbEntity
  8
Visible (ISO)
100
AcDbSpline
210
0.0
220
0.0
230
1.0
 70
     8
 71
     3
 72
    26
 73
    22
 74
     0
 42
0.000000001
 43
0.0000000001
 40
2.854052072014932
 40
2.854052072014932
 40
2.854052072015308
 40
2.854052072015308
 40
3.329950600907282
 40
3.329950600907282
 40
3.567899865353269
 40
3.567899865353269
 40
3.805849129799256
 40
3.805849129799256
 40
4.043798394245242
 40
4.043798394245242
 40
4.281747658691228
 40
4.281747658691228
 40
4.757646187583202
 40
4.757646187583202
 40
5.233209941141042
 40
5.233209941141042
 40
5.708773694698883
 40
5.708773694698883
 40
6.184337448256723
 40
6.184337448256723
 40
6.659901201814188
 40
6.659901201814188
 40
6.659901201814564
 40
6.659901201814564
 10
772.806062940134
 20
570.1927168346055
 30
0.0
 10
772.806062940134
 20
569.0527938024248
 30
0.0
 10
772.4975661766285
 20
567.8309597603997
 30
0.0
 10
771.5458402242309
 20
566.2179232878466
 30
0.0
 10
771.149607837792
 20
565.7156172146746
 30
0.0
 10
770.2296078451627
 20
564.8239487522373
 30
0.0
 10
769.7057494998587
 20
564.4347266086661
 30
0.0
 10
768.5840459100711
 20
563.7887804714499
 30
0.0
 10
767.9517097212165
 20
563.5121944639108
 30
0.0
 10
766.5790361023871
 20
563.0836000006497
 30
0.0
 10
765.8387471001637
 20
562.9314269337408
 30
0.0
 10
763.5294227196634
 20
562.6665494145929
 30
0.0
 10
761.8644052818876
 20
562.7519122117499
 30
0.0
 10
758.7488168290783
 20
563.2368083204357
 30
0.0
 10
757.0831673313631
 20
563.6693670808898
 30
0.0
 10
754.002942305336
 20
564.7592937544247
 30
0.0
 10
752.5881426920581
 20
565.4129857949437
 30
0.0
 10
750.3463136585434
 20
566.7039692755015
 30
0.0
 10
749.3838149183812
 20
567.4192723085436
 30
0.0
 10
748.1143538249669
 20
568.8341632825014
 30
0.0
 10
747.8060629401343
 20
569.538321188384
 30
0.0
 10
747.806062940134
 20
570.1927168346014
 30
0.0
  0
LINE
  5
96E
330
70
100
AcDbEntity
  8
Visible (ISO)
100
AcDbLine
 10
726.8821165367417
 20
581.4484436743557
 30
0.0
 11
726.8821165367513
 21
543.6912508182332
 31
0.0
  0
LINE
  5
96F
330
70
100
AcDbEntity
  8
Visible (ISO)
100
AcDbLine
 10
701.8821165367417
 20
581.4484436743494
 30
0.0
 11
701.8821165367513
 21
543.7149039427965
 31
0.0
  0
LINE
  5
970
330
70
100
AcDbEntity
  8
Visible (ISO)
100
AcDbLine
 10
772.8060629401244
 20
607.9380445755489
 30
0.0
 11
772.806062940134
 21
570.1927168346073
 31
0.0
  0
LINE
  5
971
330
70
100
AcDbEntity
  8
Visible (ISO)
100
AcDbLine
 10
747.8060629401244
 20
607.9380445755425
 30
0.0
 11
747.806062940134
 21
570.192716834601
 31
0.0
  0
ELLIPSE
  5
972
330
70
100
AcDbEntity
  8
Visible (ISO)
100
AcDbEllipse
 10
826.4205469810828
 20
542.3338324285007
 30
0.0
 11
0.9980644231683662
 21
1.73316687229061
 31
0.0
210
0.0
220
0.0
230
1.0
 40
0.5780931159159814
 41
2.959373638533621
 42
6.46540432223581
  0
ELLIPSE
  5
973
330
70
100
AcDbEntity
  8
Visible (ISO)
100
AcDbEllipse
 10
716.1118891159651
 20
478.811301076906
 30
0.0
 11
0.9980644231683662
 21
1.733166872290609
 31
0.0
210
0.0
220
0.0
230
1.0
 40
0.5780931159159815
 41
2.95937363853362
 42
6.465404322235809
  0
ELLIPSE
  5
974
330
70
100
AcDbEntity
  8
Visible (ISO)
100
AcDbEllipse
 10
828.5418673246422
 20
541.1122452871243
 30
0.0
 11
-2.495161057921168
 21
-4.332917180726365
 31
0.0
210
0.0
220
0.0
230
1.0
 40
0.5780931159159815
 41
0.0
 42
6.283185307179586
  0
LINE
  5
975
330
70
100
AcDbEntity
  8
Visible (ISO)
100
AcDbLine
 10
827.2442175043055
 20
544.1674260686555
 30
0.0
 11
827.4186114042514
 21
544.0669993007913
 31
0.0
  0
LINE
  5
976
330
70
100
AcDbEntity
  8
Visible (ISO)
100
AcDbLine
 10
825.2480886579688
 20
540.7010923240743
 30
0.0
 11
825.4224825579147
 21
540.6006655562102
 31
0.0
  0
ELLIPSE
  5
977
330
70
100
AcDbEntity
  8
Visible (ISO)
100
AcDbEllipse
 10
718.2332094595245
 20
477.5897139355296
 30
0.0
 11
-2.495161057921168
 21
-4.332917180726365
 31
0.0
210
0.0
220
0.0
230
1.0
 40
0.5780931159159815
 41
0.0
 42
6.283185307179586
  0
LINE
  5
978
330
70
100
AcDbEntity
  8
Visible (ISO)
100
AcDbLine
 10
715.1138246927968
 20
477.0781342046155
 30
0.0
 11
714.9394307928509
 21
477.1785609724796
 31
0.0
  0
LINE
  5
979
330
70
100
AcDbEntity
  8
Visible (ISO)
100
AcDbLine
 10
717.1099535391334
 20
480.5444679491966
 30
0.0
 11
716.9355596391876
 21
480.6448947170609
 31
0.0
  0
ELLIPSE
  5
97A
330
70
100
AcDbEntity
  8
Visible (ISO)
100
AcDbEllipse
 10
718.2332094595245
 20
477.5897139355296
 30
0.0
 11
-3.742741586881752
 21
-6.499375771089547
 31
0.0
210
0.0
220
0.0
230
1.0
 40
0.5780931159159813
 41
0.0
 42
6.283185307179586
  0
SPLINE
  5
97B
330
70
100
AcDbEntity
  8
Visible (ISO)
100
AcDbSpline
210
0.0
220
0.0
230
1.0
 70
     8
 71
     3
 72
    26
 73
    22
 74
     0
 42
0.000000001
 43
0.0000000001
 40
0.6115863508086603
 40
0.6115863508086603
 40
0.6115863508086603
 40
0.6115863508086603
 40
0.6810400246392856
 40
0.6810400246392856
 40
1.023662031564495
 40
1.023662031564495
 40
1.366284038489705
 40
1.366284038489705
 40
1.708906045414915
 40
1.708906045414915
 40
2.051528052340125
 40
2.051528052340125
 40
2.392048064659768
 40
2.392048064659768
 40
2.73256807697941
 40
2.73256807697941
 40
3.092773834313961
 40
3.092773834313961
 40
3.452979591648511
 40
3.452979591648511
 40
3.523215894625634
 40
3.523215894625634
 40
3.523215894625634
 40
3.523215894625634
 10
699.7709466554429
 20
477.5691924487215
 30
0.0
 10
699.659747846163
 20
477.617690531793
 30
0.0
 10
699.5546522631144
 20
477.6733786890407
 30
0.0
 10
698.9693364463715
 20
478.0443672056573
 30
0.0
 10
698.5719081118079
 20
478.5611685209
 30
0.0
 10
698.0548191890209
 20
479.9625044852509
 30
0.0
 10
697.9329849597526
 20
480.8486408936139
 30
0.0
 10
697.932984959752
 20
482.7160384714107
 30
0.0
 10
698.0548191890199
 20
483.8223777830921
 30
0.0
 10
698.571908111806
 20
486.0972912430127
 30
0.0
 10
698.9693364463692
 20
487.2647470996413
 30
0.0
 10
699.9396772056491
 20
489.3231237279892
 30
0.0
 10
700.5782301223839
 20
490.35518439865
 30
0.0
 10
702.0850017137535
 20
492.0763440328016
 30
0.0
 10
702.9563750086642
 20
492.7636117739416
 30
0.0
 10
704.7391840507271
 20
493.6795332118133
 30
0.0
 10
705.7648521581175
 20
493.9398823537008
 30
0.0
 10
707.7326915041121
 20
493.9253867237743
 30
0.0
 10
708.6724587703943
 20
493.6532655571348
 30
0.0
 10
709.5795466199863
 20
493.1245296054177
 30
0.0
 10
709.7246306621062
 20
493.0294546007578
 30
0.0
 10
709.8656503469897
 20
492.9261274217951
 30
0.0
  0
LINE
  5
97C
330
70
100
AcDbEntity
  8
Visible (ISO)
100
AcDbLine
 10
714.7305510244778
 20
470.9687248217614
 30
0.0
 11
699.7703942947075
 21
477.5683123665465
 31
0.0
  0
LINE
  5
97D
330
70
100
AcDbEntity
  8
Visible (ISO)
100
AcDbLine
 10
722.2016409935772
 20
483.942482160231
 30
0.0
 11
709.8662640807524
 21
492.9269084606529
 31
0.0
  0
ELLIPSE
  5
97E
330
70
100
AcDbEntity
  8
Visible (ISO)
100
AcDbEllipse
 10
828.5418673246422
 20
541.1122452871243
 30
0.0
 11
-3.742741586881364
 21
-6.499375771089771
 31
0.0
210
0.0
220
0.0
230
1.0
 40
0.5780931159159814
 41
0.0
 42
6.283185307179586
  0
SPLINE
  5
97F
330
70
100
AcDbEntity
  8
Visible (ISO)
100
AcDbSpline
210
0.0
220
0.0
230
1.0
 70
     8
 71
     3
 72
    26
 73
    22
 74
     0
 42
0.000000001
 43
0.0000000001
 40
0.6760652681355616
 40
0.6760652681355616
 40
0.6760652681355616
 40
0.6760652681355616
 40
0.7204115146691004
 40
0.7204115146691004
 40
1.073820790580767
 40
1.073820790580767
 40
1.427230066492434
 40
1.427230066492434
 40
1.780639342404102
 40
1.780639342404102
 40
2.134048618315769
 40
2.134048618315769
 40
2.494254375650319
 40
2.494254375650319
 40
2.854460132984869
 40
2.854460132984869
 40
3.194980145304512
 40
3.194980145304512
 40
3.535500157624155
 40
3.535500157624155
 40
3.579899927568208
 40
3.579899927568208
 40
3.579899927568208
 40
3.579899927568208
 10
810.9024648808102
 20
540.7280931168789
 30
0.0
 10
810.8474744866377
 20
540.7520695457448
 30
0.0
 10
810.7944555018439
 20
540.779099360343
 30
0.0
 10
810.3370391404411
 20
541.0484023361973
 30
0.0
 10
810.0043324868106
 20
541.510714460451
 30
0.0
 10
809.5700855181954
 20
542.8604105776579
 30
0.0
 10
809.4666459861459
 20
543.7498471725713
 30
0.0
 10
809.4666459861453
 20
545.6760387553333
 30
0.0
 10
809.5700855181942
 20
546.8305667984666
 30
0.0
 10
810.0043324868089
 20
549.2207421440163
 30
0.0
 10
810.3370391404387
 20
550.4554327652653
 30
0.0
 10
811.1576919624106
 20
552.6705862689481
 30
0.0
 10
811.7052695121676
 20
553.7992123513036
 30
0.0
 10
813.0138755578572
 20
555.7004873976702
 30
0.0
 10
813.7788906273359
 20
556.4713241159397
 30
0.0
 10
815.2868528494002
 20
557.4504318157814
 30
0.0
 10
816.1160451886864
 20
557.7424546933871
 30
0.0
 10
817.7207291755712
 20
557.8130631610687
 30
0.0
 10
818.4934167861179
 20
557.5936818609473
 30
0.0
 10
819.1995432013563
 20
557.1553589825933
 30
0.0
 10
819.2799256395831
 20
557.1010525901677
 30
0.0
 10
819.3589744555248
 20
557.0431435772845
 30
0.0
  0
LINE
  5
980
330
70
100
AcDbEntity
  8
Visible (ISO)
100
AcDbLine
 10
825.0392088895955
 20
534.491256173356
 30
0.0
 11
810.902274584984
 21
540.7276838554604
 31
0.0
  0
LINE
  5
981
330
70
100
AcDbEntity
  8
Visible (ISO)
100
AcDbLine
 10
832.5102988586952
 20
547.4650135118257
 30
0.0
 11
819.3592307558805
 21
557.0435454834531
 31
0.0
  0
ELLIPSE
  5
982
330
70
100
AcDbEntity
  8
Visible (ISO)
100
AcDbEllipse
 10
778.690839250994
 20
553.9389102715746
 30
0.0
 11
16.96709519386045
 21
-29.4638368289413
 31
0.0
210
0.0
220
0.0
230
1.0
 40
0.578093115915639
 41
0.0
 42
2.605415232662757
  0
ELLIPSE
  5
983
330
70
100
AcDbEntity
  8
Visible (ISO)
100
AcDbEllipse
 10
695.9593458521555
 20
506.2970117578787
 30
0.0
 11
-16.9670951938622
 21
29.46383682894028
 31
0.0
210
0.0
220
0.0
230
1.0
 40
0.578093115915639
 41
3.681938646623303
 42
6.344988939868564
  0
ELLIPSE
  5
984
330
70
100
AcDbEntity
  8
Visible (ISO)
100
AcDbEllipse
 10
806.2680037172734
 20
569.8195431094733
 30
0.0
 11
-15.27038567447598
 21
26.51745314604626
 31
0.0
210
0.0
220
0.0
230
1.0
 40
0.578093115915639
 41
3.668997653978286
 42
6.221381674490611
  0
ELLIPSE
  5
985
330
70
100
AcDbEntity
  8
Visible (ISO)
100
AcDbEllipse
 10
682.2414742971345
 20
498.3974149103085
 30
0.0
 11
-12.47580528960327
 21
21.66458590363331
 31
0.0
210
0.0
220
0.0
230
1.0
 40
0.578093115915639
 41
0.5863241109665136
 42
2.555268542623988
  0
ELLIPSE
  5
986
330
70
100
AcDbEntity
  8
Visible (ISO)
100
AcDbEllipse
 10
682.2414742971345
 20
498.3974149103085
 30
0.0
 11
-13.16881275384174
 21
22.86801280813664
 31
0.0
210
0.0
220
0.0
230
0.9999999999999998
 40
0.5780931159156389
 41
0.6102365894744377
 42
2.531356064116032
  0
ELLIPSE
  5
987
330
70
100
AcDbEntity
  8
Visible (ISO)
100
AcDbEllipse
 10
677.6217099933818
 20
495.737069580199
 30
0.0
 11
12.47580528960455
 21
-21.66458590363257
 31
0.0
210
0.0
220
0.0
230
0.9999999999999998
 40
0.578093115915639
 41
3.519384088508592
 42
5.905393872260797
  0
ELLIPSE
  5
988
330
70
100
AcDbEntity
  8
Visible (ISO)
100
AcDbEllipse
 10
668.3821813858762
 20
490.41637891998
 30
0.0
 11
12.47580528960456
 21
-21.66458590363257
 31
0.0
210
0.0
220
0.0
230
1.0
 40
0.578093115915639
 41
0.0
 42
6.283185307179586
  0
ELLIPSE
  5
989
330
70
100
AcDbEntity
  8
Visible (ISO)
100
AcDbEllipse
 10
668.3821813858762
 20
490.41637891998
 30
0.0
 11
15.27038567447598
 21
-26.51745314604627
 31
0.0
210
0.0
220
0.0
230
1.0
 40
0.578093115915639
 41
0.0
 42
6.283185307179586
  0
LINE
  5
98A
330
70
100
AcDbEntity
  8
Visible (ISO)
100
AcDbLine
 10
678.9922506582934
 20
535.760848586819
 30
0.0
 11
701.8821165367501
 21
548.9422456869087
 31
0.0
  0
LINE
  5
98B
330
70
100
AcDbEntity
  8
Visible (ISO)
100
AcDbLine
 10
726.8821165367464
 20
563.338788211535
 30
0.0
 11
747.8060629401328
 21
575.3880875787111
 31
0.0
  0
LINE
  5
98C
330
70
100
AcDbEntity
  8
Visible (ISO)
100
AcDbLine
 10
723.149474907635
 20
482.7202285977179
 30
0.0
 11
795.6579344448562
 21
524.4750734426344
 31
0.0
  0
LINE
  5
98D
330
70
100
AcDbEntity
  8
Visible (ISO)
100
AcDbLine
 10
815.3835456290993
 20
538.7507967745452
 30
0.0
 11
796.677561677165
 21
525.1371457318805
 31
0.0
  0
LINE
  5
98E
330
70
100
AcDbEntity
  8
Visible (ISO)
100
AcDbLine
 10
791.9735921123581
 20
596.8316051281439
 30
0.0
 11
772.8060629401295
 21
588.3673309382833
 31
0.0
  0
LINE
  5
98F
330
70
100
AcDbEntity
  8
Visible (ISO)
100
AcDbLine
 10
652.1941312023223
 20
516.3379670057047
 30
0.0
 11
677.9726234259846
 21
535.0987762975728
 31
0.0
  0
LINE
  5
990
330
70
100
AcDbEntity
  8
Visible (ISO)
100
AcDbLine
 10
682.6765929907915
 20
463.4043169013095
 30
0.0
 11
707.2646481081167
 21
474.2622651761442
 31
0.0
  0
ENDSEC
  0
SECTION
  2
OBJECTS
  0
DICTIONARY
  5
C
330
0
100
AcDbDictionary
281
     1
  3
ACAD_CIP_PREVIOUS_PRODUCT_INFO
350
991
  3
ACAD_COLOR
350
63
  3
ACAD_DETAILVIEWSTYLE
350
6A
  3
ACAD_GROUP
350
D
  3
ACAD_LAYOUT
350
62
  3
ACAD_MATERIAL
350
10
  3
ACAD_MLEADERSTYLE
350
66
  3
ACAD_MLINESTYLE
350
5F
  3
ACAD_PLOTSETTINGS
350
61
  3
ACAD_PLOTSTYLENAME
350
E
  3
ACAD_SCALELIST
350
42
  3
ACAD_SECTIONVIEWSTYLE
350
68
  3
ACAD_TABLESTYLE
350
64
  3
ACAD_VISUALSTYLE
350
29
  3
ACDB_RECOMPOSE_DATA
350
9AE
  3
AcDbVariableDictionary
350
992
  0
DICTIONARY
  5
99E
330
171
100
AcDbDictionary
280
     1
281
     1
  3
ACAD_MLATT
360
9A0
  3
ACAD_XREC_ROUNDTRIP
360
99F
  0
DICTIONARY
  5
9A3
330
174
100
AcDbDictionary
280
     1
281
     1
  3
ACAD_MLATT
360
9A5
  3
ACAD_XREC_ROUNDTRIP
360
9A4
  0
DICTIONARY
  5
9A2
330
9A1
100
AcDbDictionary
280
     1
281
     1
  0
DICTIONARY
  5
9A6
330
177
100
AcDbDictionary
280
     1
281
     1
  3
ACAD_MLATT
360
9A8
  3
ACAD_XREC_ROUNDTRIP
360
9A7
  0
DICTIONARY
  5
9AB
330
178
100
AcDbDictionary
280
     1
281
     1
  3
ACAD_MLATT
360
9AD
  3
ACAD_XREC_ROUNDTRIP
360
9AC
  0
DICTIONARY
  5
9AA
330
9A9
100
AcDbDictionary
280
     1
281
     1
  0
XRECORD
  5
991
102
{ACAD_REACTORS
330
C
102
}
330
C
100
AcDbXrecord
280
     1
300
INVPROSA
300
2015
300
INVPROSA_F_S
  0
DICTIONARY
  5
63
102
{ACAD_REACTORS
330
C
102
}
330
C
100
AcDbDictionary
281
     1
  0
DICTIONARY
  5
6A
102
{ACAD_REACTORS
330
C
102
}
330
C
100
AcDbDictionary
281
     1
  3
Imperial24
350
6B
  0
DICTIONARY
  5
D
102
{ACAD_REACTORS
330
C
102
}
330
C
100
AcDbDictionary
281
     1
  0
DICTIONARY
  5
62
102
{ACAD_REACTORS
330
C
102
}
330
C
100
AcDbDictionary
281
     1
  3
Layout1
350
6F
  3
Layout2
350
77
  3
Model
350
73
  0
DICTIONARY
  5
10
102
{ACAD_REACTORS
330
C
102
}
330
C
100
AcDbDictionary
281
     1
  3
ByBlock
350
19
  3
ByLayer
350
11
  3
Global
350
21
  0
DICTIONARY
  5
66
102
{ACAD_REACTORS
330
C
102
}
330
C
100
AcDbDictionary
281
     1
  3
Standard
350
67
  0
DICTIONARY
  5
5F
102
{ACAD_REACTORS
330
C
102
}
330
C
100
AcDbDictionary
281
     1
  3
Standard
350
60
  0
DICTIONARY
  5
61
102
{ACAD_REACTORS
330
C
102
}
330
C
100
AcDbDictionary
281
     1
  0
ACDBDICTIONARYWDFLT
  5
E
102
{ACAD_REACTORS
330
C
102
}
330
C
100
AcDbDictionary
281
     1
  3
Normal
350
F
100
AcDbDictionaryWithDefault
340
F
  0
DICTIONARY
  5
42
102
{ACAD_REACTORS
330
C
102
}
330
C
100
AcDbDictionary
281
     1
  3
A0
350
43
  3
A1
350
44
  3
A2
350
45
  3
A3
350
46
  3
A4
350
47
  3
A5
350
48
  3
A6
350
49
  3
A7
350
4A
  3
A8
350
4B
  3
A9
350
4C
  3
B0
350
4D
  3
B1
350
4E
  3
B2
350
4F
  3
B3
350
50
  3
B4
350
51
  3
B5
350
52
  3
B6
350
53
  0
DICTIONARY
  5
68
102
{ACAD_REACTORS
330
C
102
}
330
C
100
AcDbDictionary
281
     1
  3
Imperial24
350
69
  0
DICTIONARY
  5
64
102
{ACAD_REACTORS
330
C
102
}
330
C
100
AcDbDictionary
281
     1
  3
Standard
350
65
  0
DICTIONARY
  5
29
102
{ACAD_REACTORS
330
C
102
}
330
C
100
AcDbDictionary
281
     1
  3
2dWireframe
350
2F
  3
Basic
350
2E
  3
Brighten
350
35
  3
ColorChange
350
39
  3
Conceptual
350
32
  3
Dim
350
34
  3
EdgeColorOff
350
41
  3
Facepattern
350
38
  3
Flat
350
2A
  3
FlatWithEdges
350
2B
  3
Gouraud
350
2C
  3
GouraudWithEdges
350
2D
  3
Hidden
350
31
  3
JitterOff
350
3F
  3
Linepattern
350
37
  3
OverhangOff
350
40
  3
Realistic
350
33
  3
Shaded
350
3E
  3
Shaded with edges
350
3D
  3
Shades of Gray
350
3A
  3
Sketchy
350
3B
  3
Thicken
350
36
  3
Wireframe
350
30
  3
X-Ray
350
3C
  0
XRECORD
  5
9AE
102
{ACAD_REACTORS
330
C
102
}
330
C
100
AcDbXrecord
280
     1
 90
        1
330
65
330
69
330
6B
330
171
330
174
330
177
330
178
  0
DICTIONARY
  5
992
102
{ACAD_REACTORS
330
C
102
}
330
C
100
AcDbDictionary
281
     1
  3
CANNOSCALE
350
997
  3
CMLEADERSTYLE
350
994
  3
CTABLESTYLE
350
993
  3
CVIEWDETAILSTYLE
350
995
  3
CVIEWSECTIONSTYLE
350
996
  0
XRECORD
  5
9A0
102
{ACAD_REACTORS
330
99E
102
}
330
99E
100
AcDbXrecord
280
     1
 70
     4
 70
     0
 70
     0
 40
1.0
  2
PART_NUMBER
  1
Embedded Object
 10
34.22301799019188
 20
75.68699284482417
 30
0.0
 40
2.5
 41
181.6575261045072
 46
0.0
 71
     1
 72
     5
  1
492404050025
  7
Note Text (ISO)
 73
     1
 44
1.0
  0
XRECORD
  5
99F
102
{ACAD_REACTORS
330
99E
102
}
330
99E
100
AcDbXrecord
280
     1
102
ACAD_MATT_HEIGHT
140
2.5
  0
XRECORD
  5
9A5
102
{ACAD_REACTORS
330
9A3
102
}
330
9A3
100
AcDbXrecord
280
     1
 70
     4
 70
     0
 70
     1
340
9A1
 40
1.0
  2
DESCRIPTION
  1
Embedded Object
 10
34.09040614630361
 20
65.94981469493413
 30
0.0
 40
2.5
 41
50.87075514884978
 46
0.0
 71
     1
 72
     5
  1
PLASSON REDUCING TEE WITH TWO OUTLETS 50X25X25X50
  7
Note Text (ISO)
 73
     1
 44
1.0
  0
XRECORD
  5
9A4
102
{ACAD_REACTORS
330
9A3
102
}
330
9A3
100
AcDbXrecord
280
     1
102
ACAD_MATT_HEIGHT
140
2.5
  0
XRECORD
  5
9A8
102
{ACAD_REACTORS
330
9A6
102
}
330
9A6
100
AcDbXrecord
280
     1
 70
     2
 70
     0
 70
     0
 40
1.0
  2
PART_NUMBER
  1
Embedded Object
 10
855.2230179901917
 20
95.68699284482418
 30
0.0
 40
2.5
 41
181.6575261045072
 46
0.0
 71
     1
 72
     5
  1
492404050025
  7
Note Text (ISO)
 73
     1
 44
1.0
  0
XRECORD
  5
9A7
102
{ACAD_REACTORS
330
9A6
102
}
330
9A6
100
AcDbXrecord
280
     1
102
ACAD_MATT_HEIGHT
140
2.5
  0
XRECORD
  5
9AD
102
{ACAD_REACTORS
330
9AB
102
}
330
9AB
100
AcDbXrecord
280
     1
 70
     2
 70
     0
 70
     1
340
9A9
 40
1.0
  2
DESCRIPTION
  1
Embedded Object
 10
855.0904061463034
 20
85.94981469493413
 30
0.0
 40
2.5
 41
50.87075514884978
 46
0.0
 71
     1
 72
     5
  1
PLASSON REDUCING TEE WITH TWO OUTLETS 50X25X25X50
  7
Note Text (ISO)
 73
     1
 44
1.0
  0
XRECORD
  5
9AC
102
{ACAD_REACTORS
330
9AB
102
}
330
9AB
100
AcDbXrecord
280
     1
102
ACAD_MATT_HEIGHT
140
2.5
  0
ACDBDETAILVIEWSTYLE
  5
6B
102
{ACAD_XDICTIONARY
360
99C
102
}
102
{ACAD_REACTORS
330
6A
102
}
330
6A
100
AcDbModelDocViewStyle
 70
     0
  3
Imperial24
290
     0
100
AcDbDetailViewStyle
 70
     0
 71
     0
 90
        3
 71
     1
340
55
 62
   256
 40
0.24
340
0
 62
   256
 40
0.24
300

 40
0.36
280
     3
 71
     2
340
5D
 90
       25
 62
   256
 71
     3
340
55
 62
   256
 40
0.24
 90
        1
 40
0.75
 90
        1
300
%<\AcVar ViewType \f "%tc1">% %<\AcVar ViewDetailId>%\PSCALE %<\AcVar ViewScale \f "%sn">%
 71
     4
340
5D
 90
       25
 62
   256
340
5D
 90
       25
 62
   256
280
     0
  0
LAYOUT
  5
6F
102
{ACAD_REACTORS
330
62
102
}
330
62
100
AcDbPlotSettings
  1

  2

  4

  6

 40
0.0
 41
0.0
 42
0.0
 43
0.0
 44
0.0
 45
0.0
 46
0.0
 47
0.0
 48
0.0
 49
0.0
140
0.0
141
0.0
142
1.0
143
1.0
 70
   688
 72
     0
 73
     0
 74
     5
  7

 75
    16
147
1.0
 76
     0
 77
     2
 78
   300
148
0.0
149
0.0
100
AcDbLayout
  1
Layout1
 70
     1
 71
     1
 10
0.0
 20
0.0
 11
12.0
 21
9.0
 12
0.0
 22
0.0
 32
0.0
 14
0.0
 24
0.0
 34
0.0
 15
0.0
 25
0.0
 35
0.0
146
0.0
 13
0.0
 23
0.0
 33
0.0
 16
1.0
 26
0.0
 36
0.0
 17
0.0
 27
1.0
 37
0.0
 76
     0
330
6C
  0
LAYOUT
  5
77
102
{ACAD_REACTORS
330
62
102
}
330
62
100
AcDbPlotSettings
  1

  2

  4

  6

 40
0.0
 41
0.0
 42
0.0
 43
0.0
 44
0.0
 45
0.0
 46
0.0
 47
0.0
 48
0.0
 49
0.0
140
0.0
141
0.0
142
1.0
143
1.0
 70
   688
 72
     0
 73
     0
 74
     5
  7

 75
    16
147
1.0
 76
     0
 77
     2
 78
   300
148
0.0
149
0.0
100
AcDbLayout
  1
Layout2
 70
     1
 71
     2
 10
0.0
 20
0.0
 11
12.0
 21
9.0
 12
0.0
 22
0.0
 32
0.0
 14
0.0
 24
0.0
 34
0.0
 15
0.0
 25
0.0
 35
0.0
146
0.0
 13
0.0
 23
0.0
 33
0.0
 16
1.0
 26
0.0
 36
0.0
 17
0.0
 27
1.0
 37
0.0
 76
     0
330
74
  0
LAYOUT
  5
73
102
{ACAD_REACTORS
330
62
102
}
330
62
100
AcDbPlotSettings
  1

  2

  4

  6

 40
0.0
 41
0.0
 42
0.0
 43
0.0
 44
0.0
 45
0.0
 46
0.0
 47
0.0
 48
0.0
 49
0.0
140
0.0
141
0.0
142
1.0
143
1.0
 70
  1712
 72
     0
 73
     0
 74
     0
  7

 75
     0
147
1.0
 76
     0
 77
     2
 78
   300
148
0.0
149
0.0
100
AcDbLayout
  1
Model
 70
     1
 71
     0
 10
0.0
 20
0.0
 11
12.0
 21
9.0
 12
0.0
 22
0.0
 32
0.0
 14
0.0
 24
0.0
 34
0.0
 15
0.0
 25
0.0
 35
0.0
146
0.0
 13
0.0
 23
0.0
 33
0.0
 16
1.0
 26
0.0
 36
0.0
 17
0.0
 27
1.0
 37
0.0
 76
     0
330
70
  0
MATERIAL
  5
19
102
{ACAD_XDICTIONARY
360
1A
102
}
102
{ACAD_REACTORS
330
10
102
}
330
10
100
AcDbMaterial
  1
ByBlock
 72
     0
 43
0.0208333333333333
 43
0.0
 43
0.0
 43
0.0
 43
0.0
 43
0.0208333333333333
 43
0.0
 43
0.0
 43
0.0
 43
0.0
 43
1.0
 43
0.0
 43
0.0
 43
0.0
 43
0.0
 43
1.0
 77
     0
 47
0.0208333333333333
 47
0.0
 47
0.0
 47
0.0
 47
0.0
 47
0.0208333333333333
 47
0.0
 47
0.0
 47
0.0
 47
0.0
 47
1.0
 47
0.0
 47
0.0
 47
0.0
 47
0.0
 47
1.0
171
     0
 49
0.0208333333333333
 49
0.0
 49
0.0
 49
0.0
 49
0.0
 49
0.0208333333333333
 49
0.0
 49
0.0
 49
0.0
 49
0.0
 49
1.0
 49
0.0
 49
0.0
 49
0.0
 49
0.0
 49
1.0
175
     0
142
0.0208333333333333
142
0.0
142
0.0
142
0.0
142
0.0
142
0.0208333333333333
142
0.0
142
0.0
142
0.0
142
0.0
142
1.0
142
0.0
142
0.0
142
0.0
142
0.0
142
1.0
179
     0
144
0.0208333333333333
144
0.0
144
0.0
144
0.0
144
0.0
144
0.0208333333333333
144
0.0
144
0.0
144
0.0
144
0.0
144
1.0
144
0.0
144
0.0
144
0.0
144
0.0
144
1.0
147
0.0208333333333333
147
0.0
147
0.0
147
0.0
147
0.0
147
0.0208333333333333
147
0.0
147
0.0
147
0.0
147
0.0
147
1.0
147
0.0
147
0.0
147
0.0
147
0.0
147
1.0
  0
MATERIAL
  5
11
102
{ACAD_XDICTIONARY
360
12
102
}
102
{ACAD_REACTORS
330
10
102
}
330
10
100
AcDbMaterial
  1
ByLayer
 72
     0
 43
0.0208333333333333
 43
0.0
 43
0.0
 43
0.0
 43
0.0
 43
0.0208333333333333
 43
0.0
 43
0.0
 43
0.0
 43
0.0
 43
1.0
 43
0.0
 43
0.0
 43
0.0
 43
0.0
 43
1.0
 77
     0
 47
0.0208333333333333
 47
0.0
 47
0.0
 47
0.0
 47
0.0
 47
0.0208333333333333
 47
0.0
 47
0.0
 47
0.0
 47
0.0
 47
1.0
 47
0.0
 47
0.0
 47
0.0
 47
0.0
 47
1.0
171
     0
 49
0.0208333333333333
 49
0.0
 49
0.0
 49
0.0
 49
0.0
 49
0.0208333333333333
 49
0.0
 49
0.0
 49
0.0
 49
0.0
 49
1.0
 49
0.0
 49
0.0
 49
0.0
 49
0.0
 49
1.0
175
     0
142
0.0208333333333333
142
0.0
142
0.0
142
0.0
142
0.0
142
0.0208333333333333
142
0.0
142
0.0
142
0.0
142
0.0
142
1.0
142
0.0
142
0.0
142
0.0
142
0.0
142
1.0
179
     0
144
0.0208333333333333
144
0.0
144
0.0
144
0.0
144
0.0
144
0.0208333333333333
144
0.0
144
0.0
144
0.0
144
0.0
144
1.0
144
0.0
144
0.0
144
0.0
144
0.0
144
1.0
147
0.0208333333333333
147
0.0
147
0.0
147
0.0
147
0.0
147
0.0208333333333333
147
0.0
147
0.0
147
0.0
147
0.0
147
1.0
147
0.0
147
0.0
147
0.0
147
0.0
147
1.0
  0
MATERIAL
  5
21
102
{ACAD_XDICTIONARY
360
22
102
}
102
{ACAD_REACTORS
330
10
102
}
330
10
100
AcDbMaterial
  1
Global
 72
     0
 43
0.0208333333333333
 43
0.0
 43
0.0
 43
0.0
 43
0.0
 43
0.0208333333333333
 43
0.0
 43
0.0
 43
0.0
 43
0.0
 43
1.0
 43
0.0
 43
0.0
 43
0.0
 43
0.0
 43
1.0
 77
     0
 47
0.0208333333333333
 47
0.0
 47
0.0
 47
0.0
 47
0.0
 47
0.0208333333333333
 47
0.0
 47
0.0
 47
0.0
 47
0.0
 47
1.0
 47
0.0
 47
0.0
 47
0.0
 47
0.0
 47
1.0
171
     0
 49
0.0208333333333333
 49
0.0
 49
0.0
 49
0.0
 49
0.0
 49
0.0208333333333333
 49
0.0
 49
0.0
 49
0.0
 49
0.0
 49
1.0
 49
0.0
 49
0.0
 49
0.0
 49
0.0
 49
1.0
175
     0
142
0.0208333333333333
142
0.0
142
0.0
142
0.0
142
0.0
142
0.0208333333333333
142
0.0
142
0.0
142
0.0
142
0.0
142
1.0
142
0.0
142
0.0
142
0.0
142
0.0
142
1.0
179
     0
144
0.0208333333333333
144
0.0
144
0.0
144
0.0
144
0.0
144
0.0208333333333333
144
0.0
144
0.0
144
0.0
144
0.0
144
1.0
144
0.0
144
0.0
144
0.0
144
0.0
144
1.0
147
0.0208333333333333
147
0.0
147
0.0
147
0.0
147
0.0
147
0.0208333333333333
147
0.0
147
0.0
147
0.0
147
0.0
147
1.0
147
0.0
147
0.0
147
0.0
147
0.0
147
1.0
  0
MLEADERSTYLE
  5
67
102
{ACAD_REACTORS
330
66
102
}
330
66
100
AcDbMLeaderStyle
179
     2
170
     2
171
     1
172
     0
 90
        2
 40
0.0
 41
0.0
173
     1
 91
-1056964608
340
5B
 92
       -2
290
     1
 42
0.09
291
     1
 43
0.36
  3
Standard
 44
0.18
300

342
55
174
     1
178
     6
175
     1
176
     0
 93
-1056964608
 45
0.18
292
     0
297
     0
 46
0.18
 94
-1056964608
 47
1.0
 49
1.0
140
1.0
293
     1
141
0.0
294
     1
177
     0
142
1.0
295
     1
296
     0
143
0.125
271
     0
272
     9
273
     9
298
     1
  0
MLINESTYLE
  5
60
102
{ACAD_REACTORS
330
5F
102
}
330
5F
100
AcDbMlineStyle
  2
STANDARD
 70
     0
  3

 62
   256
 51
90.0
 52
90.0
 71
     2
 49
0.5
 62
   256
  6
BYLAYER
 49
-0.5
 62
   256
  6
BYLAYER
  0
ACDBPLACEHOLDER
  5
F
102
{ACAD_REACTORS
330
E
102
}
330
E
  0
SCALE
  5
43
102
{ACAD_REACTORS
330
42
102
}
330
42
100
AcDbScale
 70
     0
300
1:1
140
1.0
141
1.0
290
     1
  0
SCALE
  5
44
102
{ACAD_REACTORS
330
42
102
}
330
42
100
AcDbScale
 70
     0
300
1/128" = 1'-0"
140
0.0078125
141
12.0
290
     0
  0
SCALE
  5
45
102
{ACAD_REACTORS
330
42
102
}
330
42
100
AcDbScale
 70
     0
300
1/64" = 1'-0"
140
0.015625
141
12.0
290
     0
  0
SCALE
  5
46
102
{ACAD_REACTORS
330
42
102
}
330
42
100
AcDbScale
 70
     0
300
1/32" = 1'-0"
140
0.03125
141
12.0
290
     0
  0
SCALE
  5
47
102
{ACAD_REACTORS
330
42
102
}
330
42
100
AcDbScale
 70
     0
300
1/16" = 1'-0"
140
0.0625
141
12.0
290
     0
  0
SCALE
  5
48
102
{ACAD_REACTORS
330
42
102
}
330
42
100
AcDbScale
 70
     0
300
3/32" = 1'-0"
140
0.09375
141
12.0
290
     0
  0
SCALE
  5
49
102
{ACAD_REACTORS
330
42
102
}
330
42
100
AcDbScale
 70
     0
300
1/8" = 1'-0"
140
0.125
141
12.0
290
     0
  0
SCALE
  5
4A
102
{ACAD_REACTORS
330
42
102
}
330
42
100
AcDbScale
 70
     0
300
3/16" = 1'-0"
140
0.1875
141
12.0
290
     0
  0
SCALE
  5
4B
102
{ACAD_REACTORS
330
42
102
}
330
42
100
AcDbScale
 70
     0
300
1/4" = 1'-0"
140
0.25
141
12.0
290
     0
  0
SCALE
  5
4C
102
{ACAD_REACTORS
330
42
102
}
330
42
100
AcDbScale
 70
     0
300
3/8" = 1'-0"
140
0.375
141
12.0
290
     0
  0
SCALE
  5
4D
102
{ACAD_REACTORS
330
42
102
}
330
42
100
AcDbScale
 70
     0
300
1/2" = 1'-0"
140
0.5
141
12.0
290
     0
  0
SCALE
  5
4E
102
{ACAD_REACTORS
330
42
102
}
330
42
100
AcDbScale
 70
     0
300
3/4" = 1'-0"
140
0.75
141
12.0
290
     0
  0
SCALE
  5
4F
102
{ACAD_REACTORS
330
42
102
}
330
42
100
AcDbScale
 70
     0
300
1" = 1'-0"
140
1.0
141
12.0
290
     0
  0
SCALE
  5
50
102
{ACAD_REACTORS
330
42
102
}
330
42
100
AcDbScale
 70
     0
300
1-1/2" = 1'-0"
140
1.5
141
12.0
290
     0
  0
SCALE
  5
51
102
{ACAD_REACTORS
330
42
102
}
330
42
100
AcDbScale
 70
     0
300
3" = 1'-0"
140
3.0
141
12.0
290
     0
  0
SCALE
  5
52
102
{ACAD_REACTORS
330
42
102
}
330
42
100
AcDbScale
 70
     0
300
6" = 1'-0"
140
6.0
141
12.0
290
     0
  0
SCALE
  5
53
102
{ACAD_REACTORS
330
42
102
}
330
42
100
AcDbScale
 70
     0
300
1'-0" = 1'-0"
140
12.0
141
12.0
290
     0
  0
ACDBSECTIONVIEWSTYLE
  5
69
102
{ACAD_XDICTIONARY
360
99A
102
}
102
{ACAD_REACTORS
330
68
102
}
330
68
100
AcDbModelDocViewStyle
 70
     0
  3
Imperial24
290
     0
100
AcDbSectionViewStyle
 70
     0
 71
     0
 90
       78
 71
     1
340
55
 62
   256
 40
0.24
340
0
340
0
 62
   256
 40
0.24
300
I, O, Q, S, X, Z
 40
0.48
 90
        3
 40
0.18
 90
        1
 71
     2
340
5D
 90
       25
 62
   256
340
5D
 90
       50
 62
   256
 40
0.24
 40
0.0
 40
0.24
 71
     3
340
55
 62
   256
 40
0.24
 90
        1
 40
0.75
 90
        1
300
%<\AcVar ViewType \f "%tc1">% %<\AcVar ViewSectionStartId>%-%<\AcVar ViewSectionEndId>%\PSCALE %<\AcVar ViewScale \f "%sn">%
 71
     4
 62
   256
 62
   257
300
ANSI31
 40
1.0
 90
        0
290
     0
290
     0
 90
        6
 40
0.0
 40
1.570796326794896
 40
0.2617993877991494
 40
1.308996938995747
 40
-0.2617993877991494
 40
1.832595714594046
  0
TABLESTYLE
  5
65
102
{ACAD_XDICTIONARY
360
998
102
}
102
{ACAD_REACTORS
330
64
102
}
330
64
100
AcDbTableStyle
280
     0
  3
Standard
 70
     0
 71
     0
 40
0.06
 41
0.06
280
     0
281
     0
  7
Standard
140
0.18
170
     2
 62
     0
 63
     7
283
     0
 90
      512
 91
        0
  1

274
    -2
284
     1
 64
     0
275
    -2
285
     1
 65
     0
276
    -2
286
     1
 66
     0
277
    -2
287
     1
 67
     0
278
    -2
288
     1
 68
     0
279
    -2
289
     1
 69
     0
  7
Standard
140
0.25
170
     5
 62
     0
 63
     7
283
     0
 90
      512
 91
        0
  1

274
    -2
284
     1
 64
     0
275
    -2
285
     1
 65
     0
276
    -2
286
     1
 66
     0
277
    -2
287
     1
 67
     0
278
    -2
288
     1
 68
     0
279
    -2
289
     1
 69
     0
  7
Standard
140
0.18
170
     5
 62
     0
 63
     7
283
     0
 90
      512
 91
        0
  1

274
    -2
284
     1
 64
     0
275
    -2
285
     1
 65
     0
276
    -2
286
     1
 66
     0
277
    -2
287
     1
 67
     0
278
    -2
288
     1
 68
     0
279
    -2
289
     1
 69
     0
  0
VISUALSTYLE
  5
2F
102
{ACAD_REACTORS
330
29
102
}
330
29
100
AcDbVisualStyle
  2
2dWireframe
 70
     4
177
     3
291
     0
 70
    58
 90
        0
176
     1
 90
        2
176
     1
 90
        0
176
     1
 90
        0
176
     1
 40
0.6
176
     1
 40
30.0
176
     1
 62
     7
420
 16777215
176
     1
 90
        1
176
     1
 90
        4
176
     1
 62
     7
176
     1
 62
   257
176
     1
 90
        1
176
     1
 90
        1
176
     1
 40
1.0
176
     1
 90
        0
176
     1
 62
   257
176
     1
 40
1.0
176
     1
 90
        1
176
     1
 90
        6
176
     1
 90
        2
176
     1
 62
     7
176
     1
 90
        5
176
     1
 90
        0
176
     1
 90
        0
176
     1
290
     0
176
     1
 90
        1
176
     1
 40
0.0
176
     1
 90
        0
176
     1
290
     1
176
     1
290
     1
176
     1
290
     0
176
     1
290
     0
176
     1
290
     0
176
     1
290
     0
176
     1
290
     0
176
     1
290
     0
176
     1
290
     0
176
     1
 90
       50
176
     1
 40
0.0
176
     1
 40
1.0
176
     1
 90
        0
176
     1
 62
    18
420
        0
176
     1
 90
       50
176
     1
 90
        3
176
     1
 62
     5
420
      255
176
     1
290
     0
176
     1
 90
       50
176
     1
 90
       50
176
     1
 90
       50
176
     1
290
     0
176
     1
 90
       50
176
     1
 62
   256
176
     0
 40
1.0
176
     0
 90
        2
176
     1
  1
strokes_ogs.tif
176
     1
290
     0
176
     1
 40
1.0
176
     1
 40
1.0
176
     1
  0
VISUALSTYLE
  5
2E
102
{ACAD_REACTORS
330
29
102
}
330
29
100
AcDbVisualStyle
  2
Basic
 70
     7
177
     3
291
     1
 70
    58
 90
        1
176
     1
 90
        0
176
     1
 90
        1
176
     1
 90
        0
176
     1
 40
0.6
176
     1
 40
30.0
176
     1
 62
     7
420
 16777215
176
     1
 90
        0
176
     1
 90
        4
176
     1
 62
     7
176
     1
 62
   257
176
     1
 90
        1
176
     1
 90
        1
176
     1
 40
1.0
176
     1
 90
        8
176
     1
 62
     7
176
     1
 40
1.0
176
     1
 90
        1
176
     1
 90
        6
176
     1
 90
        2
176
     1
 62
     7
176
     1
 90
        5
176
     1
 90
        0
176
     1
 90
        0
176
     1
290
     0
176
     1
 90
        1
176
     1
 40
0.0
176
     1
 90
        0
176
     1
290
     0
176
     1
290
     1
176
     1
290
     1
176
     1
290
     0
176
     1
290
     0
176
     1
290
     0
176
     1
290
     0
176
     1
290
     0
176
     1
290
     0
176
     1
 90
       50
176
     1
 40
0.0
176
     1
 40
1.0
176
     1
 90
        0
176
     1
 62
    18
420
        0
176
     1
 90
       50
176
     1
 90
        3
176
     1
 62
     5
420
      255
176
     1
290
     0
176
     1
 90
       50
176
     1
 90
       50
176
     1
 90
       50
176
     1
290
     0
176
     1
 90
       50
176
     1
 62
   256
176
     0
 40
1.0
176
     0
 90
        2
176
     1
  1
strokes_ogs.tif
176
     1
290
     0
176
     1
 40
1.0
176
     1
 40
1.0
176
     1
  0
VISUALSTYLE
  5
35
102
{ACAD_REACTORS
330
29
102
}
330
29
100
AcDbVisualStyle
  2
Brighten
 70
    12
177
     3
291
     1
 70
    58
 90
        2
176
     1
 90
        2
176
     1
 90
        0
176
     1
 90
        0
176
     1
 40
0.6
176
     1
 40
30.0
176
     1
 62
     7
420
 16777215
176
     1
 90
        1
176
     1
 90
        4
176
     1
 62
     7
176
     1
 62
   257
176
     1
 90
        1
176
     1
 90
        1
176
     1
 40
1.0
176
     1
 90
        8
176
     1
 62
     7
176
     1
 40
1.0
176
     1
 90
        1
176
     1
 90
        6
176
     1
 90
        2
176
     1
 62
     7
176
     1
 90
        5
176
     1
 90
        0
176
     1
 90
        0
176
     1
290
     0
176
     1
 90
        1
176
     1
 40
50.0
176
     1
 90
        0
176
     1
290
     0
176
     1
290
     1
176
     1
290
     1
176
     1
290
     0
176
     1
290
     0
176
     1
290
     0
176
     1
290
     0
176
     1
290
     0
176
     1
290
     0
176
     1
 90
       50
176
     1
 40
0.0
176
     1
 40
1.0
176
     1
 90
        0
176
     1
 62
    18
420
        0
176
     1
 90
       50
176
     1
 90
        3
176
     1
 62
     5
420
      255
176
     1
290
     0
176
     1
 90
       50
176
     1
 90
       50
176
     1
 90
       50
176
     1
290
     0
176
     1
 90
       50
176
     1
 62
   256
176
     0
 40
1.0
176
     0
 90
        2
176
     1
  1
strokes_ogs.tif
176
     1
290
     0
176
     1
 40
1.0
176
     1
 40
1.0
176
     1
  0
VISUALSTYLE
  5
39
102
{ACAD_REACTORS
330
29
102
}
330
29
100
AcDbVisualStyle
  2
ColorChange
 70
    16
177
     3
291
     1
 70
    58
 90
        2
176
     1
 90
        2
176
     1
 90
        3
176
     1
 90
        0
176
     1
 40
0.6
176
     1
 40
30.0
176
     1
 62
     8
420
  8421504
176
     1
 90
        1
176
     1
 90
        4
176
     1
 62
     7
176
     1
 62
   257
176
     1
 90
        1
176
     1
 90
        1
176
     1
 40
1.0
176
     1
 90
        8
176
     1
 62
     8
420
  8421504
176
     1
 40
1.0
176
     1
 90
        1
176
     1
 90
        6
176
     1
 90
        2
176
     1
 62
     7
176
     1
 90
        5
176
     1
 90
        0
176
     1
 90
        0
176
     1
290
     0
176
     1
 90
        1
176
     1
 40
0.0
176
     1
 90
        0
176
     1
290
     0
176
     1
290
     1
176
     1
290
     1
176
     1
290
     0
176
     1
290
     0
176
     1
290
     0
176
     1
290
     0
176
     1
290
     0
176
     1
290
     0
176
     1
 90
       50
176
     1
 40
0.0
176
     1
 40
1.0
176
     1
 90
        0
176
     1
 62
    18
420
        0
176
     1
 90
       50
176
     1
 90
        3
176
     1
 62
     5
420
      255
176
     1
290
     0
176
     1
 90
       50
176
     1
 90
       50
176
     1
 90
       50
176
     1
290
     0
176
     1
 90
       50
176
     1
 62
   256
176
     0
 40
1.0
176
     0
 90
        2
176
     1
  1
strokes_ogs.tif
176
     1
290
     0
176
     1
 40
1.0
176
     1
 40
1.0
176
     1
  0
VISUALSTYLE
  5
32
102
{ACAD_REACTORS
330
29
102
}
330
29
100
AcDbVisualStyle
  2
Conceptual
 70
     9
177
     3
291
     0
 70
    58
 90
        3
176
     1
 90
        2
176
     1
 90
        0
176
     1
 90
        0
176
     1
 40
0.6
176
     1
 40
30.0
176
     1
 62
     7
420
 16777215
176
     1
 90
        2
176
     1
 90
        2
176
     1
 62
     7
176
     1
 62
   257
176
     1
 90
        1
176
     1
 90
        1
176
     1
 40
179.0
176
     1
 90
        8
176
     1
 62
     7
176
     1
 40
1.0
176
     1
 90
        1
176
     1
 90
        6
176
     1
 90
        2
176
     1
 62
     7
176
     1
 90
        3
176
     1
 90
        0
176
     1
 90
        0
176
     1
290
     0
176
     1
 90
        1
176
     1
 40
0.0
176
     1
 90
        0
176
     1
290
     0
176
     1
290
     1
176
     1
290
     1
176
     1
290
     0
176
     1
290
     0
176
     1
290
     0
176
     1
290
     0
176
     1
290
     0
176
     1
290
     0
176
     1
 90
       50
176
     1
 40
0.0
176
     1
 40
1.0
176
     1
 90
        0
176
     1
 62
    18
420
        0
176
     1
 90
       50
176
     1
 90
        3
176
     1
 62
     5
420
      255
176
     1
290
     0
176
     1
 90
       50
176
     1
 90
       50
176
     1
 90
       50
176
     1
290
     0
176
     1
 90
       50
176
     1
 62
   256
176
     0
 40
1.0
176
     0
 90
        2
176
     1
  1
strokes_ogs.tif
176
     1
290
     0
176
     1
 40
1.0
176
     1
 40
1.0
176
     1
  0
VISUALSTYLE
  5
34
102
{ACAD_REACTORS
330
29
102
}
330
29
100
AcDbVisualStyle
  2
Dim
 70
    11
177
     3
291
     1
 70
    58
 90
        2
176
     1
 90
        2
176
     1
 90
        0
176
     1
 90
        0
176
     1
 40
0.6
176
     1
 40
30.0
176
     1
 62
     7
420
 16777215
176
     1
 90
        1
176
     1
 90
        4
176
     1
 62
     7
176
     1
 62
   257
176
     1
 90
        1
176
     1
 90
        1
176
     1
 40
1.0
176
     1
 90
        8
176
     1
 62
     7
176
     1
 40
1.0
176
     1
 90
        1
176
     1
 90
        6
176
     1
 90
        2
176
     1
 62
     7
176
     1
 90
        5
176
     1
 90
        0
176
     1
 90
        0
176
     1
290
     0
176
     1
 90
        1
176
     1
 40
-50.0
176
     1
 90
        0
176
     1
290
     0
176
     1
290
     1
176
     1
290
     1
176
     1
290
     0
176
     1
290
     0
176
     1
290
     0
176
     1
290
     0
176
     1
290
     0
176
     1
290
     0
176
     1
 90
       50
176
     1
 40
0.0
176
     1
 40
1.0
176
     1
 90
        0
176
     1
 62
    18
420
        0
176
     1
 90
       50
176
     1
 90
        3
176
     1
 62
     5
420
      255
176
     1
290
     0
176
     1
 90
       50
176
     1
 90
       50
176
     1
 90
       50
176
     1
290
     0
176
     1
 90
       50
176
     1
 62
   256
176
     0
 40
1.0
176
     0
 90
        2
176
     1
  1
strokes_ogs.tif
176
     1
290
     0
176
     1
 40
1.0
176
     1
 40
1.0
176
     1
  0
VISUALSTYLE
  5
41
102
{ACAD_REACTORS
330
29
102
}
330
29
100
AcDbVisualStyle
  2
EdgeColorOff
 70
    22
177
     3
291
     1
 70
    58
 90
        2
176
     0
 90
        2
176
     0
 90
        0
176
     0
 90
        0
176
     0
 40
0.6
176
     0
 40
30.0
176
     0
 62
     7
420
 16777215
176
     0
 90
        1
176
     0
 90
        4
176
     0
 62
     7
176
     0
 62
   257
176
     0
 90
        1
176
     0
 90
        1
176
     0
 40
1.0
176
     0
 90
        8
176
     2
 62
     7
176
     0
 40
1.0
176
     0
 90
        1
176
     0
 90
        6
176
     0
 90
        2
176
     0
 62
     7
176
     0
 90
        5
176
     0
 90
        0
176
     0
 90
        0
176
     0
290
     0
176
     0
 90
        1
176
     0
 40
0.0
176
     0
 90
        0
176
     0
290
     0
176
     0
290
     1
176
     0
290
     1
176
     0
290
     0
176
     0
290
     0
176
     0
290
     0
176
     0
290
     0
176
     0
290
     0
176
     0
290
     0
176
     0
 90
       50
176
     0
 40
0.0
176
     0
 40
1.0
176
     0
 90
        0
176
     0
 62
    18
420
        0
176
     0
 90
       50
176
     0
 90
        3
176
     0
 62
     5
420
      255
176
     0
290
     0
176
     0
 90
       50
176
     0
 90
       50
176
     0
 90
       50
176
     0
290
     0
176
     0
 90
       50
176
     0
 62
   256
176
     0
 40
1.0
176
     0
 90
        2
176
     0
  1
strokes_ogs.tif
176
     0
290
     0
176
     0
 40
1.0
176
     0
 40
1.0
176
     0
  0
VISUALSTYLE
  5
38
102
{ACAD_REACTORS
330
29
102
}
330
29
100
AcDbVisualStyle
  2
Facepattern
 70
    15
177
     3
291
     1
 70
    58
 90
        2
176
     1
 90
        2
176
     1
 90
        0
176
     1
 90
        0
176
     1
 40
0.6
176
     1
 40
30.0
176
     1
 62
     7
420
 16777215
176
     1
 90
        1
176
     1
 90
        4
176
     1
 62
     7
176
     1
 62
   257
176
     1
 90
        1
176
     1
 90
        1
176
     1
 40
1.0
176
     1
 90
        8
176
     1
 62
     7
176
     1
 40
1.0
176
     1
 90
        1
176
     1
 90
        6
176
     1
 90
        2
176
     1
 62
     7
176
     1
 90
        5
176
     1
 90
        0
176
     1
 90
        0
176
     1
290
     0
176
     1
 90
        1
176
     1
 40
0.0
176
     1
 90
        0
176
     1
290
     0
176
     1
290
     1
176
     1
290
     1
176
     1
290
     0
176
     1
290
     0
176
     1
290
     0
176
     1
290
     0
176
     1
290
     0
176
     1
290
     0
176
     1
 90
       50
176
     1
 40
0.0
176
     1
 40
1.0
176
     1
 90
        0
176
     1
 62
    18
420
        0
176
     1
 90
       50
176
     1
 90
        3
176
     1
 62
     5
420
      255
176
     1
290
     0
176
     1
 90
       50
176
     1
 90
       50
176
     1
 90
       50
176
     1
290
     0
176
     1
 90
       50
176
     1
 62
   256
176
     0
 40
1.0
176
     0
 90
        2
176
     1
  1
strokes_ogs.tif
176
     1
290
     0
176
     1
 40
1.0
176
     1
 40
1.0
176
     1
  0
VISUALSTYLE
  5
2A
102
{ACAD_REACTORS
330
29
102
}
330
29
100
AcDbVisualStyle
  2
Flat
 70
     0
177
     3
291
     1
 70
    58
 90
        2
176
     1
 90
        1
176
     1
 90
        1
176
     1
 90
        2
176
     1
 40
0.6
176
     1
 40
30.0
176
     1
 62
     7
420
 16777215
176
     1
 90
        0
176
     1
 90
        0
176
     1
 62
     7
176
     1
 62
   257
176
     1
 90
        1
176
     1
 90
        1
176
     1
 40
1.0
176
     1
 90
        8
176
     1
 62
     7
176
     1
 40
1.0
176
     1
 90
        1
176
     1
 90
        6
176
     1
 90
        2
176
     1
 62
     7
176
     1
 90
        5
176
     1
 90
        0
176
     1
 90
        0
176
     1
290
     0
176
     1
 90
       13
176
     1
 40
0.0
176
     1
 90
        0
176
     1
290
     0
176
     1
290
     1
176
     1
290
     1
176
     1
290
     0
176
     1
290
     0
176
     1
290
     0
176
     1
290
     0
176
     1
290
     0
176
     1
290
     0
176
     1
 90
       50
176
     1
 40
0.0
176
     1
 40
1.0
176
     1
 90
        0
176
     1
 62
    18
420
        0
176
     1
 90
       50
176
     1
 90
        3
176
     1
 62
     5
420
      255
176
     1
290
     0
176
     1
 90
       50
176
     1
 90
       50
176
     1
 90
       50
176
     1
290
     0
176
     1
 90
       50
176
     1
 62
   256
176
     0
 40
1.0
176
     0
 90
        2
176
     1
  1
strokes_ogs.tif
176
     1
290
     0
176
     1
 40
1.0
176
     1
 40
1.0
176
     1
  0
VISUALSTYLE
  5
2B
102
{ACAD_REACTORS
330
29
102
}
330
29
100
AcDbVisualStyle
  2
FlatWithEdges
 70
     1
177
     3
291
     1
 70
    58
 90
        2
176
     1
 90
        1
176
     1
 90
        1
176
     1
 90
        2
176
     1
 40
0.6
176
     1
 40
30.0
176
     1
 62
     7
420
 16777215
176
     1
 90
        1
176
     1
 90
        0
176
     1
 62
     7
176
     1
 62
   257
176
     1
 90
        1
176
     1
 90
        1
176
     1
 40
1.0
176
     1
 90
        0
176
     1
 62
   257
176
     1
 40
1.0
176
     1
 90
        1
176
     1
 90
        6
176
     1
 90
        2
176
     1
 62
     7
176
     1
 90
        5
176
     1
 90
        0
176
     1
 90
        0
176
     1
290
     0
176
     1
 90
       13
176
     1
 40
0.0
176
     1
 90
        0
176
     1
290
     0
176
     1
290
     1
176
     1
290
     1
176
     1
290
     0
176
     1
290
     0
176
     1
290
     0
176
     1
290
     0
176
     1
290
     0
176
     1
290
     0
176
     1
 90
       50
176
     1
 40
0.0
176
     1
 40
1.0
176
     1
 90
        0
176
     1
 62
    18
420
        0
176
     1
 90
       50
176
     1
 90
        3
176
     1
 62
     5
420
      255
176
     1
290
     0
176
     1
 90
       50
176
     1
 90
       50
176
     1
 90
       50
176
     1
290
     0
176
     1
 90
       50
176
     1
 62
   256
176
     0
 40
1.0
176
     0
 90
        2
176
     1
  1
strokes_ogs.tif
176
     1
290
     0
176
     1
 40
1.0
176
     1
 40
1.0
176
     1
  0
VISUALSTYLE
  5
2C
102
{ACAD_REACTORS
330
29
102
}
330
29
100
AcDbVisualStyle
  2
Gouraud
 70
     2
177
     3
291
     1
 70
    58
 90
        2
176
     1
 90
        2
176
     1
 90
        1
176
     1
 90
        2
176
     1
 40
0.6
176
     1
 40
30.0
176
     1
 62
     7
420
 16777215
176
     1
 90
        0
176
     1
 90
        0
176
     1
 62
     7
176
     1
 62
   257
176
     1
 90
        1
176
     1
 90
        1
176
     1
 40
1.0
176
     1
 90
        0
176
     1
 62
     7
176
     1
 40
1.0
176
     1
 90
        1
176
     1
 90
        6
176
     1
 90
        2
176
     1
 62
     7
176
     1
 90
        5
176
     1
 90
        0
176
     1
 90
        0
176
     1
290
     0
176
     1
 90
       13
176
     1
 40
0.0
176
     1
 90
        0
176
     1
290
     0
176
     1
290
     1
176
     1
290
     1
176
     1
290
     0
176
     1
290
     0
176
     1
290
     0
176
     1
290
     0
176
     1
290
     0
176
     1
290
     0
176
     1
 90
       50
176
     1
 40
0.0
176
     1
 40
1.0
176
     1
 90
        0
176
     1
 62
    18
420
        0
176
     1
 90
       50
176
     1
 90
        3
176
     1
 62
     5
420
      255
176
     1
290
     0
176
     1
 90
       50
176
     1
 90
       50
176
     1
 90
       50
176
     1
290
     0
176
     1
 90
       50
176
     1
 62
   256
176
     0
 40
1.0
176
     0
 90
        2
176
     1
  1
strokes_ogs.tif
176
     1
290
     0
176
     1
 40
1.0
176
     1
 40
1.0
176
     1
  0
VISUALSTYLE
  5
2D
102
{ACAD_REACTORS
330
29
102
}
330
29
100
AcDbVisualStyle
  2
GouraudWithEdges
 70
     3
177
     3
291
     1
 70
    58
 90
        2
176
     1
 90
        2
176
     1
 90
        1
176
     1
 90
        2
176
     1
 40
0.6
176
     1
 40
30.0
176
     1
 62
     7
420
 16777215
176
     1
 90
        1
176
     1
 90
        0
176
     1
 62
     7
176
     1
 62
   257
176
     1
 90
        1
176
     1
 90
        1
176
     1
 40
1.0
176
     1
 90
        0
176
     1
 62
   257
176
     1
 40
1.0
176
     1
 90
        1
176
     1
 90
        6
176
     1
 90
        2
176
     1
 62
     7
176
     1
 90
        5
176
     1
 90
        0
176
     1
 90
        0
176
     1
290
     0
176
     1
 90
       13
176
     1
 40
0.0
176
     1
 90
        0
176
     1
290
     0
176
     1
290
     1
176
     1
290
     1
176
     1
290
     0
176
     1
290
     0
176
     1
290
     0
176
     1
290
     0
176
     1
290
     0
176
     1
290
     0
176
     1
 90
       50
176
     1
 40
0.0
176
     1
 40
1.0
176
     1
 90
        0
176
     1
 62
    18
420
        0
176
     1
 90
       50
176
     1
 90
        3
176
     1
 62
     5
420
      255
176
     1
290
     0
176
     1
 90
       50
176
     1
 90
       50
176
     1
 90
       50
176
     1
290
     0
176
     1
 90
       50
176
     1
 62
   256
176
     0
 40
1.0
176
     0
 90
        2
176
     1
  1
strokes_ogs.tif
176
     1
290
     0
176
     1
 40
1.0
176
     1
 40
1.0
176
     1
  0
VISUALSTYLE
  5
31
102
{ACAD_REACTORS
330
29
102
}
330
29
100
AcDbVisualStyle
  2
Hidden
 70
     6
177
     3
291
     0
 70
    58
 90
        1
176
     1
 90
        2
176
     1
 90
        2
176
     1
 90
        0
176
     1
 40
0.6
176
     1
 40
30.0
176
     1
 62
     7
420
 16777215
176
     1
 90
        2
176
     1
 90
        2
176
     1
 62
     7
176
     1
 62
   257
176
     1
 90
        2
176
     1
 90
        1
176
     1
 40
40.0
176
     1
 90
        0
176
     1
 62
   257
176
     1
 40
1.0
176
     1
 90
        1
176
     1
 90
        6
176
     1
 90
        2
176
     1
 62
     7
176
     1
 90
        3
176
     1
 90
        0
176
     1
 90
        0
176
     1
290
     0
176
     1
 90
        1
176
     1
 40
0.0
176
     1
 90
        0
176
     1
290
     0
176
     1
290
     1
176
     1
290
     1
176
     1
290
     0
176
     1
290
     0
176
     1
290
     0
176
     1
290
     0
176
     1
290
     0
176
     1
290
     0
176
     1
 90
       50
176
     1
 40
0.0
176
     1
 40
1.0
176
     1
 90
        0
176
     1
 62
    18
420
        0
176
     1
 90
       50
176
     1
 90
        3
176
     1
 62
     5
420
      255
176
     1
290
     0
176
     1
 90
       50
176
     1
 90
       50
176
     1
 90
       50
176
     1
290
     0
176
     1
 90
       50
176
     1
 62
   256
176
     0
 40
1.0
176
     0
 90
        2
176
     1
  1
strokes_ogs.tif
176
     1
290
     0
176
     1
 40
1.0
176
     1
 40
1.0
176
     1
  0
VISUALSTYLE
  5
3F
102
{ACAD_REACTORS
330
29
102
}
330
29
100
AcDbVisualStyle
  2
JitterOff
 70
    20
177
     3
291
     1
 70
    58
 90
        2
176
     0
 90
        2
176
     0
 90
        0
176
     0
 90
        0
176
     0
 40
0.6
176
     0
 40
30.0
176
     0
 62
     7
420
 16777215
176
     0
 90
        1
176
     0
 90
        4
176
     0
 62
     7
176
     0
 62
   257
176
     0
 90
        1
176
     0
 90
        1
176
     0
 40
1.0
176
     0
 90
       10
176
     2
 62
     7
176
     0
 40
1.0
176
     0
 90
        1
176
     0
 90
        6
176
     0
 90
        2
176
     0
 62
     7
176
     0
 90
        5
176
     0
 90
        0
176
     0
 90
        0
176
     0
290
     0
176
     0
 90
        1
176
     0
 40
0.0
176
     0
 90
        0
176
     0
290
     0
176
     0
290
     1
176
     0
290
     1
176
     0
290
     0
176
     0
290
     0
176
     0
290
     0
176
     0
290
     0
176
     0
290
     0
176
     0
290
     0
176
     0
 90
       50
176
     0
 40
0.0
176
     0
 40
1.0
176
     0
 90
        0
176
     0
 62
    18
420
        0
176
     0
 90
       50
176
     0
 90
        3
176
     0
 62
     5
420
      255
176
     0
290
     0
176
     0
 90
       50
176
     0
 90
       50
176
     0
 90
       50
176
     0
290
     0
176
     0
 90
       50
176
     0
 62
   256
176
     0
 40
1.0
176
     0
 90
        2
176
     0
  1
strokes_ogs.tif
176
     0
290
     0
176
     0
 40
1.0
176
     0
 40
1.0
176
     0
  0
VISUALSTYLE
  5
37
102
{ACAD_REACTORS
330
29
102
}
330
29
100
AcDbVisualStyle
  2
Linepattern
 70
    14
177
     3
291
     1
 70
    58
 90
        2
176
     1
 90
        2
176
     1
 90
        0
176
     1
 90
        0
176
     1
 40
0.6
176
     1
 40
30.0
176
     1
 62
     7
420
 16777215
176
     1
 90
        1
176
     1
 90
        4
176
     1
 62
     7
176
     1
 62
   257
176
     1
 90
        7
176
     1
 90
        7
176
     1
 40
1.0
176
     1
 90
        8
176
     1
 62
     7
176
     1
 40
1.0
176
     1
 90
        1
176
     1
 90
        6
176
     1
 90
        2
176
     1
 62
     7
176
     1
 90
        5
176
     1
 90
        0
176
     1
 90
        0
176
     1
290
     0
176
     1
 90
        1
176
     1
 40
0.0
176
     1
 90
        0
176
     1
290
     0
176
     1
290
     1
176
     1
290
     1
176
     1
290
     0
176
     1
290
     0
176
     1
290
     0
176
     1
290
     0
176
     1
290
     0
176
     1
290
     0
176
     1
 90
       50
176
     1
 40
0.0
176
     1
 40
1.0
176
     1
 90
        0
176
     1
 62
    18
420
        0
176
     1
 90
       50
176
     1
 90
        3
176
     1
 62
     5
420
      255
176
     1
290
     0
176
     1
 90
       50
176
     1
 90
       50
176
     1
 90
       50
176
     1
290
     0
176
     1
 90
       50
176
     1
 62
   256
176
     0
 40
1.0
176
     0
 90
        2
176
     1
  1
strokes_ogs.tif
176
     1
290
     0
176
     1
 40
1.0
176
     1
 40
1.0
176
     1
  0
VISUALSTYLE
  5
40
102
{ACAD_REACTORS
330
29
102
}
330
29
100
AcDbVisualStyle
  2
OverhangOff
 70
    21
177
     3
291
     1
 70
    58
 90
        2
176
     0
 90
        2
176
     0
 90
        0
176
     0
 90
        0
176
     0
 40
0.6
176
     0
 40
30.0
176
     0
 62
     7
420
 16777215
176
     0
 90
        1
176
     0
 90
        4
176
     0
 62
     7
176
     0
 62
   257
176
     0
 90
        1
176
     0
 90
        1
176
     0
 40
1.0
176
     0
 90
        9
176
     2
 62
     7
176
     0
 40
1.0
176
     0
 90
        1
176
     0
 90
        6
176
     0
 90
        2
176
     0
 62
     7
176
     0
 90
        5
176
     0
 90
        0
176
     0
 90
        0
176
     0
290
     0
176
     0
 90
        1
176
     0
 40
0.0
176
     0
 90
        0
176
     0
290
     0
176
     0
290
     1
176
     0
290
     1
176
     0
290
     0
176
     0
290
     0
176
     0
290
     0
176
     0
290
     0
176
     0
290
     0
176
     0
290
     0
176
     0
 90
       50
176
     0
 40
0.0
176
     0
 40
1.0
176
     0
 90
        0
176
     0
 62
    18
420
        0
176
     0
 90
       50
176
     0
 90
        3
176
     0
 62
     5
420
      255
176
     0
290
     0
176
     0
 90
       50
176
     0
 90
       50
176
     0
 90
       50
176
     0
290
     0
176
     0
 90
       50
176
     0
 62
   256
176
     0
 40
1.0
176
     0
 90
        2
176
     0
  1
strokes_ogs.tif
176
     0
290
     0
176
     0
 40
1.0
176
     0
 40
1.0
176
     0
  0
VISUALSTYLE
  5
33
102
{ACAD_REACTORS
330
29
102
}
330
29
100
AcDbVisualStyle
  2
Realistic
 70
     8
177
     3
291
     0
 70
    58
 90
        2
176
     1
 90
        3
176
     1
 90
        0
176
     1
 90
        2
176
     1
 40
0.6
176
     1
 40
30.0
176
     1
 62
     7
420
 16777215
176
     1
 90
        0
176
     1
 90
        0
176
     1
 62
     7
176
     1
 62
   257
176
     1
 90
        1
176
     1
 90
        1
176
     1
 40
1.0
176
     1
 90
        8
176
     1
 62
   257
176
     1
 40
1.0
176
     1
 90
        1
176
     1
 90
        6
176
     1
 90
        2
176
     1
 62
     7
176
     1
 90
        3
176
     1
 90
        0
176
     1
 90
        0
176
     1
290
     0
176
     1
 90
       13
176
     1
 40
0.0
176
     1
 90
        0
176
     1
290
     0
176
     1
290
     1
176
     1
290
     1
176
     1
290
     0
176
     1
290
     0
176
     1
290
     0
176
     1
290
     0
176
     1
290
     0
176
     1
290
     0
176
     1
 90
       50
176
     1
 40
0.0
176
     1
 40
1.0
176
     1
 90
        0
176
     1
 62
    18
420
        0
176
     1
 90
       50
176
     1
 90
        3
176
     1
 62
     5
420
      255
176
     1
290
     0
176
     1
 90
       50
176
     1
 90
       50
176
     1
 90
       50
176
     1
290
     0
176
     1
 90
       50
176
     1
 62
   256
176
     0
 40
1.0
176
     0
 90
        2
176
     1
  1
strokes_ogs.tif
176
     1
290
     0
176
     1
 40
1.0
176
     1
 40
1.0
176
     1
  0
VISUALSTYLE
  5
3E
102
{ACAD_REACTORS
330
29
102
}
330
29
100
AcDbVisualStyle
  2
Shaded
 70
    27
177
     3
291
     0
 70
    58
 90
        2
176
     1
 90
        2
176
     1
 90
        1
176
     1
 90
        2
176
     1
 40
0.6
176
     1
 40
30.0
176
     1
 62
     7
420
 16777215
176
     1
 90
        0
176
     1
 90
        4
176
     1
 62
     7
176
     1
 62
   257
176
     1
 90
        1
176
     1
 90
        1
176
     1
 40
1.0
176
     1
 90
        8
176
     1
 62
   257
176
     1
 40
1.0
176
     1
 90
        1
176
     1
 90
        6
176
     1
 90
        2
176
     1
 62
     8
420
  7895160
176
     1
 90
        3
176
     1
 90
        0
176
     1
 90
        0
176
     1
290
     0
176
     1
 90
        5
176
     1
 40
0.0
176
     1
 90
        0
176
     1
290
     0
176
     1
290
     1
176
     1
290
     1
176
     1
290
     0
176
     1
290
     0
176
     1
290
     0
176
     1
290
     0
176
     1
290
     0
176
     1
290
     0
176
     1
 90
       50
176
     1
 40
0.0
176
     1
 40
1.0
176
     1
 90
        0
176
     1
 62
    18
420
        0
176
     1
 90
       50
176
     1
 90
        3
176
     1
 62
     5
420
      255
176
     1
290
     0
176
     1
 90
       50
176
     1
 90
       50
176
     1
 90
       50
176
     1
290
     0
176
     1
 90
       50
176
     1
 62
   256
176
     0
 40
1.0
176
     0
 90
        2
176
     1
  1
strokes_ogs.tif
176
     1
290
     0
176
     1
 40
1.0
176
     1
 40
1.0
176
     1
  0
VISUALSTYLE
  5
3D
102
{ACAD_REACTORS
330
29
102
}
330
29
100
AcDbVisualStyle
  2
Shaded with edges
 70
    26
177
     3
291
     0
 70
    58
 90
        2
176
     1
 90
        2
176
     1
 90
        1
176
     1
 90
        2
176
     1
 40
0.6
176
     1
 40
30.0
176
     1
 62
     7
420
 16777215
176
     1
 90
        1
176
     1
 90
       10
176
     1
 62
     7
176
     1
 62
   257
176
     1
 90
        2
176
     1
 90
        1
176
     1
 40
1.0
176
     1
 90
        8
176
     1
 62
   257
176
     1
 40
1.0
176
     1
 90
        1
176
     1
 90
        6
176
     1
 90
        2
176
     1
 62
     7
176
     1
 90
        3
176
     1
 90
        0
176
     1
 90
        0
176
     1
290
     0
176
     1
 90
        5
176
     1
 40
0.0
176
     1
 90
        0
176
     1
290
     0
176
     1
290
     1
176
     1
290
     1
176
     1
290
     0
176
     1
290
     0
176
     1
290
     0
176
     1
290
     0
176
     1
290
     0
176
     1
290
     0
176
     1
 90
       50
176
     1
 40
0.0
176
     1
 40
1.0
176
     1
 90
        0
176
     1
 62
    18
420
        0
176
     1
 90
       50
176
     1
 90
        3
176
     1
 62
     5
420
      255
176
     1
290
     0
176
     1
 90
       50
176
     1
 90
       50
176
     1
 90
       50
176
     1
290
     0
176
     1
 90
       50
176
     1
 62
   256
176
     0
 40
1.0
176
     0
 90
        2
176
     1
  1
strokes_ogs.tif
176
     1
290
     0
176
     1
 40
1.0
176
     1
 40
1.0
176
     1
  0
VISUALSTYLE
  5
3A
102
{ACAD_REACTORS
330
29
102
}
330
29
100
AcDbVisualStyle
  2
Shades of Gray
 70
    23
177
     3
291
     0
 70
    58
 90
        2
176
     1
 90
        2
176
     1
 90
        3
176
     1
 90
        0
176
     1
 40
0.6
176
     1
 40
30.0
176
     1
 62
     7
420
 16777215
176
     1
 90
        2
176
     1
 90
        2
176
     1
 62
     7
176
     1
 62
     7
176
     1
 90
        1
176
     1
 90
        1
176
     1
 40
40.0
176
     1
 90
        8
176
     1
 62
     7
176
     1
 40
1.0
176
     1
 90
        1
176
     1
 90
        6
176
     1
 90
        2
176
     1
 62
     7
176
     1
 90
        3
176
     1
 90
        0
176
     1
 90
        0
176
     1
290
     0
176
     1
 90
        1
176
     1
 40
0.0
176
     1
 90
        0
176
     1
290
     0
176
     1
290
     1
176
     1
290
     1
176
     1
290
     0
176
     1
290
     0
176
     1
290
     0
176
     1
290
     0
176
     1
290
     0
176
     1
290
     0
176
     1
 90
       50
176
     1
 40
0.0
176
     1
 40
1.0
176
     1
 90
        0
176
     1
 62
    18
420
        0
176
     1
 90
       50
176
     1
 90
        3
176
     1
 62
     5
420
      255
176
     1
290
     0
176
     1
 90
       50
176
     1
 90
       50
176
     1
 90
       50
176
     1
290
     0
176
     1
 90
       50
176
     1
 62
   256
176
     0
 40
1.0
176
     0
 90
        2
176
     1
  1
strokes_ogs.tif
176
     1
290
     0
176
     1
 40
1.0
176
     1
 40
1.0
176
     1
  0
VISUALSTYLE
  5
3B
102
{ACAD_REACTORS
330
29
102
}
330
29
100
AcDbVisualStyle
  2
Sketchy
 70
    24
177
     3
291
     0
 70
    58
 90
        1
176
     1
 90
        2
176
     1
 90
        2
176
     1
 90
        0
176
     1
 40
0.6
176
     1
 40
30.0
176
     1
 62
     7
420
 16777215
176
     1
 90
        2
176
     1
 90
        2
176
     1
 62
     7
176
     1
 62
     7
176
     1
 90
        1
176
     1
 90
        1
176
     1
 40
40.0
176
     1
 90
       11
176
     1
 62
     7
176
     1
 40
1.0
176
     1
 90
        1
176
     1
 90
        6
176
     1
 90
        2
176
     1
 62
     7
176
     1
 90
        6
176
     1
 90
        0
176
     1
 90
        0
176
     1
290
     0
176
     1
 90
        1
176
     1
 40
0.0
176
     1
 90
        0
176
     1
290
     0
176
     1
290
     1
176
     1
290
     1
176
     1
290
     0
176
     1
290
     0
176
     1
290
     0
176
     1
290
     0
176
     1
290
     0
176
     1
290
     0
176
     1
 90
       50
176
     1
 40
0.0
176
     1
 40
1.0
176
     1
 90
        0
176
     1
 62
    18
420
        0
176
     1
 90
       50
176
     1
 90
        3
176
     1
 62
     5
420
      255
176
     1
290
     0
176
     1
 90
       50
176
     1
 90
       50
176
     1
 90
       50
176
     1
290
     0
176
     1
 90
       50
176
     1
 62
   256
176
     0
 40
1.0
176
     0
 90
        2
176
     1
  1
strokes_ogs.tif
176
     1
290
     0
176
     1
 40
1.0
176
     1
 40
1.0
176
     1
  0
VISUALSTYLE
  5
36
102
{ACAD_REACTORS
330
29
102
}
330
29
100
AcDbVisualStyle
  2
Thicken
 70
    13
177
     3
291
     1
 70
    58
 90
        2
176
     1
 90
        2
176
     1
 90
        0
176
     1
 90
        0
176
     1
 40
0.6
176
     1
 40
30.0
176
     1
 62
     7
420
 16777215
176
     1
 90
        1
176
     1
 90
        4
176
     1
 62
     7
176
     1
 62
   257
176
     1
 90
        1
176
     1
 90
        1
176
     1
 40
1.0
176
     1
 90
       12
176
     1
 62
     7
176
     1
 40
1.0
176
     1
 90
        1
176
     1
 90
        6
176
     1
 90
        2
176
     1
 62
     7
176
     1
 90
        5
176
     1
 90
        0
176
     1
 90
        0
176
     1
290
     0
176
     1
 90
        1
176
     1
 40
0.0
176
     1
 90
        0
176
     1
290
     0
176
     1
290
     1
176
     1
290
     1
176
     1
290
     0
176
     1
290
     0
176
     1
290
     0
176
     1
290
     0
176
     1
290
     0
176
     1
290
     0
176
     1
 90
       50
176
     1
 40
0.0
176
     1
 40
1.0
176
     1
 90
        0
176
     1
 62
    18
420
        0
176
     1
 90
       50
176
     1
 90
        3
176
     1
 62
     5
420
      255
176
     1
290
     0
176
     1
 90
       50
176
     1
 90
       50
176
     1
 90
       50
176
     1
290
     0
176
     1
 90
       50
176
     1
 62
   256
176
     0
 40
1.0
176
     0
 90
        2
176
     1
  1
strokes_ogs.tif
176
     1
290
     0
176
     1
 40
1.0
176
     1
 40
1.0
176
     1
  0
VISUALSTYLE
  5
30
102
{ACAD_REACTORS
330
29
102
}
330
29
100
AcDbVisualStyle
  2
Wireframe
 70
     5
177
     3
291
     0
 70
    58
 90
        0
176
     1
 90
        2
176
     1
 90
        0
176
     1
 90
        0
176
     1
 40
0.6
176
     1
 40
30.0
176
     1
 62
     7
420
 16777215
176
     1
 90
        1
176
     1
 90
        4
176
     1
 62
     7
176
     1
 62
   257
176
     1
 90
        1
176
     1
 90
        1
176
     1
 40
1.0
176
     1
 90
        0
176
     1
 62
   257
176
     1
 40
1.0
176
     1
 90
        1
176
     1
 90
        6
176
     1
 90
        2
176
     1
 62
     7
176
     1
 90
        3
176
     1
 90
        0
176
     1
 90
        0
176
     1
290
     0
176
     1
 90
        1
176
     1
 40
0.0
176
     1
 90
        0
176
     1
290
     0
176
     1
290
     1
176
     1
290
     1
176
     1
290
     0
176
     1
290
     0
176
     1
290
     0
176
     1
290
     0
176
     1
290
     0
176
     1
290
     0
176
     1
 90
       50
176
     1
 40
0.0
176
     1
 40
1.0
176
     1
 90
        0
176
     1
 62
    18
420
        0
176
     1
 90
       50
176
     1
 90
        3
176
     1
 62
     5
420
      255
176
     1
290
     0
176
     1
 90
       50
176
     1
 90
       50
176
     1
 90
       50
176
     1
290
     0
176
     1
 90
       50
176
     1
 62
   256
176
     0
 40
1.0
176
     0
 90
        2
176
     1
  1
strokes_ogs.tif
176
     1
290
     0
176
     1
 40
1.0
176
     1
 40
1.0
176
     1
  0
VISUALSTYLE
  5
3C
102
{ACAD_REACTORS
330
29
102
}
330
29
100
AcDbVisualStyle
  2
X-Ray
 70
    25
177
     3
291
     0
 70
    58
 90
        2
176
     1
 90
        2
176
     1
 90
        1
176
     1
 90
        1
176
     1
 40
0.5
176
     1
 40
30.0
176
     1
 62
     7
420
 16777215
176
     1
 90
        1
176
     1
 90
        0
176
     1
 62
     7
176
     1
 62
   257
176
     1
 90
        1
176
     1
 90
        1
176
     1
 40
1.0
176
     1
 90
        8
176
     1
 62
     7
176
     1
 40
1.0
176
     1
 90
        1
176
     1
 90
        6
176
     1
 90
        2
176
     1
 62
     7
176
     1
 90
        3
176
     1
 90
        0
176
     1
 90
        0
176
     1
290
     0
176
     1
 90
       13
176
     1
 40
0.0
176
     1
 90
        0
176
     1
290
     0
176
     1
290
     1
176
     1
290
     1
176
     1
290
     0
176
     1
290
     0
176
     1
290
     0
176
     1
290
     0
176
     1
290
     0
176
     1
290
     0
176
     1
 90
       50
176
     1
 40
0.0
176
     1
 40
1.0
176
     1
 90
        0
176
     1
 62
    18
420
        0
176
     1
 90
       50
176
     1
 90
        3
176
     1
 62
     5
420
      255
176
     1
290
     0
176
     1
 90
       50
176
     1
 90
       50
176
     1
 90
       50
176
     1
290
     0
176
     1
 90
       50
176
     1
 62
   256
176
     0
 40
1.0
176
     0
 90
        2
176
     1
  1
strokes_ogs.tif
176
     1
290
     0
176
     1
 40
1.0
176
     1
 40
1.0
176
     1
  0
DICTIONARYVAR
  5
997
102
{ACAD_REACTORS
330
992
102
}
330
992
100
DictionaryVariables
280
     0
  1
1:1
  0
DICTIONARYVAR
  5
994
102
{ACAD_REACTORS
330
992
102
}
330
992
100
DictionaryVariables
280
     0
  1
STANDARD
  0
DICTIONARYVAR
  5
993
102
{ACAD_REACTORS
330
992
102
}
330
992
100
DictionaryVariables
280
     0
  1
STANDARD
  0
DICTIONARYVAR
  5
995
102
{ACAD_REACTORS
330
992
102
}
330
992
100
DictionaryVariables
280
     0
  1
Imperial24
  0
DICTIONARYVAR
  5
996
102
{ACAD_REACTORS
330
992
102
}
330
992
100
DictionaryVariables
280
     0
  1
Imperial24
  0
DICTIONARY
  5
99C
330
6B
100
AcDbDictionary
280
     1
281
     1
  3
ACAD_XREC_ROUNDTRIP
360
99D
  0
DICTIONARY
  5
1A
330
19
100
AcDbDictionary
280
     1
281
     1
  3
BUMPTILE
360
1C
  3
DIFFUSETILE
360
1B
  3
OPACITYTILE
360
1F
  3
REFLECTIONTILE
360
1E
  3
REFRACTIONTILE
360
20
  3
SPECULARTILE
360
1D
  0
DICTIONARY
  5
12
330
11
100
AcDbDictionary
280
     1
281
     1
  3
BUMPTILE
360
14
  3
DIFFUSETILE
360
13
  3
FBXASSET
360
EC
  3
OPACITYTILE
360
17
  3
REFLECTIONTILE
360
16
  3
REFRACTIONTILE
360
18
  3
SPECULARTILE
360
15
  0
DICTIONARY
  5
22
330
21
100
AcDbDictionary
280
     1
281
     1
  3
BUMPTILE
360
24
  3
DIFFUSETILE
360
23
  3
OPACITYTILE
360
27
  3
REFLECTIONTILE
360
26
  3
REFRACTIONTILE
360
28
  3
SPECULARTILE
360
25
  0
DICTIONARY
  5
99A
330
69
100
AcDbDictionary
280
     1
281
     1
  3
ACAD_XREC_ROUNDTRIP
360
99B
  0
DICTIONARY
  5
998
330
65
100
AcDbDictionary
280
     1
281
     1
  3
ACAD_ROUNDTRIP_2008_TABLESTYLE_CELLSTYLEMAP
360
999
  0
XRECORD
  5
99D
102
{ACAD_REACTORS
330
99C
102
}
330
99C
100
AcDbXrecord
280
     1
102
DISPLAYNAME
  1
Imperial24
102
FLAGS
 90
        0
  0
XRECORD
  5
1C
102
{ACAD_REACTORS
330
1A
102
}
330
1A
100
AcDbXrecord
280
     1
270
     1
271
     1
  0
XRECORD
  5
1B
102
{ACAD_REACTORS
330
1A
102
}
330
1A
100
AcDbXrecord
280
     1
270
     1
271
     1
  0
XRECORD
  5
1F
102
{ACAD_REACTORS
330
1A
102
}
330
1A
100
AcDbXrecord
280
     1
270
     1
271
     1
  0
XRECORD
  5
1E
102
{ACAD_REACTORS
330
1A
102
}
330
1A
100
AcDbXrecord
280
     1
270
     1
271
     1
  0
XRECORD
  5
20
102
{ACAD_REACTORS
330
1A
102
}
330
1A
100
AcDbXrecord
280
     1
270
     1
271
     1
  0
XRECORD
  5
1D
102
{ACAD_REACTORS
330
1A
102
}
330
1A
100
AcDbXrecord
280
     1
270
     1
271
     1
  0
XRECORD
  5
14
102
{ACAD_REACTORS
330
12
102
}
330
12
100
AcDbXrecord
280
     1
270
     1
271
     1
  0
XRECORD
  5
13
102
{ACAD_REACTORS
330
12
102
}
330
12
100
AcDbXrecord
280
     1
270
     1
271
     1
  0
XRECORD
  5
EC
102
{ACAD_REACTORS
330
12
102
}
330
12
100
AcDbXrecord
280
     1
 70
     1
 90
1959938040
 71
     1
  1
E4F32BBA-9434-471D-BDCD-7C621588C71B
311
504B03041400060808005D80FF4AEA7FD96DDB000000200100004F00000046423442333142332D464336462D343639322D394536442D4136393538413739374244442F4173736574446174612F446566696E6974696F6E4974657261746F7250726F706572746965732E62696E454E3D4FC33010352C8881817FC01F302689
311
6BC708847271D30516D8589009471BC949ABD8117463E45FC3590DE2A477F7EEFB7D33C67E6623CA8E085FE4CF28AE70C0B16B9FDA0DF68E9D5005F6F76E8F63A273F398684A2DBEBBC9C7B4F6D08516BD77036EA770FE3F7AD1BB48F79CBF4C4BA784BF424817D6876F49C0C741D32751E6DE76D7772E048CB7A201094506
311
056F6AD570A94CCECD52595E29B3282B6D34582B1E316CA7B1C52096B22972808A1B59482E756639D8DA725DAB3C5B9465AD33107133F5AF83EBBCB812B38497DDB036CF3722763DFE02504B03041400060808005D80FF4ACCFAB0E530010000300200004500000046423442333142332D464336462D343639322D39453644
311
2D4136393538413739374244442F4173736574446174612F496E7374616E636550726F706572746965732E62696E6D51CD4E8340105E7F122F6AFA0886D4A41ED616584A4910E802F5017AF582B0B124059A15A3BD71ECCDE7F1EA33F8003E0217CF3A0B081A3AC9CC7CF3CDF7ED26BB3B84D0771300D1016401F50CFA2D4B
311
198FC365B862493004C2270B55A1748E0DA2124C74D9C3D4733DACBB5345D666335797E94967141655269EAF6806D6085131011DA60BEA61595727EED4758DB96F80ACBA175DDDBDBE7F8D3E6CE887C01590BF73D5618628ED5A8DD0C041838AAACAD0E9F05E04C63A5AB05706642B288F602A201BEB67D34F81EA8778C76E
311
D31ED213466F4E8FFB47F4ADE2E8D11F4D691FC3247EEB1C72F91CE4E10A531EA4118BC4260D127623C569CE78B6B95426610630CD254B36C7F759B6B6CC271E5FD42A51252B8A390BF38C6FAF5F92B53986B5653EE63C4E1F1A59BEDD30E907504B03041400060808005D80FF4A88E57597CD3F0000904100006B00000046
311
423442333142332D464336462D343639322D394536442D4136393538413739374244442F5265736F75726365732F45344633324242412D393433342D343731442D424443442D3743363231353838433731422F7468756D626E61696C2F302F67656E657269635F706E67355B773CD4FF1FBF73E71C0E67EF7576C9DEF3EC99
311
5D46C6A1EC5046649CBDF79E192942562825CE965D8A868C2842C8DE9FDFD1F7E7F138F7078FCF6B3F5FCFD7EBFDFEC41B196891913091804020321D6D7513FC77D8C5070EC3FFEE51B21F068154CC75D455CC028A3EA68992803810109FDDE5D5CEC5521B28A1B422BF80741695D5B529DA1C2D058AD2388BDA9F476F7C2C
311
ADC939304173DBF48A452BF8A700C0C70C3D121C1AA15A5270C22E2B9E28763651F7DA0D12CE11077B2ECD0D560B5E3DE2368B1E65C5E1C87384A4CC5F2D9FB8BE39E9B77C753783A37998F5CEF1B4FEE553463245C9712270880DF339E0B882A6BA713D865F6F384C842D440934EF264F4A304F8DE4EEFA1E2BF5E2D91F5A
311
DD9613D6E31DDB33ED31DB1D7916CAF091286EA3D31B9CFECB78BB0060245B943C4C040119FF780A74DD308BA9D028678674EB5504ECF284EE814DAED07440BAF649BE4B55DA2890F4D73E2D489A59EE54FDB0A85B59F2F52C4858A02705C4815A792B0C4A996A2023ECB195073E115E3E3647F64243A8338F2000BCB58DA5
311
692C7E7C3D413F963FEDF3CF00FBB0F831A9D51360FECA43819F527B89FA260EB63C5DA676830AA3626A3693B23F1A17A0DFFCE3EE164E31B5365EDF0C89EF64D8E38AB0BA9A1117D7C3A0EC44F44F4023095E80BA610DE336D0F99593A88BFC5306E72DF98F7FD132ED95878DF2964EA7E43071359FD83B2BDF9C6B5BDF76
311
8F0F3C0FC351199526F53D9460A34511F75D1B63E488178569472C91A94497807A3FD4A390C6558F26D416365C3656DE6E769DA9D8FC73774E1709812842DD8EF96AED1960F79D21B395CDDFE6F92CB4EB962A4668C76990E2EF29798C8941D67DA50F4A5F947872460F1F6FDB794E8A29FD7AC0C0D6E0714339CE258FB17A
311
E8535221E3464A10F29A0BE5EEECEFC5675926A89F49EB14E5711894F6586DB5754EB4D5DA9C6437EBA57DB97A24F8B8A8DB295FFD73266CF57E82694DF5166DDF93573AFE9C9C5EB05F8FEF8E89E0A8917B0B3724DB7BEBB53252581EFC3E38166BA131A3A5B42FE2AD00A769BBFA4458D2DE7822F8C4F63D0B8E21B285AE
311
13325F3410A435C648C9D91FDEB109E73CEDA7BC796961AF79175E1A3CE4C5E8B0D009B0C9E29EFD98BC8E97554E3D8D838424E270F7685226E5AC268E021EDE3522D583E8F20C0BDE2959EF5BBFEEDAB32FE9A3ED0E39F211A86AA9DEBFC68182EDED132AB8BB794442D2D7EA9F4D8BFF52BC4D55BB165124EE90A42D101E
311
67BBBB292FFB4F66DE5BF2300E44546757DA7CEF8932BFC9F92A0707953491A55C5A5ACEDABD9FA1AEA01BAC3DC5A24E22E7C47213493996EFBC369D086ED9397C9BA6C7F9855C7BD5E15BFC8C53DB3D2A4C5901A57ACD2FBDF4D1676E95338B2C2BCE65FDA4C64F5FEFDC7D9CA5AA1FCF11E193F2FDABF0F4916BF13FB916
311
A224380E6462A9815F2300DC49CC4DF8D055CEF76462F4B7A7ACA7365C2707891370BC1D0AA6203C44CCAB47084FEC057F27FFCD57F89B8B9852459798A675C66BD7CE572CAF71FF7E6D7ECF7BF62CAB7B3F1107DCD04DC55A3F9961700286141C94A4F771FEB2BCDA2DDEE0CB0BAE402FF1DB0100F8E475DFFFC074DDB449
311
8AB7D186A7654DDB1CB680D703D47CEB4E72F8CB13D86A4AA68116E26387B93FD6738779B34FEDB8E517EDF2BAF28D9BE93A1D3A164320E07D42E514725C29515FF361754213EDE06B079A2E99EB1CA82A02019EADEEB87B9AF005BD04BBCECB14AACD6B24EFBE482194A97DD32400685FF1FEF1544D1B14EFB1E7F08E6D2C
311
D2AF52DE757F35F5E62332EE88EA26417AD5C3E0E319D68F25414E6D672BD4522B278C57D18F0113921C71D96527E091F00CEB15AE23D24667369BD3CEFA10C7549D930890BA4366F4EBC55F01F746109F98ABCDD5A3EE06619C6AD78AB33E48E4C9BD21BF7478B385EC05C4F8987E2C1BFA0A60EBEDAA0AE0B015C2720ECE
311
180FB6F2DEFBEB822D96338C9B63822183BBF52FB664A7AE57003AABCE512BF77E7E31BDA2E739AC4C131657DDFE5225E900FB56CC01CDE808FA4A9C9DA16AC679656BB64796283D89812B8F91136AE18EE5EBBAF47A73BE3C153EB5D4CD491B4BFB4FE690A4CF9ABA08C0D8AA64220C438C96EA6CA80B58FE5761E697B3A2
311
92EB9FBDA502FA863E49FE694ADDFFF9D62C520BDD1A22014147A0903A05B9B729F54272EF83931FEEC057BFF8C8055C279EAC5C0011804828734024F6CFA319C9CC6867C727184465CD9BB7ED386AFFD96B294A85E3802FAE47244602D8273615952B98C4F23F7EAE4463D9D638EEE374A20959E0FE519C4CFB0FBFE5DD80
311
C2AA3F9DB961D1BDE57E67C9BB47B77FDD74EE3094F5DBBE3EBC1FBDB7393F5116263009E2EFE1AF9A221B2AE234C902BF70E9F280ED23E73908361565964333A3F01D0B006AF32FB21AA1316744B489D5A198E85299241735BE559675130955C902A8ED761FC0DBE337A9F91919AF5CE32AF902ADF9AB2615E00E8A94586B
311
A1A90839B61832FF1BFB76D2EFADE6DB1BA04CCAD3DA649E7E2A0219F592E22F2AD54847EEA8E42271011E9074F8F3DD9FBA6CDF88FFC9FC7E811AD1CA8F4557CE4AFC7BBEDCF0114A48689F20A584520C74DA8127124B767E2FB91A6B186246727BE63C9445BAE02088D58B8EFDC0F1072407CD9B89A13F6303B4A928F593
311
AD489B58E6869325790ADC406036C591729FE14021F94B7796BB11848D463536A092A26F077F94639F7CEEE2A724C66EC885F4A24F8B8A0AC321F8FD149BA529460FAA34E4663C02D41FDF80BCA222D42F0ABFF8490F4FA74C673807C2051D8E467B47B616072860069A9A303ABA9B319D58404461401B0A0F9BE5E1E151C1
311
4BC33B32ABE03DDE91708DFAEB15E7C0D593C86BB7D7EC17BE56E57975F077BFD5525F3A1A361D584A75E08CF29FC7B44B2B3085014F3A5A14517377C3F6B8F37E59514C3B12F8AACDEDDA4DFC49BE5710101534CD6FB6DE15B50F11A09472AABA727F0C49D9CB906B158030065F48EB3625E010CEC1D511D0053474B11E6A
311
4F01C0D6EF1BED3A944FDEC70E0DDCDC756C86545910E0DAE3BE3AA9A404574C2995CD5CAF9549226BC94B4F4F0F5F9086F418F6B32346464610D8BC7391D3C3A3CCF04CFC1FB2A3A3170E369511868F14EEA4E5E438CC73DB1F3248AA94B6B2FF33B222FF3D1E7BF146CAD229770158063BCE4F5391964DF62F7E52A7BE0E
311
EA829C9E13C4C147D6F93FE59E111DAB5E4594D6F3CD1AD375EE039930EFE5AF2BB2D41C83C7DABD8C659BAFBE8FAB392CA634F3D15C1D945DB4588D2B0824A4EC928AAC565557CA2F0DAA588CA5BE30B3A8004F7BF005E96CBF891D7F18112A3619FDF530DC8AA64954258E1811789B5189B49B4EB53F5F89F7D37523894F
311
3EB57B373763C91E502F52CC99EB7BDDF933FC324C4FFC2561DFFA7339FAFDD0A4BFBE6D3A8FF9ED1FC49898139864602458968913181918F719CCF5A68B2EE9C1FF050E34E63107003B8120FA982C21B30A874E4F5E4B38D5A8290C4B8D9BE48A0BE31EA995BDC37AC6DE90BA17D259DEF53605D55922FEB1855D915B659F
311
BEB350EE0DFB2F9F766E1C84CC8964B75D08667445EAB966015F63A18A9E0A325C1B3DC628C0D3CB60F767FA93CC65F25458BD23C3B312716E5F40E5858AC06EBA9AB14F95DB99147B832069201541D09A0D856E12C629CF32683760EE855537D1901988D5EBC156676C7DD51D7207CF3267AF1D76C2AD867315E446180153
311
13A98B19941C696FED3461CAA9B5415F918556D7802EDACEFD6B2E45853A9735DFC9DBF7E440F9319F8B6805A973BCCDC76C069A9144E51F187EDCC12FC31B5DEAAF0A76137199B106EC84ADA6B6EE697D4E6A96E007417F4E880E8B1E89B4BCE9D81EF611E2ED8F0C1A6C25F620FAFAAB656A7C42D464880E8AFAB0E0FC8E
311
A38CA9A8AEEAEE3E4648BA4680270A89743CDD3E6C6CBF34B7B640EFA285ABC7EA0A1E28F3CC963D114A80123EE66D0AF7D5380EB41909B605AB4765B709B808590458157E69BA1378FEC4B48CAF6A730E3BE3C5EF2DD1A5EAF94B1DDE50CEB55DDFD7EE9A16747FA4B223359FB1FCC69E1194892BABB93A1D5C4E807AC0EA
311
2E30180811E77A2291F6E7F7FAA5E0F60215BC6024E48DE436C511F0628B8CA189982D4D83CCA17D305A7E923C37941CFDFDCD93ACAF735EF5F0E61BBD3E6C41A59B242790D3A3BAC7064DCD89AA2E37214EC839820949D5CAA31E240D2948E48F690298974A96BA9A8432BC90F5071D6537C9666EA4564796B7AFFFA54807
311
7BEEA75F63083435074BA182F3699557397F71548383FDA8CA34D99B981E72835ECDA5DDDC151315173D05A21F651AAF8524E88209E2E7A737ED1045800CE3390050BCFB8BE588DF111617874C62575039CA588EEFDEFEFE319B739DE2EDC147092A262611E159650E787917885EF08F1F51B8F2D8A71D60B58B190FEF9541
311
A1BE94BC19FEA50784DA1419FE4B0FB51B8D36B5FF8E1286FD8AF42B91E59A5F1CC4D60174E764045FD8C57B18209B217F89A62252BD20BE0E63E12B8E8F029FE19E0E8D0870F58721A557082250D5424F7909369376E41666C0EE77CD87CB283F661D5FB6D0DA023CB67320A20DC7BE661E9E1BFE5463085C557DA1FF9BE8
311
35733766C3D139F2CF9E2208873AD0EB4814DE9E6BF2CAF81614D4D43906ED1C05A3265CABBFE192770FC2F64F940CB6B17B5F166F133C9AEEAD2641807C3E69515171DD74C4A85311513D6EC9530B3B601B6BA3EBFF3B5C3D2F7D69765141E345F75433953D013ADDF8F6AA7DC3F4A7563FE5C7D367937E2900D7EAD0F9FC
311
9A4A1A9B5BDF1FEF08532660C01C5D6DE22199AA774383E306DAB87E301ABB7D213887F9869D4942D0D71E94B27EDF216A318BD488D45DF84529EF575AF3C3938C0AAA0215B01994153E2054A0B894DA5C784980633AAD48576957CF4AEAEAFADC7C587368551C73DBE1E57C58AC713303A8BFC258BD04B51724459FF9E24C
311
03A81E0E0679CEB9B348C0DC998FEB9C6D6EFA77D247CC8F92D3848599ED89A23218D0636465AD1CEEB7DC140D7426F83491C4E8E8281C2FB35240918FFECE880CA2A42D70E8B20B34DF5221C7DB0CF90ECCB9C745B37A47E9B716FF7A97B7A252C1F3814DC7B1E1A7F72B8751D524EF7CAE45B0C73B3BE7D08ED39781B380
311
DDFC9AA4A4749C9493DB5BAD07A6EA6C092FBD0E85DB004DF06B8C9D3089C5320187E4CE1846158C7EA7DDAE8AD9AFFF21AA3A1026BB06A259845E8232DEE62811A4DA9CEAB3A4887320B76E2AE5615EAB7BDF738CBDD01F1E64064BC13D9EC53576751CA8CACD58B3CEB0E6CA585BD089B2A59B9FC101403387AADBDBE705
311
86B93D64BF3AD4453EF9C3B6A93817E8346991798601344F79A83C51F3D50F7BF2683A3605F51A72449489E0EE6169C749C60B1035651103AEE24D24E51A759C840DD3FC6504DA6FE107510E447B43461C79D22970B75DE5E1BD3007D1AFC619A4A4A69B5626AF5E9B8374E20677F77E2F8E73DF868E8BEC7EBA7B6A75EEF7
311
205E1AB9486CB642741D6E03FF13FCCEDB1C4AC129886268B01CDF4B124AF797CF784F3C6DEC97A17D4B558070A0F1C04DA4FF9BDBF34159AEFE958479824B3F58EBD1E19088A2AFDE501B6F2052368A3FD0E650A179EFAB1561E1D27527077136E652676C3670F42DCB3352F48F6BC86D2C3B0051727E41A0A4DC6CE2BE9D
311
47F5CAA2935A3C0539AF080665997194ABECD723B08129CC5B6B21D2E7D54CD4D12610E7E9FB8306771A89576C7A982002775ED44F3F744CF21EEBB27A631671D921938AAEE3EB0D19CD1E083727F607823E817BF599DCED5394E37EEBC2E88782E638920CA641EF74D4CDFCDEF06F4278ECB18E31E7E9876F2D783C8BF429
311
C75395F57E98C2B495A3DA077EB3AC3C158608B6B57FE3EA48484D9A480096FCEE0DE880950E7E5A5714131C5C41AAA29FD19AE81AC145FA1B9E85C7169A5AB837B213493DF7E9AA4B5FBF9CDEB36EBD21EF1181B7CF7366AB2A951D01E37AF4EB835D1BE8C117CFBE7625D2EBCDB0B20C5A4B45CED0BCDE3EE8DA9DA78C2E
311
21DEAAFFD1197E463C33CC6A80FB785669B856EFF7A8CCCA2841B5A5369173320B1170C368B2748D81062EA0296E5E2D95D7667A4A46D98A6FF475C76AAB0A8C8D45E226FAFC9FE0133EA9F60111F99CA81ACE03A1D14C89E8B0D69079C91464FA1D99E651D0EAF606F345C42A8A1AA9BA391031582B96D5B4176A77AADB01
311
F12FD298A75DEEBB2C82F0B8650E880722F8DDD90C56A7A058E5FDEF1AC93545BA27367C76F5D8F9690CB6F8DAE141EDD7971F0FB548A2AE435F224D6E5954CA155512F7332029D5A1230854B79F258EC5FFDB09F5F6343A8EB193229B7F7E79B3E48F8E183860B38C8269D1B53738FF1E0BACF6AADA6D4869E9DE708E79B5
311
DADCC09B1BC76F649731CFAF59A83FD8BAE4C749D66FA87A3810D4D62FFE826FA400C0F325D2BC0F3CA35F5847B82A2ACC7961745C823E4D863D54460AF792CE6F79B5C7A33B25C3AEA6CDE15A919B6367D781E9D44F61BF828672594A3E1D9EDD6DF179A81F27EAC05B936575D73E05C209DDD2115CFB705DF9BBF3C91158
311
9B3640735E9E618FC9C36A7326C82B2205E244C55D56FDB9D5DC93CE958D4BF8174D2B3DA54CB3C09F2C2A6DFF73D23B2197355761AD421EC581284A7EF8DE2CE3497C0C804D49B41DFD6A7360844E5BEFFB495CFCDB97A4595911CDBA623274CE852B5E278AF0BEB1770E9D37CD977B2766A7DED0E94B840E1E95E8C77DE5
311
CB6354AF7871427C28ADBEEF7BA0A28E19DE9ACD75F379FE373EAE6DDDAE3834692F9C2B03B4FCA8FCA9ABE8EEEBEBB725B88A7C90941E850682CA04061A7DF0CE82ED49BFAFFD42C309818FAE14755CAAE78B0F73243ECCCAD7DF58FCB9CDFAE7A4D3E6671A613639130D056C8383C8F4FCF4808C331E544DD26E4755D09E
311
A05253B3049A1E32587CC25D72E073E2CD96D04A71BBCB0038FEC3F53D254199C3CDC67CD66640269431860225392B2CB3ECD0B4498AAE78BA1994246AE1EE78F2EDFB79F6C6CB6B5E279C4D373FBC21CB2698C9ACBBEB6A4BB6B39E16AB0E421CCBFC7654D81ED86022F9BB522146F9F4772E2D0E4FA70120C95A85A417BF
311
5078B232F4754363EB1750B2AC2148EB46B1EA72AD9B4D23ADCBC589D70106C3EC2ABEEED84DFE28E718C6C83502C28E9FDD3B09DA0A6F6F7B72B706A31C9E2A331EE70DA56A083D2177BFD63C55B11D8D949FAFCF90B23A1E24B9B5018B9A17E99F2890EC302F330FE7936E2C23F0D237EC8916F5166AB84B62A21BB0B950
311
146962D754F92CC2C8877BED8FC7B7B25726DD19545392570B3A2C66B58F027BEF412E552D12A588C4A3CC5C3193FCB3485EFFF700D0B9EEC077754A33DC1FB9E25AF814628F91DDFECB667D3F7690803F38D13F8AE39353523BB08FC6760144AFA2CE28236F65EDBB3D5F59A57D612B99E3D7E5F8A851666BF9B5A6658EFC
311
96EEB37A378ABB0EB3FDDF1303AF32C41BD1C8560745D7BD81066B0D6313359CF488563D3BA3F8E2185D1FAA3EBA1397C9D0E3DD232180A4DCADB6AF25DB3AC3CC26589C8239E66E81547BC7E2F328F9884764CA37EB5DBE390DFC03A5246B456A7C3684C4377D0EEF9A350680FA9A077E8B2957B489E09AB1AD41316944C2
311
254B5984830F691C93CAA767EECF976FA5647538830B5E63236A6F0365C1E0F3E327F24FE35EDDBD7360B0F7374837409F7A6311BECC12B7026D4FA1AE204FA3F5FE904B1F420C7A9044AE58E403E7C4848E7DA25DC9EDAC79DD756FAA26B9EA83ACE8A214A2612A22AFA19DAE7DBAC5F8CDE1292A485F98DAC731A29FE01A
311
3966E96BCB9FB5A4C8830E1B9AF0C54B87FBE221A097036E5D28D1F869F810C06A9BB0AC0612F69AEBAF893C6E7AD59460208BAB3A6B09CA4F6BDDAB8CF0D1F84B72487498395A70DCD754796E271099A567A55CF242BBED64696378BB6CF25EF0FCDB589F3A82F1116D010A9AB9FA4358809EE0C973A2B4229BAA876A70B0
311
3AB49CBA7FBE71DB1832FFD32F9BF2C8E98075CACAFB36921235D0F552B6A67E94E094097A5D7DF681B40623DA535ADA7A9AD8E9A62407D7C9A5AE51D62A17A83A23728DE86BB56115804D3F2675F2C6B87541A0FC497BF0CA86420F558C9859EBE9FAD62747E323E3AADC03FDCDDFE7407B09DA90B44E3185723C5381EAEF
311
589765E2F7A099BA46695BAD60CEF3491B8A171F5F56444F7CE9455312C3498C74173AEA0214EC029833B34B650CBB5A5508D5091665309642791708ECF27CF11DB3D797D6CFE474453BD4BFADB768094B2147814D81C7CBAF8228DCAF5564B5891F5EF6A860EB2E323CB82AB868D8EA048880D63B0DE5341F1B3D53297B92
311
8A11E15F25E5148990F710747C3509ED14909C552EBE3973246FCE55D00564D8310BC3EBC5085D08D806799B77D6C57FDF5E55837F9E934F09C03C729271B64F12D0A9F9E938107CAF7BF1EC8CF1BB9B42363D33070F4CACB425E605DDB0A34A12BB936DE286B9887A4E2E558F0886498BFF49C311D96C277CF6A9FC0D75AD
311
0ECC5226D7E0E3572012E56D7FDE4410CEC7A6D0F997F225A2055B8B92E3956E875AE4993CB3D4C9063AF98FD45E1BAB165640A43439A2C9181A7C355B297C0A0CCFFAE19B6FA3C2BA238A885FBC98B8F6DAF4B94B97304878DF4D8BFF6A4AEDF79E90ED4E68F00CD7299F4E0D83E35601AF0CBEF18C1E870E74758FA91F51
311
31075004DB3CFCF09AE1DABC11957FD9808C92E8A678CE9DBE40DDA0E0D1D505AAFBCBA208232BFB6FB3704E8985E61ADE53DE74152F5C7DE74B1DEDCD37DC3E8FB30D7EBA8B9EFFC3606BF90B8D438279CB7709FC7C00D327F41817EEA71CD9E49FE9C8C9A81C70915D9F0F15958EC5AA4C3BBFAF46986B90F188BDB24B89
311
DE3C6F29EC3E6F66D84856EE96A35E657CA41B41EFD8DBFA16AD6E91439EA92B40B21C053249F51AE50EB0B24C770FFAF40DF12C8436366819C48E36547D4E7B72FE2BBF10828583057814A668BDF183F6B2E58DFB151103E56303E63D00F39C27C4661605DB644D19175D02E3F0241E8FC3458D17AAAADB117CE9EEA690D0
311
DB01E634878C04C2C9310B69FCAB831151E3AD293BEF6E46B0ABCECB50F5939B39C613D41E81FAE8D34CAE3C4566B761D37185FE864AC32FCB71AEF39DAA5BAB88609BB980CD2F07A8F941653B529567726E2B2A58D079DD57E1E5E31426CF184A04D7B03B985F276D47406AF276FE32E3328BA866EB1FD39BEF57863A3176
311
34AA5FE467409B3873F5069EF0D71AF00AD189D17BA1974ECDB2D623E9E14086386A6AAB5807825C37B015BFE892AFD154920EC437EB945D958E18622E1E0FE2FA06557CE4BB9BBD05A2D40E774DA2B65473791E314B7D6C886820B2FCFE4AA272B3B8B15E7344A145E8AF919B5454D89D36D413E87211186BF6F645E5EC94
311
DCCE8E1C799022E4EC9BC86D7A0F2AFB1FC4B2CE48F84B3F49ECE65BAD24CADCC07EFF39AB06BE9E6B27A059938EA7208838455383DDBCFCD967DDE4650EF92A14FF933C975DB20BD7FEEBC4487576485963D757D16340D9599FEB362F775F38CA4185A86F74B629C81B133644A3B18FD056E997E0734F9BE26D11C0AAFC66
311
9E2AC9FC41D281F8B2E1C35AE27BCE05F3DA295488096688719D974DF1B5D182DB7792288697F8763CFB43562C1CDEE11C4AABD5C22B6E33F6F389CFC3477C5919DC0D533F8A7A1846B7ADB60ABDC26C43D0CFC8910B7C15EE22675BD02702ED39DB77A87A192CA7A543E6205B979B9F5A6B512A3CA799E198B2D5797C0AF8
311
D1D872CA455D4D431A7879D4DD76110B5FF7F4176B54477A9EB5E4A5D11214FDA585F0382751D8E2582BA5D2075053298FEB8F1537304E32CB22C2E2B693DC0A760B1DFCA751BDC445AFDCBB12820ED85F6D5298933C7EF1211E9E057684056CDA3FEF3BB6052355E162DF27C59E965A8DDB7F9437EB72CDDA3A090DE65A5B
311
2F50326247B7EC67B73ACC7047FC9B353D6EE990F772207C6EC52B39DC2F3C0754821DAB559F7C1809C7D0DD5B0499D0442E0A6E391B3D5DB46D11E731E6794EC77523FBDAA242ED67F9FA1FB684255671F63C9BCFE6E7E896D51001A6113EF2298BA494E0B0980D1FA5B9D60796554C02256B1E0345FB7C6186B6A19D2DCA
311
270416262845FA4F42DB5D9B0A0B6F07FCA2E56C242522E001E0CEB734AF310FC8BFB57E38E03AACE93B3326A2197891E68452B26A6307FDABFEE0223D3C03C3C73D2D5BC054C8311F12004CAE488E5C29287F8156A2CAA4AD0D7BE6B97264E4139F437CE73ADF52E5134C52B819777C18B323A5924E4F67AFD13B1CDC3A61
311
793A79FAF5C0CEB718E441071E797C6DCCB9EFCF7E4A1E9F3DF3C2F9C9E8294E9586868788C972857FB0556D7A26941A7EEB9B580AD78EC40B85DC906B4120A563CA3B87797ED612D3B035962BB75F6515A393F4CB057F564CDF54F2E5A024514E6A1F901DB80C7E70B1FC05E356A7E72FABF4775B3E3FB8F70A2A8E7B6A94
311
542BB304157978CCC999E707A29CC795E67A59CC546A5D47B368954CA7B6E75EC9E1F6FC73CE3B4F71F8CB1A6B15923D61EAAEB14626AAA9D04A26EB9C66CD1BE86CA31A5D8703DE04CD1EBCE4F5CCB62F93909AD11E55799A781A956ED27D3E738F4538CB04ADABC7DAEF20BC35BA6A90BCC1DC61BA05F20D8832FFB9BC9B
311
15E2DB838A0AFBB7E0C82A562127E0446894F427794C3037186F622BF24DE1B00AA10A23BFA47B2A180D6DA5AD6F7326FEB8C100C2D7142EB2A0B2A9D1008A09BA343D70E054AB69E2A7EDB783CBD92537FAF4A44D1296AC2792729104B3276C276C951D0CF3CF3F1E6B017720A7B8505A5FF9589365979678C36F1BAF759E
311
AF57C60F1FF5FE9DCF5F8E764FF25A2D06CF25117A8FED51884C13B2B750DB0E4F5E3D64124FCF11F0AD8F1CC3B3DA4B38ED22BF1CB2585EE6BFEBBA63FBFD44F9537B9B37BDD6B358720F98A8125AED4349CCFEB0E135F19E208A04CA7E2B10711185D72E381F448036EF57C9F874E54A971CA37A639E986AC0226DC5AA00
311
D5B14FEA9192234B3DE617814FC221C92F33F1D392F297731B567FD98FD91D989379AF567A65B8ADF177591DB90FBEA99BF4ED11B16E50A0AB1DBF1156D034BBE04D69D08F939D8E92BF525A1DDAFF80ECBC95D8F45D3FDD289FD23F7D8B452F8EBB34EC082DEEE68E18EDDF072060FAD2AB1504DD4879BF67099FC58F6E9D
311
EFBF645D16334A3E9A127C6F1AF6132CF287E433B43A0EE93812B4AA0B194E03EE3FF91EF9C6ED0074A2F6EB18A96A7C9890B1FCDA1F2095E944DB911ED54C60DF16FB74C8CE9BDC7C54C4F14078CF73C2FFF1F1BBCCD7CF64F71407EA1683DBC410D226627F66E509060D5C0AFD611DE681D509DB8DD12FB1265B03C6F5C5
311
5FF4C30BD94187FF692B4F152982502F193098A789526A038AB529A52BC0DC4FB6285CBAC10A8B8DB75DCD9BDABBB221E27D1F8DA9F5EE5926A1C8AA9BA9BC09239C6A7F12914EA3B59EFF7AAEC3FFCCE56F1C5C2980AD072793527565E774F4631DB178CEEC691B1F367BEA0CF2907E1D6B854D527065979DDEF002D8B2AC
311
EA7CE21AE297737EDE1D45B31233B73FEA35BCFDD0B09721FDBAF6432681F2FD10C3E9EFB246FD6E854B344ACC9D8A0EEF876A7314B49B6A499FC650B099D650DBFEC7638ADFD245E2B7839DA5AC5F7D5623FC0ECEEC8653FC9B2BDD1AD4D00A566FBA7186DD3C9CD26512551637498CADB950FEC71ADB9A5524285DE328B8
311
EC7EC75D2345AEC6A27C42AF6D9B92155315C80DBFCABBB7DA0FAE425C4FB896B15C9BFAC4FE67DF5A23D30C93DA4D8F36FB15D100050DA6062E22AEC5F4DAC4F6FEEF97AE05DE63C6D38F9E068A20BC5E3B6BCD75320C5090924E7F93640A7735B1A43451C2D91EE62C6238B797349E59890AF3A520DF4A87095F3ABEC2E6
311
1F0593416CE46CDCBE0E00E2523FCCD04408588B5B6C9DB6459C786CE378770B54F51DA3A5E1DF2A3349BEAAC234A6CF8993B598B3B25B4B113E353A4D750FA7534749430F3EBF2512E7EA3FD43C6AB9A1F765A58463B306721A15D224FAFE8C6F5E3432D57EE697DA0DD5A9D4866A8BCCAAA9DFF1F06047851408FEC06047
311
1D0E3EB86BFAF46E4B5E60311DC3E3CEA147C75CF971BE74689507154FF2D2E92F15CDB2B9182B11459FD8ACAC5A85F174BC94A7F4EE4C4F5CAFA7C02E37BF0BC77B7DCD0C047BC316F562A01A441AFA7931CC84A28CB9F4AA367EB515778F29BFE61195FA671F4352E5E46E3A64773F1F76EE5EB36D7BCE9BCEAD837A4D77
311
F8DB8C92AEEF6711920D7C7D0F76B0FD0EB7AB83724CD35BCA7D36DDDF5FBB7FF6F04A91F3E2BB3B8F1A43CD659639507FF6331C5F697BCC782AE57D757A27D97F1AB9E0AEDB43F92F1B2AACDF5FEC8ADBAF9F814E2027003BA2F9E144B1938A7A04050AE5D953B82C45619165C813A10E76DD6906B3C16438064D14CDA713
311
AEC420034613E1AC7241904A49FBF87409AFB1FCB9B72FE7933A87D8FBEDACECE4EDCF6A4FE9FB94D5DEB74FAB7CFEAE17EE965DF980DCCA2D04134994F9A2E94D2265DA4FE6AA7B7AC15FACAC2B5ABBCD7DFF542C5314FDAB2E1B9D8B65220B8E2B638BE008E8DCA22678C820C5053664D15E89F2D735B51A84955E81A443
311
545E9FF787BE0FA700A76D136C27DA179A7C6E8939E01BE756E19CB292798063D8B97F44E8A27BCF3A614FEB8BE974A718E86F7EC99B53CA35FA24F61F2B07266684623A3D4CF073E511F3A10A8FDAFAF0078C577F4DF9D339FE7862E5FA47CF4344209E5BF76D783B1B48E152AD281B15FCB934DCDA49CEC5706B1EE8B460
311
F435324A5CAD154725E21AB8044B75A557A79F6C807B9340AA3D92503E866F4274412926C8C504E4D5EF8C0E68DD0B028781A6B4054F11CF18941F101C57CCC796773ABC8DED9CD91FE5788806C05E548895354AEAC96546D55B0E94A59F148D061F42AA398D822CDECA4CDE79E13469BDCC44FDC990F366BA5978C15F97ED
311
80CBFD73B0CD9B8B83A4F6845BDFBFAF034019473FB9A63BD55D3A4A7284757071574029A4D016DCCBE95DD679EF3C4880BF169422F8C89B68A988D2B13793CAED4F74DE7486C72DC94DF46B8E93D8E02EFCB1FF9B3BA10C8AE7F653DF94F4AF466CDDCEF5776687F7C4C14B63E4EED1719DC2EC482D7DBCC7AE518CDE3D5F
311
F86D39000EC3673C0044E1D308BF05F74D1B5F033A7D1BE7F74BC55BBE3E4A20F920946CA0271EB17BD2B80E5660ACB8A29A79F5E4BBA49D4D945B6EEF4A7EFEAA65E5555BBB57A7E15D2F83C69F30BBB978D2B39F1F26FC097424D39BB33CA3D87ABF64E307938B685BAD44F71556A30B7E712CA4FE600613C3E554B69ADE
311
949A7CFE214DF1FFF05CB82151EC6FC31950239F94CF7AD39DC473F6EA356E5EC2C4EFA04383CEFE985A127484366FBEE3C0EC4FEA363E4F6632AE781392FD45D67B63FB8DF70E82734F431FD3443172A0E30A83D60982D55FA6A2CF86DBA8382502ACC6CDEF3B907982EED1160E14863FA242F9757347E1544275CCDCF71E
311
CD5F8621CBEA326B8BA884AD7F825781923E66971F04010D574C541D8427A438A37EEF8AF88240EED7362C953F5A81DE2D56109CDE2524EA0F5D2F87308C0C47BD97AD605878AB8589E17CA83930CB5E0DCCD75853D68B1AB136594926DE426C367428E9334AFAFF90ECE221BB5DC9E5BB53D2CDEF954EAA9CD814F0E5725F
311
1965DD458E5F8487683AD86B9D0076BE3EE91EB1CECC5331A67A3F79D8B27587C12EC2A6A70474749F27B4C0BBAFB94B34189E88DC18964BE4121B9137FD516C7755356E50D6714E31ACD222621EBBCD1CFF81D87479056A9DA0E0B8EA19D24CF937DA89F78E8650CCBDC110AAB6C4E46DCBFD0446BA9E2060E81F314AC203
311
1E88135E5476AC0160EF5C0DD2EEF1B8B5CB2D198BE9A554A9093B5F7D7E4B5407DDFCA1D9C152FD97F55BFFFDFE802954DFEC8995B983E28AC92F1971E28F531DC407A1280EB125F64A72E617EFB27DFBCEDCDA2D6F2BDADA36873EE46B9BE1782998C63DA7182BC383FB6FD15DA472B175D7E8B4FC88F38D6E07FEAA3FA3
311
CBB8F6B449ECF14D2175E5C5CCA3A42ABF24CA6C9395AF74535F4DDB38CB84F56614B0FD32D7E19CA5CF988DB4449C40E23DF2B16772594554579094450F56F253CD25EA7F77366FB1CFE79696C428BB64D5A41E986189427E5E4D7E2DAE3D5BB4972B3DC44EAABDDDD63A2264ECFA5C786EB0EE1FDC5BE34FA0F08376869F
311
D1E61EA06CAE15191135445EE8F0394161C3266A596AA035572BB0C8876180D8B9C77D307DF9DCDF7365ABDA6F3A2366436457A4DFC1F259666569A9E4A79C817BDD5610E5200FCE894A358EC72858D50EF67545DA81C6FACE3D457BAF70367E1E6BDD9A952FB4F56247F58F523B97E640246051A72F79BE42FFA0B3187F63
311
097F91C48B868586F714B0EBD5A00A8412C1236E1298F60C72BE6C96B82B404CADAA304AE9F303176B14BA53FBC2D5E86377E35542019E24D97B96A49B2C0E5006E7795954DEAF5DA58958839043C6C70BD3B1B33B6DC5C31316D8A6923F142E26F6711A2258AF977DDF1F970ECC4F1F2B434B96D81BEB6E89BF3BBB3C7C8C
311
C80505070723D6D7D7D3C8CA27CA164A26024FED94B12A86031867241DA53D929636DA600F050BC40CE48B8BA03D69224720DEE2ED2127390BDF5E6EA64527BBD4C4C63FA76BB801FEEC0E61218EC98A8A86CD8313781617877E66692839B9468CF4DB8E50A73986E558E309C0D6F676F921BE02F1185454DC75B111572FF9
311
D27D85EA14C05AD7271225B391C4275659CA4A43759D0BA44639BE4C30A84DB7F67A41399FB95CBF923B1B1672ABC807C1590557FB18D811983FA97F5E609516D62281D38B1281F68FC75528C35E4CD7DF0F7DBB5E5DD69C414EBEA2F4A5B241B996BA77AE6C772E367408C633EA3E438B68563EA8BE7667F3A4C4FDEEA52A
311
BD78A2820F443B7914A15F180018D231E64519C56A12F6CA7C8DAE18F06F6B769DBF92329EF6A5D18FBCE600F36BD8E8198DE5CDAA96181F3A756EBA5501CEE58F497EA4F418A2B82565B9BCC611713C0B708CCA1F398B78C5F7D03B3437CC18F13061F55C7BEDADD5ACB1DB0E36D3CE47FF6EA1A563A57E9649EA5D14D1A5
311
0EAA457463381C073777EF1600607BAF6428A7DDC079D47A204EF1E1F1F0589FB054D45E02CE623B3823C317C601E589E22B1E88B448524B86A82828E32345EC18AE17214B42F8C41C6D428016D9BA31DDCB47572561E5A402E5BA4FCE55F78AF7268524AA04130F3A20BA5D1E9F9948EA48FC8F5314FDB35E218981980600
311
34ACE5E3E2BBCA34092518F275190AF65F45867FF0900AA4B81F25427414C372BF51DC29AA855C5428EE1EEDD6B849AD60F6E73475C2D2523F8A2772C840A478DED18A8C5C91B085F255DC4F54EA7AA8947354FD17ECF8FB3B4A0DE7B483CAF3A1165EE05BBA413E5C1FEF3DE1D6B8F2F3F3251C17D9FCAB48A9AAF63AC773
311
A0E413BBC46A9ADF84A566FC920E4D8C52C9769EE3301CADEEEDD92B312E02E2A7E35B7F1E7D203FE5A7D75578B06E99D0E46FFADB8FDA17ED8880390DA29094202D6F645F76F6F96409CDA05495A96E84B04A00D1A6C6C81D7F3DE9376E828CCF144EE50E364ACCE7237EA0BFB5607ED1AC3CFE73794E5B61739D14DF1743
311
441B1AC98F00ECEDE9E7301FA29755FBEFA68C91EF2B314CF510537EF1ABFC9A762496280B546F5EDAAF8A5B387D469FC9A878A92828C88608453ACEC6094DCA54111E7AD5B2663DFE2DD151B7F123B9F4FEF8EE36AB125FD7AD52A59B1B765B3E3F73E3F73DEA93875004D2AFFE3CDE9493B87A9904DD052028949041A91D
311
C0E1BA47BA714343FD5B25E0A6A09503AFC17C790058A836A324FE31D7893512E28230332F153181C1E018E1124EBE1BA262AA428A518237D1EA7275E48C5C561BD19ED6912EDD8367DA0F31E40EEAE9683DA9257525AEA7B632B97119E17145A90231768A4F3B9120FF32E8319B015E3CBE26F1A754177D8185345817C096
311
B0CE443A955D13AC15E1FB5DEEA0239EC32A3C92241A237B0B02FFCB4F93CF2B02570C8D192E2F2A68CEEB42F12E6F8CEEFF46C251E22B4341C56FB08CCE550E7A9D6F4D6564B9EA52A83D5BF2C6E03FA19D2775E15A8A7ACF30A13C259EE7F5EF2AC3BA354F1500E1A07FC63FB4686E2F12EC69719F9ECF5FE3F35598DF2C
311
E944008CE78F0911BA5BE5D0A34E0098FF038669C26030BA9B300303039852A8F6F496341737CA7E0D2E3AAA36DE0A70AA7D9CA0D54D9AD84B18A44C9E625475E1C97B93BEBB38DCE7D227E67A2D00F531436136355F243D1FC0D712C5765754FA22FCFFAE97919161F46D6E61ACB37D83777B385889770B50765B12776844
311
3A5C4D3A4E35A3151111F146B7CA116F918A049F1C272F2CD7976C69A0068773451659A97E0F4A08FE604C3FF6CE7385DB19F4D3ABC8A0D80DA8A42096AC377DB49382B36E270B6FA7570188B4B7D1DDDDA82ACA487CCA5D38BD3BD039ADBAFA4ACFF27809239B722081E2EB9F145320553D183F28471C388BC8814E504567
311
6767AB58A8E72D1CED2CA731379515D2E533E4CF0B39DFC625F97AC4836831A4DE330E87A8126FA17EBE583D614E71E22A8DBF2825599743E0640037303E8E1B1E8EA4E1ABFA4F62907B5E4E0E5DCFDAB417C36C6848A2B8D15F1E505434C0707E16B1CFC2A1C36A42BBF55734F8F4301DDC2A5110CEE8C0747F6951926501
311
2A2174BF4E955ECD4FDE095A3ABC70536B7AD0B9D7892F81287D667C108703C9B66A221E9A0929D030008F77FF6F5D2108EF5706FC87A3069B976F7C9FC3239D13D283CDEA83597461079FEEE049B0F392889898B7D87D31F8D60ED7B56B91823A8E4EDDB36C6172ECEE42BD42B12CD67994FA0F0DFAE9389356F4CD4425A4
311
B8AA55CBF7ECD585C6A2C2316791E43D5C06841ADBB226A87FD61515FFBB0167B74E56BD7F3E90A57A97FEDCBDF483A0D6699A8C0849CAEB4947FAA90D8E332D9DEBD9F4738C37DA0CAF9CF3DAA68BCB67C420459C7A64498D6E848E5CADE92BB6901F607AA331104A67F7CD650EE169B1DAE94D2C31C2F993632259B6957E
311
246EFE4C5481107B07118607700040E5812A2A2A38DA0076875258C753F60E0F2662C748EDD5F3F3686B8FC3BD6FE631ECCAA1E8B1C1E565AD117E54893E79F4672E32F9E46B2A183DFDCF3EECB4D4D077DBEA0DA254D256045109670050129E9B9B1A9E4A11344D61497A992778095151510C4BB7EF2009B63AA436063531
311
2E4CF668B7E0D3D85A8688E2BD83B569439892ADB63461930D428E0DE42E4AC57CE48DA5CC1449530D8BD3D6A0F08DF20C8E8F570F2CFFFCEA286E30969B4654D498A58D9DA782E19FE3F002181838925592C4A1EF0B332D88B61A92C644547BED490D3A42CFFAB70E36D961F694F6307F72FF15A1C79D5B1B5CEFD353D9E2
311
B52566DEC8F8F09CB3E8359C0F68EBBB7898243E34E12A015B2685AB303C04D3A9E00671FF3DFF0A184E4A2ABEB2B666AF5B3A209C73D8EF29DCDB069C9F391EEE9DD0F74C7BCDE16F8F02E3B8816122BBEB50665775B600549D8BB33A54A6BF940C028118BC6878C79958D6784F9DEAA6E26748386FFAF8D0D0101E2847B6
311
563F5D8DC1D78F787BE00E2C941AE12148D4A81599FE8F68D4DA5CDED75530ADE138240300EE13B0FC13A1687FED6774662C05A2B7DFB186732F0D7A93545D8B0A6390AE5054D9CB582DA846D7A061B3358B45E2B52DDE63E114397EDB7E09233A579155D795BE76102CF277F4DF8B188C4F2879BEAE3C08347124BF9ED23B
311
128259FE107D31E34A652F090B30B39E0D9AF917B76A2806135621A8A60681F16AF216514BBD02711585B5B1AE823F4B2D0369EA5B6BCB863072727FFC871CA6C9AB79A814D989057E9470A3D238BC87CBB4A0EA49AFE2B86F22E499793CAA9047080450166BDC357524561E258C77CB697F1ABB32562CF87C3B7AA12F911E
311
F19FB3E5C02222E887D08202A60A17151F5E053A86B437771088B4FEE14D652C43E8D939995D34545E12E2FF93D4E366EAD25F10CB7DED141563C3D0C447AF06078A91135FD4B9611583CB4BF3BD167F2399CEAB0E0100F8FFC305F00F1711717173138B4B48C83022295DE657EFEDD97F238ECA80F528AFB4F8D67AD4E259
311
4B9A3AA86D7487EFC313BA95745C186F0CDD84CC12DC9CB0424B42203D351FD9C0A3AF10CC7F388E0329279087386421F194F4A29464C1DEF7EF8BE515E4A199DCD5B909342598D8FE6A231F71336248D5CEC5454455C7BE383B3BC7B260FED27F703FDC39A170F3827239102F59D4DEE7FEF82EAA1A5E4BA94DCC4CC44E7E
311
2EDE20F24244E4454369D2E87C3F823F193FD4FD27E1C23984B01898D15ABC20711A8A558054951A6AE280096BA36CBA439603B7B0B4C45F248C14B2383B4B5CD8ECECE4FF859AD4A6CA2326D020EF090F4041D28DB66E5256B56232CC52829DE8060BAE6BBF37D4B7469B822454FE93210A3E8D15E69FFCF01123222611C5
311
1C4FD0A041A0CFA2471CF6BE38D2B20FA4C3525B5B8B586759475CF80ADFE67A284AC24651E52B8E683D24C2622642F27E7C3C22783BCF63648BC398BD6CD0D9C97E7E7E3EACB6126DB7A6C1FD9F1031302EE67ED96F22B77C7CA0239BB324207559B105E4693EB26EC46182A92C9C0DBD24F29B31C5C5AC1F84300E0E17CE
311
EAC15F5736FA4A98971E2F1423BFCD68D4BBD5F86E74B40A369F39507C88FCDB35D2DD8DEBEA4AF999E23CF2816D204200DF6E611781B9884C1AC8888B4DE397320472959434323A5A36B22A8E1F721A270DF3BD65E4A31C11FF048AFB0D8B7B6881423793963A23CFCE935FC189ED36FAE35C46DA3574C979E4394BE52084
311
F3081837BE033396D2EBD80F1F691B273F660D2B32FA27A33B1DE4ADA5F0FA4651511102DFA410DDA86E065272CA314D5249DF91B06BB92807B28EFD54F08F7B525252782CD276DD02E6B0319B13DF87B1F6361AD6B28FC0D711CF445429B9E5A433CD493051C49A9E03DDB1B147D880253514A5DED88009018620EE229101
311
C041950E2D8AA8E1F5F5438E0C0C0C60EEDEE9E3E0C051948C69F84BB7B2A48A1F3C8EB9E6864687F4F4F6F6E2FA87608ADAF9C5E117B7C1A737E710769DA1D15ECE6A84502AA855398712D5FB51BE92E4EF824969CE18278798AC303C2C7980DD2500ADF8FB1E6D6C2FAAFF9987178923334A244758BAA01A9A1B70FA5097
311
D01E1CC2A58DAD0EC94CE6430AA9B0C10D75E3C6BAC670EFBADEE1607739CE0FC18A2587E3EC3058562014C64219C69BC269082D5C2F4A659278D585755912176D78A1B641719C2A394CED495A1AC5D583FD2F5EDD93308EA7EAE8A6DD396598BDBD3D4CFED62D18A5BDFDE0DD5C80D1A89BA62697B131AE7CE9A659413858
311
2F1B37D68F1749AC7CB67A70695D48A4A056AC1FBD4E82358CEAE38F54B95A9016F9000F9879C0D9D131768635CA798895F27D6F1614F11F2838A83611AA51C9A3DDB539D42979C29F10465655C17BEC3E2760B80DCBF609198C7B171A531905F3EC218D696025975E986C6B4C666666787271F202805577DD5A3EF0CAFAF9
311
1B62DC4B2DB4217A7606282F31D8DDBC290593BAA93EA6353AFA9939B877978481E15CFC9F2755CDC00C538F63A4BA3E80AE009B73CA0185687D339A507D165B74290D6EE46D5C58148F020C3668ABE9EF2F7549170DC80DB41FFC1D678FF19AEB10C7133832B104B80F691B3138F97A92D26E551F1F110400D45AC71A9B9A
311
C41A1A1B1DAEED0B0810638EFFB511D46B121C6FEA0F38CD00E03CFFEB9713FE1F9C263E4DDEC160D0497FA9A132BA608584057FB15380825DE6C7FC3C667EE947D488A09898D8E939C4953BF4EC9836344D2CC6B2971B2A21A572B06096F4982D2CC7232D46E8EA69DC83722E267754D777F97F96D5DA74E1E75178084D0E
311
70F12AD33E5F71EF2AFA599B2BEBF60A5BE475F444F240CBFE8143C334E7ED9150FEEFEF7EB020C4DBED388DD1D6A167A76F3CBF119B578AE8CFA7736ACAFA4440A1C47185638A0D2F3EB5BDDEFDA958FB13CE4AA4923D5BF840392D45544329525749734866684BF7F8D9D54D892E19BCA9F829A0F8BFCBEEA6CFDFC61D74
311
EA1A645ED7A1FF241739F15694BD835B66FEC5677E40FE69BD3F91AE402F036537218A401CB0828604AD189E575015C6F3F6BBC8AC79CF6C70653847254B31551EFCBEB5978B9DB85D58D0FA41A9DFE9C624834AA04949D24B5AE6D299E072D152D12097920F14AA92C31C3B97E28B6C2E6E9C23D63043ECBBC0A60FDF5BD0
311
C33C127EA8A3308B8B6AFFEB28B4455BF6E7AF4FC6222728357EB8E46E85053E6A8843AB23295BF838ABDA94658FEF3F832F147046B4ACD6F7D48E8FCC9618582961C898D1C7A253C91BFECBDA6BA18A1FCF70755DCCEE2222F41B76D23CA98D0CB3D95F0CF66D57FFF65E2A90F5DF40FC3187621E981BD0BC1D9927872126
311
88976B94A8F0C6EF646624B570B78E068826F87CE27041A95C9A4871FF65CC17FCB1639629AD6A9517000D63AC231F3D741CB8430777E7ECF80CE7A3F73C0F162F7E56AA71F4DA80A33CD6ACEE78E2C11FAC03DAFCE929B106F8F6B3ED2DC71FF994BD9CEF4E9A94896EF1B6E2B7B4978168BCF0847A3D2A4F1B0500B926E6
311
34B174548E9FBAD27153FB5FC36799B1E6C7C38A94E1F9E996796D7B485E635D5287A2AE76FBD11A341DB3F8F810385BB7296391973DC6C37C452A9305AEBBE0CDB6C566DB59FE60C8E94B1FD090354BF51439FFD1B48D725228FFA88C84F686F547107A7A235665A4593B7C34D748C1AC8D56DD5DA861EEFBADDECBBD6511
311
7E65851F90351AEB65F0EFCFF4BCFEF24CB7A5879699FAC437A7AF9099186CF006BB923A59E37D7A36A29FD8D2CBB914A5E9D0A8FD212FBF796AE9A67958FF1D5D8B85F78F96219D4714EB919929241B6C018AAE0C02069F8D919961EC5DDFBFB7573E3AC8E08BFB7C8534BE6DE045B3CD63DBD71F7638BA2309CAE398EA3A
311
7D8F98BBBC7AEB367EFA5CFA27A9F8F2F52FE878058E6209C026453F8E7E8A237DFC389E9590F6059B397CFD65183BBF936E86896612A5B5FEE49DAC8455D026218AFEBEC12B3523A45B57B82C9C97E02ACFA1184DB18E48CF615DBF39C3CC6F0B4AE6BBEEA2E39D944E290302FA3DE33FA7E40296E2EF7BF1CD855BBECFAD
311
0FD622BEE9746FC4FDFDE545AE6E3BC234CADF83A0FB76DFB145BF3828AE3436368AC24989454F8FF70A177672C711CAA1A76107218CF948CA01F873520E7A2B118EBB161ABAD432932029628B6761590C98AB590C8C8C79798CE9F715BA696E839E9131A4BB68BE923F1747FBFF165331FFDD4D05997ACD168F12CA75348D
311
AC04C7F509FE83898A8B421181AF492861CE81E4A2DD0A30850CFA95E05F097FF70F9E777310D584A75BA7018922E271DAB1D785671157685B7D383D3E074DDB4F1E44EF04B07BAAC75A062077C54B9752C738C9D804D402E02851F3F89605AF189738C18C021D2139EAF72513824E10DDD3047BACC8521ED7E98B257D1166
311
903B1B08FA6F918FD7E162913FEC7D0EF4787E29C35FBA8C6E2C9C20E9AB30AE42CA2A01A090E7D010C1B5BF9CEE2A304BF3A987FB40D836979B79E18D70F257DA61E808472DD85B82761825779D6B90CAEB0F23360C6F80A7D7D77545E95B3DFF0CF96A827F9B5BCECD2C9698718417EF80FEEDEE938AFF55859D0D540B7F
311
E09435583A6F04874A0C7E8CF234DF4879722000167F5872CEC6BF3EF7E5A8CC8121E6A359227C8A29C95212F9F735BC72A887D56B8F309FC525BFB4FD767AAEC4AEFF249CFBBD2DE1AB9969A6155C7D8DABC307E47324C1F916C7BCFF40ABA5644E9FFB9238D19ADADA49D9610F01ABBA57E4DFCBDCCBB2B93C8953206C91
311
DE01B0E2651A6D6C31721915B31F7B7CBCE55466F6D70402788FA91D73BE4ADCBA99A35F17D6B83383704917D6833F0FA3CD45C926ADB8BC17999A4A0AFBCE2541F7B8CF4C2F5FBA611B3E626D64407CB32C122DFF4EF8674D6EDBB86C8F7C6A16D50FA685E2CCA34F8F7D1D8265BB0042E9D7F1F666F7BE5FAA5184DF58E1
311
2122A42EF02F461B3F369AC746F96528AD208512AB56844CF75B97F352DF7995024FB02855385854F3798670D01CAC771AC3E1889EC25F61A20C1F8CAB46898817F9C47E2CDA1F286BF2F358298709FE567C91133E2638C8B53975E753EA8BFD3578B5F7186B7BF084EBA3F77BAC3132A5779902EC22AF2D2E79F42D324E08
311
3386DAEE9810D1B44A5DAA54513C7A71E52A4AB9257D975B621308FE4D2141CC3DCFE946C154A3C1DFCCA7629EC69ACFA831634ADDA93C0388D2A9A2DDAFCF957C6995BCE7FBB6DC4EBAE79E63EB08E9A25F52F67076F7093CA545CA3053B5BF576DEAD4E0017143C5F759F32B2D6F145B52B67B48909B7C7FCA6586EE385A
311
2189C16932CB6DDFD9152AE317C430492A578ED27B72D85D40C7C93C097939E1B50F4D67F05334FE9DC362C30B7FF561B95259138ECFD9274C8D695C31B14D4EAA9F3D7FA8DDF652F8C5DEFA23284C799B7D94416DEE81E05A866302DC70192A5368EA65E1CED8BF107A1E2D3119A71E85DC1A7B0C1E93274CE04DD0F2ABC8
311
AC7C987FDB002B6F81757B43502EF7A0D92E416494FAEEA4C9C090CD9557AA4D532F4996A272B94355C5A0E4974EEA9627476F30809B94D8D8D860062E02204643BEC7D0438AF800FC7E2B26955D595421E83C69E1A07E0E3122285835F014AD538188CF9737CE76D464A353FA55A001AB2526B84E985083693BC76FE211CA
311
1D000679C889E3C009832C87E1AC2EDD05C302557422DF0800E316FCAC86978A371F025A6C7DAA9F333E7BD160403A1A06EA75AA9888FF01504B03041400060808005D80FF4A28BB58AF800100009E0500003D00000046423442333142332D464336462D343639322D394536442D4136393538413739374244442F53636865
311
6D61732F436F6D6D6F6E536368656D612E786D6CBD544D4FC23018BEFB2B96DE15493C78601010A34B880709DEDFB52FD0D8B54BD70DF6EFED3AC0B12E6442E2716BFB3CEFF3D18E26FB440405EA8C2B1992E1C323095052C5B8DC842437EBFB673219DF8DA659866649B798C078B48AE6410122242F2A4994AC7F93815DF8
311
5C049C8564CA0A901499DD886B2EB9B1E02448F358701A9235880C49A0119892A20C89D1B9FD768815CAD268CB5E0355B40B1E47F3E37A2020464BED06AA57CE8FCC20C3C3446D46761A2632A8C1283D07031EFF2AE7CCB1BFEEE916E406DFAC8E36FFD99A9D60A6944090EEDC3B670C7DC13DE86B6B2C5C240D6E503BB85A
311
CD579D513F1B9F9A69DC9CC22AFA80C426D40AF0B21EA168559156B6276F0F726A6BFF04DCD513A87A62CAD41FB24FCB2858B3952E3D852084DA25B9303C15687973CC8E8AAE11DF2836C38C6A9E765E8C1BA1BFB1DC29CDFE518C8B5A7655A4ED7E77291ABEB80DBD82EC866ADE1B8D05AF9E35CF09D7A061F38A986D9EC4
311
12B8F0F65E5D81534D9B231D1E5A8FE577A241F3A5FD01504B03041400060808005D80FF4A2CCEBD668A040000E01200003E00000046423442333142332D464336462D343639322D394536442D4136393538413739374244442F536368656D61732F47656E65726963536368656D612E786D6CD5586D6FDB380CFE7EBF42F0
311
F7A649B70E1B90744856B4970F450FCD7A5F05459613EDE4174872DADCAF3F522F8ED3B88D2F1D06AC4050DBA2493EE4438AF2F8EB73AEC8466823CB62928C06C384888297A92C5693A4B6D9D9E7E4EBD51FE3A931C22EF85AE4EC6AFC38BF261BA626C9AD288496DC3F4FCEAFC63366845F7A10452AF41DB320C0D44EC26E
311
AB20918735565582695670811A6A49643A49A6E9069FA4604A64B29016DC4B48552F95E4932463CA888468C1D2B250DB4962750DF7CE273069CE8363F1FF4EDB00E0A21999574AE4A2B00C353B93F3BD4777B8A61ED8F604ABFEDD79CE56A2B7BDFBDBC50996E0ADDE16FED26223C5D30956C29BDF4A55EA686E5E58B112DA
311
45CE67F76F4FA27EFA3FB672FD7372FC388FAECDCA5209E693CAD167BADCD272F943701B3812F8A3D852008B1D2E32DB927B2F833C6EA95879925356D254582695095A3CE982924720BE5774A3CB9CDCDB350427D2DF20DA1B5532EBE2D5D6288D75D4F7E4FD9890A0EF8E3D93EBB8F8BA4758158EF6FB90A6F9520281C93D
311
E7AAC6D24607DA296BB96018123F821A7D6A5C5884050C475DA4865442732C8B95684A50165CBB3A32F25F783A4A480ED59AD7F924B968AEA50131F46303223E6A397B0E52976030DC1DCA81D7E7C1EDEEA42C19FF27635C505E2BD5198A599020DF50A2330FCB3AAF28CB0124108429553EF1B228802E2265D8F7CC240104
311
2B155BCC7070F1E5C55F13B4A9577362CCCE46C32174E010C3C378C44841A4BDA00FE3A12006CE11EE6AEC59894D3526DDE1CD59D503ECC324017F8061B7F162162FA62EDD81AE3308617770796DCBDAD2B2625C5AE8A63DE20B2C8AA5E95E76E5730823955956E33E705425A2187C185D36489A1B44D3DCEC2172F6BA2105
311
C3546287A7194B2331768EBBE64F6E70A9930ABE0ADEA89E9E2C38523B810287AD67A54A039C1606EAFE68F8304610BB9093DBDDABC0B2AE4E290DCDA15376D7E39F72B556F0B32EAB5D3D498B4C41ABADEC3A1434C422D87E8025A84BDCB2B1417ED750FAE4DA8976863974C577C7F902D3F156AD354DEA3540DE6BEAE2BE
311
A52F7A2EB4CA43802ECE5BF2CE2EDC9347179FFB023CE412E60BE16DA0BE29B374988A553F561DC04615DD35F7D2C8979F60E5955CE93DF29DED8AFA1EE6642D53418086C03C47C377910F75F7E8F5EF665F70B60FFB22AEDF897D119E8423C773E819A3C1E55E550599EE6EDCA34D0C86FD72057DF2CD46F16A470682471C
311
164E4346D5306BF12D7D12D82CFF673D41636C347443FEB51B50D72EA171A8E4A58623A4A16E0FA2B8B10A0D23268D87C33896EE8FB73305A74BF224EDBADFA0BD674AB354D63DB7BD5D83426761C077DE767728235446A552754EB93B755891C3C4CC6CADE37CF0E912A7BB38DBA010F9DE1282EDF470CA69A9CDA482E334
311
C4A6EA4107987980B17E72F31730EBF88BBD39E7C629F56797A3C0009C2C5AE7951D9A05A02773440F02EEB4DE396A3B6A570C72CCFBCD823B0B8ED3F1D5CEDDFED772FA70236C83FB7D86C385D570B87107535572A60A96035F8F7C6A7192F13007246BBE0521855E6AC46F3E27689CEE7D186A6FD679D98CDCAD13333E04
311
EBE7ED6F55FF01504B03041400060808005D80FF4A6180134D5F0100006B0300004500000046423442333142332D464336462D343639322D394536442D4136393538413739374244442F536368656D61732F52656E6465724D6174657269616C536368656D612E786D6CA5934D6FC2300C86EFFB1551EEE343DBA41D1A1030
311
09551ADAD40EAE28A4A68D9426284961FCFBE5A340113B2071746D3F765EBF4DC6BFB5407BD0862B49F0B037C0082453059725C18DDD3EBFE3F1E829991803366715D474942CD30FB4A782E00C64017A412D684E454CE3FE28995203B162A6EA5AC94B66997D225E109CD63B0135484BAD1B3C07E9080CA35DB3119C11BCA5
311
C200461A68A1A438126C75E3E230D40FF81FB3F03C91D1E3A3A0AF79FE28E25BC39EC3E17E4C2A2D94A0833A51AF55BCCA7D88572FCBAC529C4140B020FC3AAFA886621DCED7EAD7664CC86024E806DC297DA1BB393E4156543457A4537DB8817349A70F8ACBF09B3EEE2CB2F33E91B65D60786E4E3B39B77E3FEEEF565042
311
4525DA657FB8B46BE6BF064646F0A0F7327C0BC1BC1B4CBBC1C419FA3CCB23500007872A2580CAAE5461865565294E4EDB4617B62FF579DF9A5B2F54E834076A597573A020912FED777F9B3F504B03041400060808005D80FF4AB23634E351000000570000004700000046423442333142332D464336462D343639322D3945
311
36442D4136393538413739374244442F4173736574446174612F41737365745461626C654F66436F6E74656E74732E62696E536160607035713336727272D4B5343136D135313774D175727176D1357736333234B5B0703637741202AACB4D2C492DCA4CCC492C28484D2C4ACC4B4E050A82012F90744FCD03CA26072767A4
311
E6260200504B03041400060808005D80FF4AF865834058000000680000004500000046423442333142332D464336462D343639322D394536442D4136393538413739374244442F4173736574446174612F53747265616D56657273696F6E5461626C652E696E66558CBD0A80300C06F73E4B117FB66E451741D041DC5BF984
311
80A492E4FDD18EAEC7DD4555D89EF28DF51A0B1BD8340C4DE7DD848B988C0ACF0649566493F2408C508DDEBB99D5129FF8F1AF8CF5B9503E20FAE5A16B5AF702504B03041400060808005D80FF4A4018034838010000A20400003600000046423442333142332D464336462D343639322D394536442D413639353841373937
311
4244442F4173736574446174612F636E782E786D6CCD94314FC3301085FF4A64893176520485CA718560E904121503DBD5B9B4561D3BB22F08FE3D769B0154C4D4A1EBE9BBBBE727BF93CBCFDE161F18A2F1AE6135AF58814EFBD6B86DC346EACA3B562C950CDED30F8C150E7A6C582E3325B7C18FC3546AB183D1E6AA356E
311
3F151F62445AC3C6E273F7E81DA1A3C80A6D21C68645BDC31E388CE45B8C7BDE0201AF79C0E8C7A0314D22D3E334490704C296A95955CFCB6A5E5ED7EBFA7651CD1637F7EF526452C98DF776E24D5A16FC7035ABF4712F5395141950720C66A2F26B98FA4B25DF18274522958C14922B53077D0DA90386C11A0D94CC135E13
311
529920845E8A23ACA4C82EFCF2E2093BE34C6E592569403EBC248118C8E0057AF29FDAF37BB37291C069BC64474E359EDF87D7C32F7A3BC6F2909BCB4BCBA9466E5C7786AC88C33949D1C9D7457D03504B03041400060808005D80FF4A3FB17541E8000000600100006700000046423442333142332D464336462D34363932
311
2D394536442D4136393538413739374244442F5265736F75726365732F45344633324242412D393433342D343731442D424443442D3743363231353838433731422F7468756D626E61696C2F302F636E782E786D6C4D90C16EC4200C447F25B2D46302D9AADD7645D89FE8A9978A126F8A96600466D5FE7DA1E5B0A7B1C64F
311
9667D4F97BF7C30D5376141698270903064BAB0BDB02852FE30B0C67AD1211DF613004B3E302CD06ADB64425766BC58B29BEB9DE856B37370C989CFD886183C17A93F302D97EE16E26539856CCD769356CA6794A98A9248BF500BB1DFB019BD030AEA00F723E8EF2383ECE6FF3F3491E4E4FAFEF4A3452AB4F22DF79171813
311
C58783B454C750FF914A3440AB925CA75A08D077CF2951975A654E357F87F82756C8C4E89D355C6B12641979AC109A5D897F582BD1F256F92BA36AEB46FF02504B03041400060808005D80FF4AA233C2345D000000800000006500000046423442333142332D464336462D343639322D394536442D41363935384137393742
311
44442F5265736F75726365732F45344633324242412D393433342D343731442D424443442D3743363231353838433731422F7468756D626E61696C2F636E782E786D6C4D8B490E80201004BF42E6EE76F3C0F216234B883063108CCF170C074F95AE5473F5C4C06E932E4F28601967600677D21E9D8092EDB002539227A2FC
311
CB80E1168D80A6417297A89C5D6963B7129A0D1E8F2EE73AA7B62BBEB8B27DE50B504B03041400060808005D80FF4ABE89762363000000880000005B00000046423442333142332D464336462D343639322D394536442D4136393538413739374244442F5265736F75726365732F45344633324242412D393433342D343731
311
442D424443442D3743363231353838433731422F636E782E786D6C4DCC3B0E80201004D0AB90EDFD75167CCE820A4A845D83603CBE602CAC26799919AEEEE0D965E2E908050C6D0FCCE04C8BC355404EB6198129C92351FAD580A10E464065907C8D948F8F166375F655BDC3FDC3B4E530A176BE7057BDC43B2A593FE40350
311
4B03041400060808005D80FF4A96F108A77E000000A30000003600000046423442333142332D464336462D343639322D394536442D4136393538413739374244442F5265736F75726365732F636E782E786D6C4D8CD10AC22018465F45FE7B2B374B0375A4D67B8CE6C6C869D88C1E3F8D5D74F5C1E13B47749FC5A3B74BAF
311
390609647700E4C23D0E739824E475C41C50A7448A71FDBB010AFDE224540C4A4C29E6E7860637F6D957EAE7F0D8E095DEDA46EB0B3ED39662CA88C5DA1A8B993935E4C8B9614417635F9532BF5ED99A575F504B03041400060808005D80FF4A795435E10C010000550300003400000046423442333142332D464336462D34
311
3639322D394536442D4136393538413739374244442F536368656D61732F636E782E786D6CCD93BD4E042114855F65426239C08CD1D50DC3161656366A6587CCDD5DB2C09DF063F4ED85956237B1D3623B38F97273CE812B369FCE761F10A2413F918172D281D7381BBF9B484EDBFE8E741B2902623AC148E7958389549948
311
B10B989726CDB055D956D51A7F68E2033A87FE45EFC129D269AB629C483C5EA9CA096788073AABA4E8400344CC414399908C8336410750096622473EAC7ABEEAAF87D7E176CDC7F5CDFD9B609594E21DD136DEF8040197AB916B2C475F0C71C12A20450EA651350591A7EE68E943B042481153282D34327D2D8554CB628D56
311
A994C58EE00F2305AB61CF223F828760F4A5663EB3F76FA19FC1CF109ECA4B05A3ECA566FFCDE5DF2A60C70D28DFA02E84FC06504B03041400060808005D80FF4AE3603EBE7A000000C20000002C00000046423442333142332D464336462D343639322D394536442D4136393538413739374244442F636E782E786D6C6DCD
311
410EC2201085E1AB90D9DBEACE05D09878023D01A1D34A8419C380F1F82DA68B9AB8FDFEC93C3D7C52546FCC12980C9CBA232824CF63A0D9402DD3E10C6AB03A3397DD192872090D3406ABE7CCF5B5D18893ABB1690CF4DCF02282E5EA8A5BB96FFE536F285CB347F95BEFFE81C9ED5AFF9D5B1FB575BB00504B0304140006
311
0808005D80FF4ACD6A27887F000000A300000007000000636E782E786D6C4D8CD10E822018465F85FDF754A6A16C809388F770898E85D0485A8F1F342FBAFAB6B3EF1CD67F5687DE26BE6CF01CAAC30990F1F73059BF7048DB8C3B40BD603184EDEF06C88FABE1503008B6C4909E3B9ACC3C2657A8B3FEB1432D1B5957B2C6
311
FA4A346E083D637A230A0F845EBAA1A5AD542A1BC7A2E4F9F5F296BCF802504B03041400060808005D80FF4ACA1DF9C9A900000073010000130000005B436F6E74656E745F54797065735D2E786D6CA590410EC2300C04BF12E5DEBA70400835E500FC800F84E0B411AD13252E2ABF27A55740421CEDDDD9B55CEFA7A11777
311
8CC979527255565220197F75D42A39B22DB652EC9BFAFC089844F65252B2630E3B80643A1C742A7D40CA8AF571D09CC7D842D0E6A65B8475556DC07862242E78CE904D7D44ABC79EC569CAEBA537E3521C16DF5CA5A40EA17746733E0B6615DE7217475F386F18B9481C510F1F021CD9FF027EA0E1F5C4E609504B03041400
311
060808005D80FF4A3DEE336E64000000790000001B0000006175746F6465736B2D64657369676E2D7061636B6167652E786D6C35CBC10E83200C00D05F21DCA56CA76D41FC96062B120735B69A7DBE268BB7777961F8D5AF396893C2ADB70FE7ADA196782C2DF776D7A97B5933C430F15651E5469C55D70F80A4992A3ADC95
311
4792C525AE70A1E4D6AD9816CC044FEFDF01FE3FDE907802504B03041400060808005D80FF4ACDA8DCCBF8000000960100003700000046423442333142332D464336462D343639322D394536442D4136393538413739374244442F4173736574446174612F636F72652E786D6C8550CB6E833010FC15B477836D4881C8384A
311
087FD0536F1638C44AB0911F553FBF76A0527BEA6957B333B3BBC34E5FCB33FB94D629A33B2039864CEAD14C4ACF1D047F430D6427CEAC31FE170D322D16D9418281B3D99AB0EED068B4973AA1DA4C72078573D243363E63D3811BEF7211B9083E32DC235FC5F810B3CC49BEF1380B414DBB544DD14DDD94B4C02F14B735B9
311
0EA8A1FD0155D5405153D53D2A4979266D3F942DBEB0228939F36AF9D93E5A29BC9C80534C6A84EBC87F276F474C8F87F6831589C999F336FEBC2F4DDF013FA7ABAFC20B566CD33FAE619DFE770D4AFB92EEAE9BC20127F1C8D780B322A514CB2BC25853A2FC1B504B03041400060808005D80FF4A500116D1F30000008E01
311
00006800000046423442333142332D464336462D343639322D394536442D4136393538413739374244442F5265736F75726365732F45344633324242412D393433342D343731442D424443442D3743363231353838433731422F7468756D626E61696C2F302F636F72652E786D6C8550CB6E833010FC15B477836D48099171
311
D450FEA0A7DE2CE3102BC1467E54FDFCDA814AEDA9A75DCDCECCEE0E3B7F2D8FE25339AFADE98194180A65A49DB4997B88E18A8E509C3973D6865F34288C58540F1906CE6667E3BA43D29AA04C468D9DD40E0AEF5580423E52D3839737B58852C49018FE5EAE42DEC5AC4A526E3CCE62D4D32ED55372D357AD1CF00BC55D4B
311
DE4674A4C30135CD48D1B169075493FA9574C35877F8C2AA2CE62CE8E567BB744A043501A798B408B789FF4E5E4E989E0EDD07AB3293331F5CFA795F9ABF038E59B5A17FDCE23AFDEF16B50935DDDD3685074ED271CF0167554E27956774A9E624F937504B03041400060808005D80FF4AAD66EDC9F9000000960100006600
311
000046423442333142332D464336462D343639322D394536442D4136393538413739374244442F5265736F75726365732F45344633324242412D393433342D343731442D424443442D3743363231353838433731422F7468756D626E61696C2F636F72652E786D6C8550CB6E833010FC15B477C0065242641C25943FE8A937
311
D7768815B0911F553FBF76A0527BEA6957B333B3BB43CE5FCB9C7D4AEB94D13DE0024126353742E9A987E06FF911B23325D618FF8B0699668BEC21C140C9644D5877881BEDA54EA83642EE20734E7AC8F81C9B1E1CBFCB85152CF8C8708F6265FCC12659E062E351128212BB5489E8A66E4A5AA0D70A752D7E1DF363351CF2
311
A619ABFCD8B4435EE3FA82BB61AC3B7425651253E2D5F2B39D5BC9BC14402B84DB1CB591FF865F4EA83A1DBA7752262625CEDBF8F3BE347D07D4DFC3F2A1999A49B94DFFB88655FCEF1A94F675B5BB6E0A0714C7239F034ACA94522CCF08634D89D26F504B03041400060808005D80FF4A30DF79090D010000B10100005C00
311
000046423442333142332D464336462D343639322D394536442D4136393538413739374244442F5265736F75726365732F45344633324242412D393433342D343731442D424443442D3743363231353838433731422F636F72652E786D6C8590CD6EC32010845FC5DA3B8EC124B6234C14FFF4097AEA0DD9C44189C13250F5
311
F10BB12BB5A79E160D337CECB0CBD7FC4C3EE56A95D135E0348344EAC18C4A4F35787743252417CE5663DC2F1B245ACCB286280367D36AFCB24B83D14EEAA86A33CA5D14D64A07C9F00C871AEC7097B3488577C1611FE922868798648AD3CDC799F76ADCA36A0CAFA99B922BF086645581BB1E95A43D224A7B824A5AB428C7
311
F915576D9F5759C30E31CC9953F30F7D58A57072044E325CA0AC08FE777C3A67E47CAC3ED8213A39B36E0D3BEFD0B81DF09EBEE5A469AEA8A23945349051D3B51D2ADA13C1C7B26C0B1C705BF00FD02FE3FF40AFB4CBC90EDC1216380EFF7F5D7076880586F16A37CC5836FF06504B03041400060808005D80FF4A59F4BB96
311
F9000000960100003700000046423442333142332D464336462D343639322D394536442D4136393538413739374244442F5265736F75726365732F636F72652E786D6C8550CB6E833010FC15B477C0065242641C35941FA87AEACD321B6A25D8C88FAA9F5F3B50A93DF5B4ABD999D9DD61E7AFE59E7DA275CAE81E68412043
311
2DCDA4F4DC43F0D7FC08D999336B8CFF45834C8B057B483070365B13D61D92467BD409D566C21D14CEA1874CDE63D383931FB88842041F19EE56AC42DEC48C052D361E6721A86997AA29BAA9AB420BFC5291AEA52F637EAC8643DE3463951F9B76C86B5A3FD36E18EB8E5C5899C49C79B5FC6C971685C7097845689B9336F2
311
DFE8D38954A743F7CECAC4E4CC791B7FDE97A6EF80BFA233C14A74ACDCA67F5CC33AFDEF1A94F675B5BB6E0A079CC6231F03CECA94522C8F08634D89F26F504B03041400060808005D80FF4AE2CE8309F7000000940100003500000046423442333142332D464336462D343639322D394536442D4136393538413739374244
311
442F536368656D61732F636F72652E786D6C8550CB6E833010FC15B477836D4881C8386A285FD09E7AB3C0A156828DFCA8FAF9B5814AEDA9A75DCDCECCEE0EBB7C2D8FEC535AA78CEE80E41832A94733293D7710FC0D35905D38B3C6F85F34C8B45864070906CE666BC27A40A3D15EEA846A33C90314CE490FD9F8884D076E
311
FC908BC845F091E1EEF92AC6BB98654EF29DC759086A3AA46A8A6EEAA6A4057EA5B8ADC9CB801ADA9F50550D143555DDA39294CFA4ED87B2C557562431675E2D3FDB472B859713708A498D701DF96FE4E98CE9F9D4BEB322313973DEC69F8FA5E93BE0AFDB9D8E15FBEC8F6758A7FF3D83D2BEA487E7AE70C0493C711B7056
311
A48C62D9028C35E5C9BF01504B03041400060808005D80FF4AEBE3C37903010000D70100002D00000046423442333142332D464336462D343639322D394536442D4136393538413739374244442F636F72652E786D6C9591C16E842010865FC5CC1D155D75DD209BB5D627E8A9372AB396EC0A46B0E9E317AA4DDB5B7B82FC
311
7CFF0CFF0C3BBF4FF7E80D17AB8C6E80C62944A80723951E1B58DD951C213A73B618E37E6010693161034106CEC6C5ACF32E0D463BD441D546E22E0A6BD14134DCFDA5013BBCE22462B13A4FD85B3C8BE126468C69BC719C39357D5987058543093C4B6945D28AE4F48996A7343B15F5334B02C9D9AAB4CBB3BD194E2F2823
311
333B1F0978C192EDD553AB923BA3A4FFA3BA2A5C80F7EDA1CD699B93FEA1ECC9A1AC33523F961DB9947571BC5475D5769D2FE2CD9C59B7F8C9EC45C20CFE6ADF8CBF92ADB3FC67B2CD6181D3EF5049183367C9E70EFC1956C23F00504B03041400060808005D80FF4A5C6DC64706010000B201000008000000636F72652E78
311
6D6C8D504B6E833010BD8A357BC0065242641C35941B74D59D8B1D6A056CE44FD4DEBE76A052BBEB6AAC37EFE7A1E7CF654677699D32BA03926340528F46283D7510FC353B023A336A8DF1BF6880345F6407090646276BC2BA43A3D15EEA846A23E40E72E7A40734CEF1D1811B3FE4C2731E7C64B85BBEF2F1C62799937CE3
311
31EAD5F2231DADE45E0A6025264D869BAC22AFE4E984CBD3A17DA34562321A82127B9412315D5D95B4C02E256E1BF23264C7B23F64753D94D9B16EFA68513D93B61FAA165F6891C48C3A6FE39F7793D8D323C7EF299716DB8AD17763E69D104B0964F4FC050CD3222DFE940EABF84769A57D55EE869BC20123B1D0631183D3
311
05E3789C37CE746DF60D504B010214001400060808005D80FF4AEA7FD96DDB000000200100004F000000000000000000000000000000000046423442333142332D464336462D343639322D394536442D4136393538413739374244442F4173736574446174612F446566696E6974696F6E4974657261746F7250726F706572
311
746965732E62696E504B010214001400060808005D80FF4ACCFAB0E5300100003002000045000000000000000000000000004801000046423442333142332D464336462D343639322D394536442D4136393538413739374244442F4173736574446174612F496E7374616E636550726F706572746965732E62696E504B0102
311
14001400060808005D80FF4A88E57597CD3F0000904100006B00000000000000000000000000DB02000046423442333142332D464336462D343639322D394536442D4136393538413739374244442F5265736F75726365732F45344633324242412D393433342D343731442D424443442D3743363231353838433731422F74
311
68756D626E61696C2F302F67656E657269635F706E67504B010214001400060808005D80FF4A28BB58AF800100009E0500003D000000000000000000000000003143000046423442333142332D464336462D343639322D394536442D4136393538413739374244442F536368656D61732F436F6D6D6F6E536368656D612E78
311
6D6C504B010214001400060808005D80FF4A2CCEBD668A040000E01200003E000000000000000000000000000C45000046423442333142332D464336462D343639322D394536442D4136393538413739374244442F536368656D61732F47656E65726963536368656D612E786D6C504B010214001400060808005D80FF4A61
311
80134D5F0100006B0300004500000000000000000000000000F249000046423442333142332D464336462D343639322D394536442D4136393538413739374244442F536368656D61732F52656E6465724D6174657269616C536368656D612E786D6C504B010214001400060808005D80FF4AB23634E3510000005700000047
311
00000000000000000000000000B44B000046423442333142332D464336462D343639322D394536442D4136393538413739374244442F4173736574446174612F41737365745461626C654F66436F6E74656E74732E62696E504B010214001400060808005D80FF4AF865834058000000680000004500000000000000000000
311
0000006A4C000046423442333142332D464336462D343639322D394536442D4136393538413739374244442F4173736574446174612F53747265616D56657273696F6E5461626C652E696E66504B010214001400060808005D80FF4A4018034838010000A20400003600000000000000000000000000254D00004642344233
311
3142332D464336462D343639322D394536442D4136393538413739374244442F4173736574446174612F636E782E786D6C504B010214001400060808005D80FF4A3FB17541E8000000600100006700000000000000000000000000B14E000046423442333142332D464336462D343639322D394536442D4136393538413739
311
374244442F5265736F75726365732F45344633324242412D393433342D343731442D424443442D3743363231353838433731422F7468756D626E61696C2F302F636E782E786D6C504B010214001400060808005D80FF4AA233C2345D0000008000000065000000000000000000000000001E50000046423442333142332D46
311
4336462D343639322D394536442D4136393538413739374244442F5265736F75726365732F45344633324242412D393433342D343731442D424443442D3743363231353838433731422F7468756D626E61696C2F636E782E786D6C504B010214001400060808005D80FF4ABE89762363000000880000005B00000000000000
311
000000000000FE50000046423442333142332D464336462D343639322D394536442D4136393538413739374244442F5265736F75726365732F45344633324242412D393433342D343731442D424443442D3743363231353838433731422F636E782E786D6C504B010214001400060808005D80FF4A96F108A77E000000A300
311
00003600000000000000000000000000DA51000046423442333142332D464336462D343639322D394536442D4136393538413739374244442F5265736F75726365732F636E782E786D6C504B010214001400060808005D80FF4A795435E10C010000550300003400000000000000000000000000AC52000046423442333142
311
332D464336462D343639322D394536442D4136393538413739374244442F536368656D61732F636E782E786D6C504B010214001400060808005D80FF4AE3603EBE7A000000C20000002C000000000000000000000000000A54000046423442333142332D464336462D343639322D394536442D413639353841373937424444
311
2F636E782E786D6C504B010214001400060808005D80FF4ACD6A27887F000000A30000000700000000000000000000000000CE540000636E782E786D6C504B010214001400060808005D80FF4ACA1DF9C9A9000000730100001300000000000000000000000000725500005B436F6E74656E745F54797065735D2E786D6C50
311
4B010214001400060808005D80FF4A3DEE336E64000000790000001B000000000000000000000000004C5600006175746F6465736B2D64657369676E2D7061636B6167652E786D6C504B010214001400060808005D80FF4ACDA8DCCBF8000000960100003700000000000000000000000000E956000046423442333142332D
311
464336462D343639322D394536442D4136393538413739374244442F4173736574446174612F636F72652E786D6C504B010214001400060808005D80FF4A500116D1F30000008E01000068000000000000000000000000003658000046423442333142332D464336462D343639322D394536442D4136393538413739374244
311
442F5265736F75726365732F45344633324242412D393433342D343731442D424443442D3743363231353838433731422F7468756D626E61696C2F302F636F72652E786D6C504B010214001400060808005D80FF4AAD66EDC9F9000000960100006600000000000000000000000000AF59000046423442333142332D464336
311
462D343639322D394536442D4136393538413739374244442F5265736F75726365732F45344633324242412D393433342D343731442D424443442D3743363231353838433731422F7468756D626E61696C2F636F72652E786D6C504B010214001400060808005D80FF4A30DF79090D010000B10100005C0000000000000000
311
00000000002C5B000046423442333142332D464336462D343639322D394536442D4136393538413739374244442F5265736F75726365732F45344633324242412D393433342D343731442D424443442D3743363231353838433731422F636F72652E786D6C504B010214001400060808005D80FF4A59F4BB96F90000009601
311
00003700000000000000000000000000B35C000046423442333142332D464336462D343639322D394536442D4136393538413739374244442F5265736F75726365732F636F72652E786D6C504B010214001400060808005D80FF4AE2CE8309F7000000940100003500000000000000000000000000015E0000464234423331
311
42332D464336462D343639322D394536442D4136393538413739374244442F536368656D61732F636F72652E786D6C504B010214001400060808005D80FF4AEBE3C37903010000D70100002D000000000000000000000000004B5F000046423442333142332D464336462D343639322D394536442D41363935384137393742
311
44442F636F72652E786D6C504B010214001400060808005D80FF4A5C6DC64706010000B2010000080000000000000000000000000099600000636F72652E786D6C504B0506000000001A001A00210B0000C56100000000
310
504B03041400060808005D80FF4A000000000000000000000000370000006662782F35383233414541362D364235372D344336342D424231332D3036443536424530363138322F617474726962757465732E62696E504B03041400060808005D80FF4A000000000000000000000000350000006662782F3538323341454136
310
2D364235372D344336342D424231332D3036443536424530363138322F76657274696365732E62696E504B03041400060808005D80FF4AF270F1330600000004000000360000006662782F35383233414541362D364235372D344336342D424231332D3036443536424530363138322F747269616E676C65732E62696E6366
310
60600000504B03041400060808005D80FF4A88E57597CD3F000090410000420000006662782F35383233414541362D364235372D344336342D424231332D3036443536424530363138322F7265736F75726365732F322F305F67656E657269632E706E67355B773CD4FF1FBF73E71C0E67EF7576C9DEF3EC995D46C6A1EC50
310
46649CBDF79E192942562825CE965D8A868C2842C8DE9FDFD1F7E7F138F7078FCF6B3F5FCFD7EBFDFEC41B196891913091804020321D6D7513FC77D8C5070EC3FFEE51B21F068154CC75D455CC028A3EA68992803810109FDDE5D5CEC5521B28A1B422BF80741695D5B529DA1C2D058AD2388BDA9F476F7C2CADC939304173
310
DBF48A452BF8A700C0C70C3D121C1AA15A5270C22E2B9E28763651F7DA0D12CE11077B2ECD0D560B5E3DE2368B1E65C5E1C87384A4CC5F2D9FB8BE39E9B77C753783A37998F5CEF1B4FEE553463245C9712270880DF339E0B882A6BA713D865F6F384C842D440934EF264F4A304F8DE4EEFA1E2BF5E2D91F5ADD9613D6E31D
310
DB33ED31DB1D7916CAF091286EA3D31B9CFECB78BB0060245B943C4C040119FF780A74DD308BA9D028678674EB5504ECF284EE814DAED07440BAF649BE4B55DA2890F4D73E2D489A59EE54FDB0A85B59F2F52C4858A02705C4815A792B0C4A996A2023ECB195073E115E3E3647F64243A8338F2000BCB58DA5692C7E7C3D41
310
3F963FEDF3CF00FBB0F831A9D51360FECA43819F527B89FA260EB63C5DA676830AA3626A3693B23F1A17A0DFFCE3EE164E31B5365EDF0C89EF64D8E38AB0BA9A1117D7C3A0EC44F44F4023095E80BA610DE336D0F99593A88BFC5306E72DF98F7FD132ED95878DF2964EA7E43071359FD83B2BDF9C6B5BDF768F0F3C0FC351
310
199526F53D9460A34511F75D1B63E488178569472C91A94497807A3FD4A390C6558F26D416365C3656DE6E769DA9D8FC73774E1709812842DD8EF96AED1960F79D21B395CDDFE6F92CB4EB962A4668C76990E2EF29798C8941D67DA50F4A5F947872460F1F6FDB794E8A29FD7AC0C0D6E0714339CE258FB17AE8535221E346
310
4A10F29A0BE5EEECEFC5675926A89F49EB14E5711894F6586DB5754EB4D5DA9C6437EBA57DB97A24F8B8A8DB295FFD73266CF57E82694DF5166DDF93573AFE9C9C5EB05F8FEF8E89E0A8917B0B3724DB7BEBB53252581EFC3E38166BA131A3A5B42FE2AD00A769BBFA4458D2DE7822F8C4F63D0B8E21B285AE13325F3410A4
310
35C648C9D91FDEB109E73CEDA7BC796961AF79175E1A3CE4C5E8B0D009B0C9E29EFD98BC8E97554E3D8D838424E270F7685226E5AC268E021EDE3522D583E8F20C0BDE2959EF5BBFEEDAB32FE9A3ED0E39F211A86AA9DEBFC68182EDED132AB8BB794442D2D7EA9F4D8BFF52BC4D55BB165124EE90A42D101E67BBBB292FFB
310
4F66DE5BF2300E44546757DA7CEF8932BFC9F92A0707953491A55C5A5ACEDABD9FA1AEA01BAC3DC5A24E22E7C47213493996EFBC369D086ED9397C9BA6C7F9855C7BD5E15BFC8C53DB3D2A4C5901A57ACD2FBDF4D1676E95338B2C2BCE65FDA4C64F5FEFDC7D9CA5AA1FCF11E193F2FDABF0F4916BF13FB916A224380E6462
310
A9815F2300DC49CC4DF8D055CEF76462F4B7A7ACA7365C2707891370BC1D0AA6203C44CCAB47084FEC057F27FFCD57F89B8B9852459798A675C66BD7CE572CAF71FF7E6D7ECF7BF62CAB7B3F1107DCD04DC55A3F9961700286141C94A4F771FEB2BCDA2DDEE0CB0BAE402FF1DB0100F8E475DFFFC074DDB4498AB7D186A765
310
4DDB1CB680D703D47CEB4E72F8CB13D86A4AA68116E26387B93FD6738779B34FEDB8E517EDF2BAF28D9BE93A1D3A164320E07D42E514725C29515FF361754213EDE06B079A2E99EB1CA82A02019EADEEB87B9AF005BD04BBCECB14AACD6B24EFBE482194A97DD32400685FF1FEF1544D1B14EFB1E7F08E6D2CD2AF52DE757F
310
35F5E62332EE88EA26417AD5C3E0E319D68F25414E6D672BD4522B278C57D18F0113921C71D96527E091F00CEB15AE23D24667369BD3CEFA10C7549D930890BA4366F4EBC55F01F746109F98ABCDD5A3EE06619C6AD78AB33E48E4C9BD21BF7478B385EC05C4F8987E2C1BFA0A60EBEDAA0AE0B015C2720ECE180FB6F2DEFB
310
EB822D96338C9B63822183BBF52FB664A7AE57003AABCE512BF77E7E31BDA2E739AC4C131657DDFE5225E900FB56CC01CDE808FA4A9C9DA16AC679656BB64796283D89812B8F91136AE18EE5EBBAF47A73BE3C153EB5D4CD491B4BFB4FE690A4CF9ABA08C0D8AA64220C438C96EA6CA80B58FE5761E697B3A292EB9FBDA502
310
FA863E49FE694ADDFFF9D62C520BDD1A22014147A0903A05B9B729F54272EF83931FEEC057BFF8C8055C279EAC5C0011804828734024F6CFA319C9CC6867C727184465CD9BB7ED386AFFD96B294A85E3802FAE47244602D8273615952B98C4F23F7EAE4463D9D638EEE374A20959E0FE519C4CFB0FBFE5DD80C2AA3F9DB961
310
D1BDE57E67C9BB47B77FDD74EE3094F5DBBE3EBC1FBDB7393F5116263009E2EFE1AF9A221B2AE234C902BF70E9F280ED23E73908361565964333A3F01D0B006AF32FB21AA1316744B489D5A198E85299241735BE559675130955C902A8ED761FC0DBE337A9F91919AF5CE32AF902ADF9AB2615E00E8A94586BA1A90839B618
310
32FF1BFB76D2EFADE6DB1BA04CCAD3DA649E7E2A0219F592E22F2AD54847EEA8E42271011E9074F8F3DD9FBA6CDF88FFC9FC7E811AD1CA8F4557CE4AFC7BBEDCF0114A48689F20A584520C74DA8127124B767E2FB91A6B186246727BE63C9445BAE02088D58B8EFDC0F1072407CD9B89A13F6303B4A928F593AD489B58E686
310
9325790ADC406036C591729FE14021F94B7796BB11848D463536A092A26F077F94639F7CEEE2A724C66EC885F4A24F8B8A0AC321F8FD149BA529460FAA34E4663C02D41FDF80BCA222D42F0ABFF8490F4FA74C673807C2051D8E467B47B616072860069A9A303ABA9B319D58404461401B0A0F9BE5E1E151C14BC33B32ABE0
310
3DDE91708DFAEB15E7C0D593C86BB7D7EC17BE56E57975F077BFD5525F3A1A361D584A75E08CF29FC7B44B2B3085014F3A5A14517377C3F6B8F37E59514C3B12F8AACDEDDA4DFC49BE5710101534CD6FB6DE15B50F11A09472AABA727F0C49D9CB906B158030065F48EB3625E010CEC1D511D0053474B11E6A4F01C0D6EF1B
310
ED3A944FDEC70E0DDCDC756C86545910E0DAE3BE3AA9A404574C2995CD5CAF9549226BC94B4F4F0F5F9086F418F6B32346464610D8BC7391D3C3A3CCF04CFC1FB2A3A3170E369511868F14EEA4E5E438CC73DB1F3248AA94B6B2FF33B222FF3D1E7BF146CAD229770158063BCE4F5391964DF62F7E52A7BE0EEA829C9E13C4
310
C147D6F93FE59E111DAB5E4594D6F3CD1AD375EE039930EFE5AF2BB2D41C83C7DABD8C659BAFBE8FAB392CA634F3D15C1D945DB4588D2B0824A4EC928AAC565557CA2F0DAA588CA5BE30B3A8004F7BF005E96CBF891D7F18112A3619FDF530DC8AA64954258E1811789B5189B49B4EB53F5F89F7D37523894F3EB57B373763
310
C91E502F52CC99EB7BDDF933FC324C4FFC2561DFFA7339FAFDD0A4BFBE6D3A8FF9ED1FC49898139864602458968913181918F719CCF5A68B2EE9C1FF050E34E63107003B8120FA982C21B30A874E4F5E4B38D5A8290C4B8D9BE48A0BE31EA995BDC37AC6DE90BA17D259DEF53605D55922FEB1855D915B659FBEB350EE0DFB
310
2F9F766E1C84CC8964B75D08667445EAB966015F63A18A9E0A325C1B3DC628C0D3CB60F767FA93CC65F25458BD23C3B312716E5F40E5858AC06EBA9AB14F95DB99147B832069201541D09A0D856E12C629CF32683760EE855537D1901988D5EBC156676C7DD51D7207CF3267AF1D76C2AD867315E44618015313A98B19941C
310
696FED3461CAA9B5415F918556D7802EDACEFD6B2E45853A9735DFC9DBF7E440F9319F8B6805A973BCCDC76C069A9144E51F187EDCC12FC31B5DEAAF0A76137199B106EC84ADA6B6EE697D4E6A96E007417F4E880E8B1E89B4BCE9D81EF611E2ED8F0C1A6C25F620FAFAAB656A7C42D464880E8AFAB0E0FC8EA38CA9A8AEEA
310
EE3E4648BA4680270A89743CDD3E6C6CBF34B7B640EFA285ABC7EA0A1E28F3CC963D114A80123EE66D0AF7D5380EB41909B605AB4765B709B808590458157E69BA1378FEC4B48CAF6A730E3BE3C5EF2DD1A5EAF94B1DDE50CEB55DDFD7EE9A16747FA4B223359FB1FCC69E1194892BABB93A1D5C4E807AC0EA2E30180811E7
310
7A2291F6E7F7FAA5E0F60215BC6024E48DE436C511F0628B8CA189982D4D83CCA17D305A7E923C37941CFDFDCD93ACAF735EF5F0E61BBD3E6C41A59B242790D3A3BAC7064DCD89AA2E37214EC839820949D5CAA31E240D2948E48F690298974A96BA9A8432BC90F5071D6537C9666EA4564796B7AFFFA548077BEEA75F6308
310
3435074BA182F3699557397F71548383FDA8CA34D99B981E72835ECDA5DDDC151315173D05A21F651AAF8524E88209E2E7A737ED1045800CE3390050BCFB8BE588DF111617874C62575039CA588EEFDEFEFE319B739DE2EDC147092A262611E159650E787917885EF08F1F51B8F2D8A71D60B58B190FEF9541A1BE94BC19FE
310
A50784DA1419FE4B0FB51B8D36B5FF8E1286FD8AF42B91E59A5F1CC4D60174E764045FD8C57B18209B217F89A62252BD20BE0E63E12B8E8F029FE19E0E8D0870F58721A557082250D5424F7909369376E41666C0EE77CD87CB283F661D5FB6D0DA023CB67320A20DC7BE661E9E1BFE5463085C557DA1FF9BE835733766C3D1
310
39F2CF9E2208873AD0EB4814DE9E6BF2CAF81614D4D43906ED1C05A3265CABBFE192770FC2F64F940CB6B17B5F166F133C9AEEAD2641807C3E69515171DD74C4A85311513D6EC9530B3B601B6BA3EBFF3B5C3D2F7D69765141E345F75433953D013ADDF8F6AA7DC3F4A7563FE5C7D367937E2900D7EAD0F9FC9A4A1A9B5BDF
310
1FEF08532660C01C5D6DE22199AA774383E306DAB87E301ABB7D213887F9869D4942D0D71E94B27EDF216A318BD488D45DF84529EF575AF3C3938C0AAA0215B01994153E2054A0B894DA5C784980633AAD48576957CF4AEAEAFADC7C587368551C73DBE1E57C58AC713303A8BFC258BD04B51724459FF9E24C03A81E0E0679
310
CEB9B348C0DC998FEB9C6D6EFA77D247CC8F92D3848599ED89A23218D0636465AD1CEEB7DC140D7426F83491C4E8E8281C2FB35240918FFECE880CA2A42D70E8B20B34DF5221C7DB0CF90ECCB9C745B37A47E9B716FF7A97B7A252C1F3814DC7B1E1A7F72B8751D524EF7CAE45B0C73B3BE7D08ED39781B380DDFC9AA4A474
310
9C9493DB5BAD07A6EA6C092FBD0E85DB004DF06B8C9D3089C5320187E4CE1846158C7EA7DDAE8AD9AFFF21AA3A1026BB06A259845E8232DEE62811A4DA9CEAB3A4887320B76E2AE5615EAB7BDF738CBDD01F1E64064BC13D9EC53576751CA8CACD58B3CEB0E6CA585BD089B2A59B9FC101403387AADBDBE70586B93D64BF3A
310
D4453EF9C3B6A93817E8346991798601344F79A83C51F3D50F7BF2683A3605F51A72449489E0EE6169C749C60B1035651103AEE24D24E51A759C840DD3FC6504DA6FE107510E447B43461C79D22970B75DE5E1BD3007D1AFC619A4A4A69B5626AF5E9B8374E20677F77E2F8E73DF868E8BEC7EBA7B6A75EEF7205E1AB9486C
310
B642741D6E03FF13FCCEDB1C4AC129886268B01CDF4B124AF797CF784F3C6DEC97A17D4B558070A0F1C04DA4FF9BDBF34159AEFE958479824B3F58EBD1E19088A2AFDE501B6F2052368A3FD0E650A179EFAB1561E1D27527077136E652676C3670F42DCB3352F48F6BC86D2C3B0051727E41A0A4DC6CE2BE9D47F5CAA2935A
310
3C0539AF080665997194ABECD723B08129CC5B6B21D2E7D54CD4D12610E7E9FB8306771A89576C7A982002775ED44F3F744CF21EEBB27A631671D921938AAEE3EB0D19CD1E083727F607823E817BF599DCED5394E37EEBC2E88782E638920CA641EF74D4CDFCDEF06F4278ECB18E31E7E9876F2D783C8BF429C75395F57E98
310
C2B495A3DA077EB3AC3C158608B6B57FE3EA48484D9A480096FCEE0DE880950E7E5A5714131C5C41AAA29FD19AE81AC145FA1B9E85C7169A5AB837B213493DF7E9AA4B5FBF9CDEB36EBD21EF1181B7CF7366AB2A951D01E37AF4EB835D1BE8C117CFBE7625D2EBCDB0B20C5A4B45CED0BCDE3EE8DA9DA78C2E21DEAAFFD119
310
7E463C33CC6A80FB785669B856EFF7A8CCCA2841B5A5369173320B1170C368B2748D81062EA0296E5E2D95D7667A4A46D98A6FF475C76AAB0A8C8D45E226FAFC9FE0133EA9F60111F99CA81ACE03A1D14C89E8B0D69079C91464FA1D99E651D0EAF606F345C42A8A1AA9BA391031582B96D5B4176A77AADB01F12FD298A75D
310
EEBB2C82F0B8650E880722F8DDD90C56A7A058E5FDEF1AC93545BA27367C76F5D8F9690CB6F8DAE141EDD7971F0FB548A2AE435F224D6E5954CA155512F7332029D5A1230854B79F258EC5FFDB09F5F6343A8EB193229B7F7E79B3E48F8E183860B38C8269D1B53738FF1E0BACF6AADA6D4869E9DE708E79B5DADCC09B1BC7
310
6F649731CFAF59A83FD8BAE4C749D66FA87A3810D4D62FFE826FA400C0F325D2BC0F3CA35F5847B82A2ACC7961745C823E4D863D54460AF792CE6F79B5C7A33B25C3AEA6CDE15A919B6367D781E9D44F61BF828672594A3E1D9EDD6DF179A81F27EAC05B936575D73E05C209DDD2115CFB705DF9BBF3C911589B3640735E9E
310
618FC9C36A7326C82B2205E244C55D56FDB9D5DC93CE958D4BF8174D2B3DA54CB3C09F2C2A6DFF73D23B2197355761AD421EC581284A7EF8DE2CE3497C0C804D49B41DFD6A7360844E5BEFFB495CFCDB97A4595911CDBA623274CE852B5E278AF0BEB1770E9D37CD977B2766A7DED0E94B840E1E95E8C77DE5CB6354AF7871
310
427C28ADBEEF7BA0A28E19DE9ACD75F379FE373EAE6DDDAE3834692F9C2B03B4FCA8FCA9ABE8EEEBEBB725B88A7C90941E850682CA04061A7DF0CE82ED49BFAFFD42C309818FAE14755CAAE78B0F73243ECCCAD7DF58FCB9CDFAE7A4D3E6671A613639130D056C8383C8F4FCF4808C331E544DD26E4755D09EA05253B3049A
310
1E32587CC25D72E073E2CD96D04A71BBCB0038FEC3F53D254199C3CDC67CD66640269431860225392B2CB3ECD0B4498AAE78BA1994246AE1EE78F2EDFB79F6C6CB6B5E279C4D373FBC21CB2698C9ACBBEB6A4BB6B39E16AB0E421CCBFC7654D81ED86022F9BB522146F9F4772E2D0E4FA70120C95A85A417BF5078B232F475
310
4363EB1750B2AC2148EB46B1EA72AD9B4D23ADCBC589D70106C3EC2ABEEED84DFE28E718C6C83502C28E9FDD3B09DA0A6F6F7B72B706A31C9E2A331EE70DA56A083D2177BFD63C55B11D8D949FAFCF90B23A1E24B9B5018B9A17E99F2890EC302F330FE7936E2C23F0D237EC8916F5166AB84B62A21BB0B950146962D754F9
310
2CC2C8877BED8FC7B7B25726DD19545392570B3A2C66B58F027BEF412E552D12A588C4A3CC5C3193FCB3485EFFF700D0B9EEC077754A33DC1FB9E25AF814628F91DDFECB667D3F7690803F38D13F8AE39353523BB08FC6760144AFA2CE28236F65EDBB3D5F59A57D612B99E3D7E5F8A851666BF9B5A6658EFC96EEB37A378A
310
BB0EB3FDDF1303AF32C41BD1C8560745D7BD81066B0D6313359CF488563D3BA3F8E2185D1FAA3EBA1397C9D0E3DD232180A4DCADB6AF25DB3AC3CC26589C8239E66E81547BC7E2F328F9884764CA37EB5DBE390DFC03A5246B456A7C3684C4377D0EEF9A350680FA9A077E8B2957B489E09AB1AD41316944C2254B5984830F
310
691C93CAA767EECF976FA5647538830B5E63236A6F0365C1E0F3E327F24FE35EDDBD7360B0F7374837409F7A6311BECC12B7026D4FA1AE204FA3F5FE904B1F420C7A9044AE58E403E7C4848E7DA25DC9EDAC79DD756FAA26B9EA83ACE8A214A2612A22AFA19DAE7DBAC5F8CDE1292A485F98DAC731A29FE01A3966E96BCB9F
310
B5A4C8830E1B9AF0C54B87FBE221A097036E5D28D1F869F810C06A9BB0AC0612F69AEBAF893C6E7AD59460208BAB3A6B09CA4F6BDDAB8CF0D1F84B72487498395A70DCD754796E271099A567A55CF242BBED64696378BB6CF25EF0FCDB589F3A82F1116D010A9AB9FA4358809EE0C973A2B4229BAA876A70B03AB49CBA7FBE
310
71DB1832FFD32F9BF2C8E98075CACAFB36921235D0F552B6A67E94E094097A5D7DF681B40623DA535ADA7A9AD8E9A62407D7C9A5AE51D62A17A83A23728DE86BB56115804D3F2675F2C6B87541A0FC497BF0CA86420F558C9859EBE9FAD62747E323E3AADC03FDCDDFE7407B09DA90B44E3185723C5381EAEF589765E2F7A0
310
99BA46695BAD60CEF3491B8A171F5F56444F7CE9455312C3498C74173AEA0214EC029833B34B650CBB5A5508D5091665309642791708ECF27CF11DB3D797D6CFE474453BD4BFADB768094B2147814D81C7CBAF8228DCAF5564B5891F5EF6A860EB2E323CB82AB868D8EA048880D63B0DE5341F1B3D53297B928A11E15F25E5
310
148990F710747C3509ED14909C552EBE3973246FCE55D00564D8310BC3EBC5085D08D806799B77D6C57FDF5E55837F9E934F09C03C729271B64F12D0A9F9E938107CAF7BF1EC8CF1BB9B42363D33070F4CACB425E605DDB0A34A12BB936DE286B9887A4E2E558F0886498BFF49C311D96C277CF6A9FC0D75AD0ECC5226D7E0
310
E3572012E56D7FDE4410CEC7A6D0F997F225A2055B8B92E3956E875AE4993CB3D4C9063AF98FD45E1BAB165640A43439A2C9181A7C355B297C0A0CCFFAE19B6FA3C2BA238A885FBC98B8F6DAF4B94B97304878DF4D8BFF6A4AEDF79E90ED4E68F00CD7299F4E0D83E35601AF0CBEF18C1E870E74758FA91F5131075004DB3C
310
FCF09AE1DABC11957FD9808C92E8A678CE9DBE40DDA0E0D1D505AAFBCBA208232BFB6FB3704E8985E61ADE53DE74152F5C7DE74B1DEDCD37DC3E8FB30D7EBA8B9EFFC3606BF90B8D438279CB7709FC7C00D327F41817EEA71CD9E49FE9C8C9A81C70915D9F0F15958EC5AA4C3BBFAF46986B90F188BDB24B89DE3C6F29EC3E
310
6F66D84856EE96A35E657CA41B41EFD8DBFA16AD6E91439EA92B40B21C053249F51AE50EB0B24C770FFAF40DF12C8436366819C48E36547D4E7B72FE2BBF10828583057814A668BDF183F6B2E58DFB151103E56303E63D00F39C27C4661605DB644D19175D02E3F0241E8FC3458D17AAAADB117CE9EEA690D0DB01E634878C
310
04C2C9310B69FCAB831151E3AD293BEF6E46B0ABCECB50F5939B39C613D41E81FAE8D34CAE3C4566B761D37185FE864AC32FCB71AEF39DAA5BAB88609BB980CD2F07A8F941653B529567726E2B2A58D079DD57E1E5E31426CF184A04D7B03B985F276D47406AF276FE32E3328BA866EB1FD39BEF57863A317634AA5FE46740
310
9B3873F5069EF0D71AF00AD189D17BA1974ECDB2D623E9E14086386A6AAB5807825C37B015BFE892AFD154920EC437EB945D958E18622E1E0FE2FA06557CE4BB9BBD05A2D40E774DA2B65473791E314B7D6C886820B2FCFE4AA272B3B8B15E7344A145E8AF919B5454D89D36D413E87211186BF6F645E5EC94DCCE8E1C7990
310
22E4EC9BC86D7A0F2AFB1FC4B2CE48F84B3F49ECE65BAD24CADCC07EFF39AB06BE9E6B27A059938EA7208838455383DDBCFCD967DDE4650EF92A14FF933C975DB20BD7FEEBC4487576485963D757D16340D9599FEB362F775F38CA4185A86F74B629C81B133644A3B18FD056E997E0734F9BE26D11C0AAFC669E2AC9FC41D2
310
81F8B2E1C35AE27BCE05F3DA295488096688719D974DF1B5D182DB7792288697F8763CFB43562C1CDEE11C4AABD5C22B6E33F6F389CFC3477C5919DC0D533F8A7A1846B7ADB60ABDC26C43D0CFC8910B7C15EE22675BD02702ED39DB77A87A192CA7A543E6205B979B9F5A6B512A3CA799E198B2D5797C0AF8D1D872CA455D
310
4D431A7879D4DD76110B5FF7F4176B54477A9EB5E4A5D11214FDA585F0382751D8E2582BA5D2075053298FEB8F1537304E32CB22C2E2B693DC0A760B1DFCA751BDC445AFDCBB12820ED85F6D5298933C7EF1211E9E057684056CDA3FEF3BB6052355E162DF27C59E965A8DDB7F9437EB72CDDA3A090DE65A5B2F50326247B7
310
EC67B73ACC7047FC9B353D6EE990F772207C6EC52B39DC2F3C0754821DAB559F7C1809C7D0DD5B0499D0442E0A6E391B3D5DB46D11E731E6794EC77523FBDAA242ED67F9FA1FB684255671F63C9BCFE6E7E896D51001A6113EF2298BA494E0B0980D1FA5B9D60796554C02256B1E0345FB7C6186B6A19D2DCA270416262845
310
FA4F42DB5D9B0A0B6F07FCA2E56C242522E001E0CEB734AF310FC8BFB57E38E03AACE93B3326A2197891E68452B26A6307FDABFEE0223D3C03C3C73D2D5BC054C8311F12004CAE488E5C29287F8156A2CAA4AD0D7BE6B97264E4139F437CE73ADF52E5134C52B819777C18B323A5924E4F67AFD13B1CDC3A61793A79FAF5C0
310
CEB718E441071E797C6DCCB9EFCF7E4A1E9F3DF3C2F9C9E8294E9586868788C972857FB0556D7A26941A7EEB9B580AD78EC40B85DC906B4120A563CA3B87797ED612D3B035962BB75F6515A393F4CB057F564CDF54F2E5A024514E6A1F901DB80C7E70B1FC05E356A7E72FABF4775B3E3FB8F70A2A8E7B6A94542BB3041579
310
78CCC999E707A29CC795E67A59CC546A5D47B368954CA7B6E75EC9E1F6FC73CE3B4F71F8CB1A6B15923D61EAAEB14626AAA9D04A26EB9C66CD1BE86CA31A5D8703DE04CD1EBCE4F5CCB62F93909AD11E55799A781A956ED27D3E738F4538CB04ADABC7DAEF20BC35BA6A90BCC1DC61BA05F20D8832FFB9BC9B15E2DB838A0A
310
FBB7E0C82A562127E0446894F427794C3037186F622BF24DE1B00AA10A23BFA47B2A180D6DA5AD6F7326FEB8C100C2D7142EB2A0B2A9D1008A09BA343D70E054AB69E2A7EDB783CBD92537FAF4A44D1296AC2792729104B3276C276C951D0CF3CF3F1E6B017720A7B8505A5FF9589365979678C36F1BAF759EAF57C60F1FF5
310
FE9DCF5F8E764FF25A2D06CF25117A8FED51884C13B2B750DB0E4F5E3D64124FCF11F0AD8F1CC3B3DA4B38ED22BF1CB2585EE6BFEBBA63FBFD44F9537B9B37BDD6B358720F98A8125AED4349CCFEB0E135F19E208A04CA7E2B10711185D72E381F448036EF57C9F874E54A971CA37A639E986AC0226DC5AA00D5B14FEA9192
310
234B3DE617814FC221C92F33F1D392F297731B567FD98FD91D989379AF567A65B8ADF177591DB90FBEA99BF4ED11B16E50A0AB1DBF1156D034BBE04D69D08F939D8E92BF525A1DDAFF80ECBC95D8F45D3FDD289FD23F7D8B452F8EBB34EC082DEEE68E18EDDF072060FAD2AB1504DD4879BF67099FC58F6E9DEFBF645D1633
310
4A3E9A127C6F1AF6132CF287E433B43A0EE93812B4AA0B194E03EE3FF91EF9C6ED0074A2F6EB18A96A7C9890B1FCDA1F2095E944DB911ED54C60DF16FB74C8CE9BDC7C54C4F14078CF73C2FFF1F1BBCCD7CF64F71407EA1683DBC410D226627F66E509060D5C0AFD611DE681D509DB8DD12FB1265B03C6F5C55FF4C30BD941
310
87FF692B4F152982502F193098A789526A038AB529A52BC0DC4FB6285CBAC10A8B8DB75DCD9BDABBB221E27D1F8DA9F5EE5926A1C8AA9BA9BC09239C6A7F12914EA3B59EFF7AAEC3FFCCE56F1C5C2980AD072793527565E774F4631DB178CEEC691B1F367BEA0CF2907E1D6B854D527065979DDEF002D8B2ACEA7CE21AE297
310
737EDE1D45B31233B73FEA35BCFDD0B09721FDBAF6432681F2FD10C3E9EFB246FD6E854B344ACC9D8A0EEF876A7314B49B6A499FC650B099D650DBFEC7638ADFD245E2B7839DA5AC5F7D5623FC0ECEEC8653FC9B2BDD1AD4D00A566FBA7186DD3C9CD26512551637498CADB950FEC71ADB9A5524285DE328B8EC7EC75D2345
310
AEC6A27C42AF6D9B92155315C80DBFCABBB7DA0FAE425C4FB896B15C9BFAC4FE67DF5A23D30C93DA4D8F36FB15D100050DA6062E22AEC5F4DAC4F6FEEF97AE05DE63C6D38F9E068A20BC5E3B6BCD75320C5090924E7F93640A7735B1A43451C2D91EE62C6238B797349E59890AF3A520DF4A87095F3ABEC2E61F0593416CE4
310
6CDCBE0E00E2523FCCD04408588B5B6C9DB6459C786CE378770B54F51DA3A5E1DF2A3349BEAAC234A6CF8993B598B3B25B4B113E353A4D750FA7534749430F3EBF2512E7EA3FD43C6AB9A1F765A58463B306721A15D224FAFE8C6F5E3432D57EE697DA0DD5A9D4866A8BCCAAA9DFF1F06047851408FEC060471D0E3EB86BFA
310
F46E4B5E60311DC3E3CEA147C75CF971BE74689507154FF2D2E92F15CDB2B9182B11459FD8ACAC5A85F174BC94A7F4EE4C4F5CAFA7C02E37BF0BC77B7DCD0C047BC316F562A01A441AFA7931CC84A28CB9F4AA367EB515778F29BFE61195FA671F4352E5E46E3A64773F1F76EE5EB36D7BCE9BCEAD837A4D77F8DB8C92AEEF
310
6711920D7C7D0F76B0FD0EB7AB83724CD35BCA7D36DDDF5FBB7FF6F04A91F3E2BB3B8F1A43CD659639507FF6331C5F697BCC782AE57D757A27D97F1AB9E0AEDB43F92F1B2AACDF5FEC8ADBAF9F814E2027003BA2F9E144B1938A7A04050AE5D953B82C45619165C813A10E76DD6906B3C16438064D14CDA713AEC420034613
310
E1AC7241904A49FBF87409AFB1FCB9B72FE7933A87D8FBEDACECE4EDCF6A4FE9FB94D5DEB74FAB7CFEAE17EE965DF980DCCA2D04134994F9A2E94D2265DA4FE6AA7B7AC15FACAC2B5ABBCD7DFF542C5314FDAB2E1B9D8B65220B8E2B638BE008E8DCA22678C820C5053664D15E89F2D735B51A84955E81A443545E9FF787BE
310
0FA700A76D136C27DA179A7C6E8939E01BE756E19CB292798063D8B97F44E8A27BCF3A614FEB8BE974A718E86F7EC99B53CA35FA24F61F2B07266684623A3D4CF073E511F3A10A8FDAFAF0078C577F4DF9D339FE7862E5FA47CF4344209E5BF76D783B1B48E152AD281B15FCB934DCDA49CEC5706B1EE8B460F435324A5CAD
310
154725E21AB8044B75A557A79F6C807B9340AA3D92503E866F4274412926C8C504E4D5EF8C0E68DD0B028781A6B4054F11CF18941F101C57CCC796773ABC8DED9CD91FE5788806C05E548895354AEAC96546D55B0E94A59F148D061F42AA398D822CDECA4CDE79E13469BDCC44FDC990F366BA5978C15F97ED80CBFD73B0CD
310
9B8B83A4F6845BDFBFAF034019473FB9A63BD55D3A4A7284757071574029A4D016DCCBE95DD679EF3C4880BF169422F8C89B68A988D2B13793CAED4F74DE7486C72DC94DF46B8E93D8E02EFCB1FF9B3BA10C8AE7F653DF94F4AF466CDDCEF5776687F7C4C14B63E4EED1719DC2EC482D7DBCC7AE518CDE3D5FF86D39000EC3
310
673C0044E1D308BF05F74D1B5F033A7D1BE7F74BC55BBE3E4A20F920946CA0271EB17BD2B80E5660ACB8A29A79F5E4BBA49D4D945B6EEF4A7EFEAA65E5555BBB57A7E15D2F83C69F30BBB978D2B39F1F26FC097424D39BB33CA3D87ABF64E307938B685BAD44F71556A30B7E712CA4FE600613C3E554B69ADE949A7CFE214D
310
F1FFF05CB82151EC6FC31950239F94CF7AD39DC473F6EA356E5EC2C4EFA04383CEFE985A127484366FBEE3C0EC4FEA363E4F6632AE781392FD45D67B63FB8DF70E82734F431FD3443172A0E30A83D60982D55FA6A2CF86DBA8382502ACC6CDEF3B907982EED1160E14863FA242F9757347E1544275CCDCF71ECD5F8621CBEA
310
326B8BA884AD7F825781923E66971F04010D574C541D8427A438A37EEF8AF88240EED7362C953F5A81DE2D56109CDE2524EA0F5D2F87308C0C47BD97AD605878AB8589E17CA83930CB5E0DCCD75853D68B1AB136594926DE426C367428E9334AFAFF90ECE221BB5DC9E5BB53D2CDEF954EAA9CD814F0E5725F1965DD458E5F
310
8487683AD86B9D0076BE3EE91EB1CECC5331A67A3F79D8B27587C12EC2A6A70474749F27B4C0BBAFB94B34189E88DC18964BE4121B9137FD516C7755356E50D6714E31ACD222621EBBCD1CFF81D87479056A9DA0E0B8EA19D24CF937DA89F78E8650CCBDC110AAB6C4E46DCBFD0446BA9E2060E81F314AC2031E88135E5476
310
AC0160EF5C0DD2EEF1B8B5CB2D198BE9A554A9093B5F7D7E4B5407DDFCA1D9C152FD97F55BFFFDFE802954DFEC8995B983E28AC92F1971E28F531DC407A1280EB125F64A72E617EFB27DFBCEDCDA2D6F2BDADA36873EE46B9BE1782998C63DA7182BC383FB6FD15DA472B175D7E8B4FC88F38D6E07FEAA3FA3CBB8F6B449EC
310
F14D2175E5C5CCA3A42ABF24CA6C9395AF74535F4DDB38CB84F56614B0FD32D7E19CA5CF988DB4449C40E23DF2B16772594554579094450F56F253CD25EA7F77366FB1CFE79696C428BB64D5A41E986189427E5E4D7E2DAE3D5BB4972B3DC44EAABDDDD63A2264ECFA5C786EB0EE1FDC5BE34FA0F08376869FD1E61EA06CAE
310
15191135445EE8F0394161C3266A596AA035572BB0C8876180D8B9C77D307DF9DCDF7365ABDA6F3A2366436457A4DFC1F259666569A9E4A79C817BDD5610E5200FCE894A358EC72858D50EF67545DA81C6FACE3D457BAF70367E1E6BDD9A952FB4F56247F58F523B97E640246051A72F79BE42FFA0B3187F63097F91C48B86
310
8586F714B0EBD5A00A8412C1236E1298F60C72BE6C96B82B404CADAA304AE9F303176B14BA53FBC2D5E86377E35542019E24D97B96A49B2C0E5006E7795954DEAF5DA58958839043C6C70BD3B1B33B6DC5C31316D8A6923F142E26F6711A2258AF977DDF1F970ECC4F1F2B434B96D81BEB6E89BF3BBB3C7C8CC80505070723
310
D6D7D7D3C8CA27CA164A26024FED94B12A86031867241DA53D929636DA600F050BC40CE48B8BA03D69224720DEE2ED2127390BDF5E6EA64527BBD4C4C63FA76BB801FEEC0E61218EC98A8A86CD8313781617877E66692839B9468CF4DB8E50A73986E558E309C0D6F676F921BE02F1185454DC75B111572FF9D27D85EA14C0
310
5AD7271225B391C4275659CA4A43759D0BA44639BE4C30A84DB7F67A41399FB95CBF923B1B1672ABC807C1590557FB18D811983FA97F5E609516D62281D38B1281F68FC75528C35E4CD7DF0F7DBB5E5DD69C414EBEA2F4A5B241B996BA77AE6C772E367408C633EA3E438B68563EA8BE7667F3A4C4FDEEA52ABD78A2820F44
310
3B7914A15F180018D231E64519C56A12F6CA7C8DAE18F06F6B769DBF92329EF6A5D18FBCE600F36BD8E8198DE5CDAA96181F3A756EBA5501CEE58F497EA4F418A2B82565B9BCC611713C0B708CCA1F398B78C5F7D03B3437CC18F13061F55C7BEDADD5ACB1DB0E36D3CE47FF6EA1A563A57E9649EA5D14D1A50EAA45746338
310
1C073777EF1600607BAF6428A7DDC079D47A204EF1E1F1F0589FB054D45E02CE623B3823C317C601E589E22B1E88B448524B86A82828E32345EC18AE17214B42F8C41C6D428016D9BA31DDCB47572561E5A402E5BA4FCE55F78AF7268524AA04130F3A20BA5D1E9F9948EA48FC8F5314FDB35E21898198060034ACE5E3E2BB
310
CA34092518F275190AF65F45867FF0900AA4B81F25427414C372BF51DC29AA855C5428EE1EEDD6B849AD60F6E73475C2D2523F8A2772C840A478DED18A8C5C91B085F255DC4F54EA7AA8947354FD17ECF8FB3B4A0DE7B483CAF3A1165EE05BBA413E5C1FEF3DE1D6B8F2F3F3251C17D9FCAB48A9AAF63AC773A0E413BBC46A
310
9ADF84A566FC920E4D8C52C9769EE3301CADEEEDD92B312E02E2A7E35B7F1E7D203FE5A7D75578B06E99D0E46FFADB8FDA17ED8880390DA29094202D6F645F76F6F96409CDA05495A96E84B04A00D1A6C6C81D7F3DE9376E828CCF144EE50E364ACCE7237EA0BFB5607ED1AC3CFE73794E5B61739D14DF1743441B1AC98F00
310
ECEDE9E7301FA29755FBEFA68C91EF2B314CF510537EF1ABFC9A762496280B546F5EDAAF8A5B387D469FC9A878A92828C88608453ACEC6094DCA54111E7AD5B2663DFE2DD151B7F123B9F4FEF8EE36AB125FD7AD52A59B1B765B3E3F73E3F73DEA93875004D2AFFE3CDE9493B87A9904DD052028949041A91DC0E1BA47BA71
310
4343FD5B25E0A6A09503AFC17C790058A836A324FE31D7893512E28230332F153181C1E018E1124EBE1BA262AA428A518237D1EA7275E48C5C561BD19ED6912EDD8367DA0F31E40EEAE9683DA9257525AEA7B632B97119E17145A90231768A4F3B9120FF32E8319B015E3CBE26F1A754177D8185345817C096B0CE443A955D
310
13AC15E1FB5DEEA0239EC32A3C92241A237B0B02FFCB4F93CF2B02570C8D192E2F2A68CEEB42F12E6F8CEEFF46C251E22B4341C56FB08CCE550E7A9D6F4D6564B9EA52A83D5BF2C6E03FA19D2775E15A8A7ACF30A13C259EE7F5EF2AC3BA354F1500E1A07FC63FB4686E2F12EC69719F9ECF5FE3F35598DF2CE944008CE78F
310
0911BA5BE5D0A34E0098FF038669C26030BA9B300303039852A8F6F496341737CA7E0D2E3AAA36DE0A70AA7D9CA0D54D9AD84B18A44C9E625475E1C97B93BEBB38DCE7D227E67A2D00F531436136355F243D1FC0D712C5765754FA22FCFFAE97919161F46D6E61ACB37D83777B385889770B50765B127768443A5C4D3A4E35
310
A3151111F146B7CA116F918A049F1C272F2CD7976C69A0068773451659A97E0F4A08FE604C3FF6CE7385DB19F4D3ABC8A0D80DA8A42096AC377DB49382B36E270B6FA7570188B4B7D1DDDDA82ACA487CCA5D38BD3BD039ADBAFA4ACFF27809239B722081E2EB9F145320553D183F28471C388BC8814E5045676767AB58A8E7
310
2D1CED2CA731379515D2E533E4CF0B39DFC625F97AC4836831A4DE330E87A8126FA17EBE583D614E71E22A8DBF2825599743E0640037303E8E1B1E8EA4E1ABFA4F62907B5E4E0E5DCFDAB417C36C6848A2B8D15F1E505434C0707E16B1CFC2A1C36A42BBF55734F8F4301DDC2A5110CEE8C0747F69519265012A2174BF4E95
310
5ECD4FDE095A3ABC70536B7AD0B9D7892F81287D667C108703C9B66A221E9A0929D030008F77FF6F5D2108EF5706FC87A3069B976F7C9FC3239D13D283CDEA83597461079FEEE049B0F392889898B7D87D31F8D60ED7B56B91823A8E4EDDB36C6172ECEE42BD42B12CD67994FA0F0DFAE9389356F4CD4425A4B8AA55CBF7EC
310
D585C6A2C2316791E43D5C06841ADBB226A87FD61515FFBB0167B74E56BD7F3E90A57A97FEDCBDF483A0D6699A8C0849CAEB4947FAA90D8E332D9DEBD9F4738C37DA0CAF9CF3DAA68BCB67C420459C7A64498D6E848E5CADE92BB6901F607AA331104A67F7CD650EE169B1DAE94D2C31C2F993632259B6957E246EFE4C5481
310
107B07118607700040E5812A2A2A38DA0076875258C753F60E0F2662C748EDD5F3F3686B8FC3BD6FE631ECCAA1E8B1C1E565AD117E54893E79F4672E32F9E46B2A183DFDCF3EECB4D4D077DBEA0DA254D256045109670050129E9B9B1A9E4A11344D61497A992778095151510C4BB7EF2009B63AA4360635312E4CF668B7E0
310
D3D85A8688E2BD83B569439892ADB63461930D428E0DE42E4AC57CE48DA5CC1449530D8BD3D6A0F08DF20C8E8F570F2CFFFCEA286E30969B4654D498A58D9DA782E19FE3F002181838925592C4A1EF0B332D88B61A92C644547BED490D3A42CFFAB70E36D961F694F6307F72FF15A1C79D5B1B5CEFD353D9E2B52566DEC8F8
310
F09CB3E8359C0F68EBBB7898243E34E12A015B2685AB303C04D3A9E00671FF3DFF0A184E4A2ABEB2B666AF5B3A209C73D8EF29DCDB069C9F391EEE9DD0F74C7BCDE16F8F02E3B8816122BBEB50665775B600549D8BB33A54A6BF940C028118BC6878C79958D6784F9DEAA6E26748386FFAF8D0D0101E2847B6563F5D8DC1D7
310
8F787BE00E2C941AE12148D4A81599FE8F68D4DA5CDED75530ADE138240300EE13B0FC13A1687FED6774662C05A2B7DFB186732F0D7A93545D8B0A6390AE5054D9CB582DA846D7A061B3358B45E2B52DDE63E114397EDB7E09233A579155D795BE76102CF277F4DF8B188C4F2879BEAE3C08347124BF9ED23B128259FE107D
310
31E34A652F090B30B39E0D9AF917B76A2806135621A8A60681F16AF216514BBD02711585B5B1AE823F4B2D0369EA5B6BCB863072727FFC871CA6C9AB79A814D989057E9470A3D238BC87CBB4A0EA49AFE2B86F22E499793CAA9047080450166BDC357524561E258C77CB697F1ABB32562CF87C3B7AA12F911EF19FB3E5C022
310
22E887D08202A60A17151F5E053A86B437771088B4FEE14D652C43E8D939995D34545E12E2FF93D4E366EAD25F10CB7DED141563C3D0C447AF06078A91135FD4B9611583CB4BF3BD167F2399CEAB0E0100F8FFC305F00F1711717173138B4B48C83022295DE657EFEDD97F238ECA80F528AFB4F8D67AD4E2594B9A3AA86D74
310
87EFC313BA95745C186F0CDD84CC12DC9CB0424B42203D351FD9C0A3AF10CC7F388E0329279087386421F194F4A29464C1DEF7EF8BE515E4A199DCD5B909342598D8FE6A231F71336248D5CEC5454455C7BE383B3BC7B260FED27F703FDC39A170F3827239102F59D4DEE7FEF82EAA1A5E4BA94DCC4CC44E7E2EDE20F24244
310
E4454369D2E87C3F823F193FD4FD27E1C23984B01898D15ABC20711A8A558054951A6AE280096BA36CBA439603B7B0B4C45F248C14B2383B4B5CD8ECECE4FF859AD4A6CA2326D020EF090F4041D28DB66E5256B56232CC52829DE8060BAE6BBF37D4B7469B822454FE93210A3E8D15E69FFCF01123222611C51C4FD0A041A0
310
CFA2471CF6BE38D2B20FA4C3525B5B8B586759475CF80ADFE67A284AC24651E52B8E683D24C2622642F27E7C3C22783BCF63648BC398BD6CD0D9C97E7E7E3EACB6126DB7A6C1FD9F1031302EE67ED96F22B77C7CA0239BB324207559B105E4693EB26EC46182A92C9C0DBD24F29B31C5C5AC1F84300E0E17CEEAC15F5736FA
310
4A98971E2F1423BFCD68D4BBD5F86E74B40A369F39507C88FCDB35D2DD8DEBEA4AF999E23CF2816D204200DF6E611781B9884C1AC8888B4DE397320472959434323A5A36B22A8E1F721A270DF3BD65E4A31C11FF048AFB0D8B7B6881423793963A23CFCE935FC189ED36FAE35C46DA3574C979E4394BE52084F3081837BE03
310
3396D2EBD80F1F691B273F660D2B32FA27A33B1DE4ADA5F0FA4651511102DFA410DDA86E065272CA314D5249DF91B06BB92807B28EFD54F08F7B525252782CD276DD02E6B0319B13DF87B1F6361AD6B28FC0D711CF445429B9E5A433CD493051C49A9E03DDB1B147D880253514A5DED88009018620EE229101C041950E2D8A
310
A8E1F5F5438E0C0C0C60EEDEE9E3E0C051948C69F84BB7B2A48A1F3C8EB9E6864687F4F4F6F6E2FA87608ADAF9C5E117B7C1A737E710769DA1D15ECE6A84502AA855398712D5FB51BE92E4EF824969CE18278798AC303C2C7980DD2500ADF8FB1E6D6C2FAAFF9987178923334A244758BAA01A9A1B70FA5097D01E1CC2A58D
310
AD0EC94CE6430AA9B0C10D75E3C6BAC670EFBADEE1607739CE0FC18A2587E3EC3058562014C64219C69BC269082D5C2F4A659278D585755912176D78A1B641719C2A394CED495A1AC5D583FD2F5EDD93308EA7EAE8A6DD396598BDBD3D4CFED62D18A5BDFDE0DD5C80D1A89BA62697B131AE7CE9A6594138582F1B37D68F17
310
49AC7CB67A70695D48A4A056AC1FBD4E82358CEAE38F54B95A9016F9000F9879C0D9D131768635CA798895F27D6F1614F11F2838A83611AA51C9A3DDB539D42979C29F10465655C17BEC3E2760B80DCBF609198C7B171A531905F3EC218D696025975E986C6B4C666666787271F202805577DD5A3EF0CAFAF91B62DC4B2DB4
310
217A7606282F31D8DDBC290593BAA93EA6353AFA9939B877978481E15CFC9F2755CDC00C538F63A4BA3E80AE009B73CA0185687D339A507D165B74290D6EE46D5C58148F020C3668ABE9EF2F7549170DC80DB41FFC1D678FF19AEB10C7133832B104B80F691B3138F97A92D26E551F1F110400D45AC71A9B9AC41A1A1B1DAE
310
ED0B0810638EFFB511D46B121C6FEA0F38CD00E03CFFEB9713FE1F9C263E4DDEC160D0497FA9A132BA608584057FB15380825DE6C7FC3C667EE947D488A09898D8E939C4953BF4EC9836344D2CC6B2971B2A21A572B06096F4982D2CC7232D46E8EA69DC83722E267754D777F97F96D5DA74E1E75178084D0E70F12AD33E5F
310
71EF2AFA599B2BEBF60A5BE475F444F240CBFE8143C334E7ED9150FEEFEF7EB020C4DBED388DD1D6A167A76F3CBF119B578AE8CFA7736ACAFA4440A1C47185638A0D2F3EB5BDDEFDA958FB13CE4AA4923D5BF840392D45544329525749734866684BF7F8D9D54D892E19BCA9F829A0F8BFCBEEA6CFDFC61D74EA1A645ED7A1
310
FF241739F15694BD835B66FEC5677E40FE69BD3F91AE402F036537218A401CB0828604AD189E575015C6F3F6BBC8AC79CF6C70653847254B31551EFCBEB5978B9DB85D58D0FA41A9DFE9C624834AA04949D24B5AE6D299E072D152D12097920F14AA92C31C3B97E28B6C2E6E9C23D63043ECBBC0A60FDF5BD0C33C127EA8A3
310
308B8B6AFFEB28B4455BF6E7AF4FC6222728357EB8E46E85053E6A8843AB23295BF838ABDA94658FEF3F832F147046B4ACD6F7D48E8FCC9618582961C898D1C7A253C91BFECBDA6BA18A1FCF70755DCCEE2222F41B76D23CA98D0CB3D95F0CF66D57FFF65E2A90F5DF40FC3187621E981BD0BC1D992787212688976B94A8F0
310
C6EF646624B570B78E068826F87CE27041A95C9A4871FF65CC17FCB1639629AD6A9517000D63AC231F3D741CB8430777E7ECF80CE7A3F73C0F162F7E56AA71F4DA80A33CD6ACEE78E2C11FAC03DAFCE929B106F8F6B3ED2DC71FF994BD9CEF4E9A94896EF1B6E2B7B4978168BCF0847A3D2A4F1B0500B926E634B174548E9F
310
BAD27153FB5FC36799B1E6C7C38A94E1F9E996796D7B485E635D5287A2AE76FBD11A341DB3F8F810385BB7296391973DC6C37C452A9305AEBBE0CDB6C566DB59FE60C8E94B1FD090354BF51439FFD1B48D725228FFA88C84F686F547107A7A235665A4593B7C34D748C1AC8D56DD5DA861EEFBADDECBBD65117E65851F9035
310
1AEB65F0EFCFF4BCFEF24CB7A5879699FAC437A7AF9099186CF006BB923A59E37D7A36A29FD8D2CBB914A5E9D0A8FD212FBF796AE9A67958FF1D5D8B85F78F96219D4714EB919929241B6C018AAE0C02069F8D919961EC5DDFBFB7573E3AC8E08BFB7C8534BE6DE045B3CD63DBD71F7638BA2309CAE398EA3A7D8F98BBBC7A
310
EB367EFA5CFA27A9F8F2F52FE878058E6209C026453F8E7E8A237DFC389E9590F6059B397CFD65183BBF936E86896612A5B5FEE49DAC8455D026218AFEBEC12B3523A45B57B82C9C97E02ACFA1184DB18E48CF615DBF39C3CC6F0B4AE6BBEEA2E39D944E290302FA3DE33FA7E40296E2EF7BF1CD855BBECFAD0FD622BEE974
310
6FC4FDFDE545AE6E3BC234CADF83A0FB76DFB145BF3828AE3436368AC24989454F8FF70A177672C711CAA1A76107218CF948CA01F873520E7A2B118EBB161ABAD432932029628B6761590C98AB590C8C8C79798CE9F715BA696E839E9131A4BB68BE923F1747FBFF165331FFDD4D05997ACD168F12CA75348DAC04C7F509FE
310
83898A8B421181AF492861CE81E4A2DD0A30850CFA95E05F097FF70F9E777310D584A75BA7018922E271DAB1D785671157685B7D383D3E074DDB4F1E44EF04B07BAAC75A062077C54B9752C738C9D804D402E02851F3F89605AF189738C18C021D2139EAF72513824E10DDD3047BACC8521ED7E98B257D1166903B1B08FA6F
310
918FD7E162913FEC7D0EF4787E29C35FBA8C6E2C9C20E9AB30AE42CA2A01A090E7D010C1B5BF9CEE2A304BF3A987FB40D836979B79E18D70F257DA61E808472DD85B82761825779D6B90CAEB0F23360C6F80A7D7D77545E95B3DFF0CF96A827F9B5BCECD2C9698718417EF80FEEDEE938AFF55859D0D540B7FE09435583A6F
310
04874A0C7E8CF234DF4879722000167F5872CEC6BF3EF7E5A8CC8121E6A359227C8A29C95212F9F735BC72A887D56B8F309FC525BFB4FD767AAEC4AEFF249CFBBD2DE1AB9969A6155C7D8DABC307E47324C1F916C7BCFF40ABA5644E9FFB9238D19ADADA49D9610F01ABBA57E4DFCBDCCBB2B93C8953206C91DE01B0E2651A
310
6D6C31721915B31F7B7CBCE55466F6D70402788FA91D73BE4ADCBA99A35F17D6B83383704917D6833F0FA3CD45C926ADB8BC17999A4A0AFBCE2541F7B8CF4C2F5FBA611B3E626D64407CB32C122DFF4EF8674D6EDBB86C8F7C6A16D50FA685E2CCA34F8F7D1D8265BB0042E9D7F1F666F7BE5FAA5184DF58E12122A42EF02F
310
461B3F369AC746F96528AD208512AB56844CF75B97F352DF7995024FB02855385854F3798670D01CAC771AC3E1889EC25F61A20C1F8CAB46898817F9C47E2CDA1F286BF2F358298709FE567C91133E2638C8B53975E753EA8BFD3578B5F7186B7BF084EBA3F77BAC3132A5779902EC22AF2D2E79F42D324E083386DAEE9810
310
D1B44A5DAA54513C7A71E52A4AB9257D975B621308FE4D2141CC3DCFE946C154A3C1DFCCA7629EC69ACFA831634ADDA93C0388D2A9A2DDAFCF957C6995BCE7FBB6DC4EBAE79E63EB08E9A25F52F67076F7093CA545CA3053B5BF576DEAD4E0017143C5F759F32B2D6F145B52B67B48909B7C7FCA6586EE385A2189C16932CB
310
6DDFD9152AE317C430492A578ED27B72D85D40C7C93C097939E1B50F4D67F05334FE9DC362C30B7FF561B95259138ECFD9274C8D695C31B14D4EAA9F3D7FA8DDF652F8C5DEFA23284C799B7D94416DEE81E05A866302DC70192A5368EA65E1CED8BF107A1E2D3119A71E85DC1A7B0C1E93274CE04DD0F2ABC8AC7C987FDB00
310
2B6F81757B43502EF7A0D92E416494FAEEA4C9C090CD9557AA4D532F4996A272B94355C5A0E4974EEA9627476F30809B94D8D8D860062E02204643BEC7D0438AF800FC7E2B26955D595421E83C69E1A07E0E3122285835F014AD538188CF9737CE76D464A353FA55A001AB2526B84E985083693BC76FE211CA1D000679C889
310
E3C009832C87E1AC2EDD05C302557422DF0800E316FCAC86978A371F025A6C7DAA9F333E7BD160403A1A06EA75AA9888FF01504B03041400060808005D80FF4A51464CB48900000043010000360000006662782F35383233414541362D364235372D344336342D424231332D3036443536424530363138322F646972656374
310
6F72792E786D6C9D8F310EC2300C45AF127987122606C71DD918B841D4B851A43646695A717C52A85029031293A5A76FBF6FACEF7DA7264E43906840EF0FA03836E242F406C6DCEE4EA06AC22492573150D1F66C60C640E8938CB705396EEDD86DE9B5042FE27813D640EA63BB001C722AF6E55CB61E4863F58284D5D3F53D
310
D715CE1C3985E63FD7F1B7EBDD617E9F1E504B03041400060808005D80FF4A213666C33E070000211C0000340000006662782F35383233414541362D364235372D344336342D424231332D3036443536424530363138322F6F626A656374732E786D6CDD59596FDB3810FE2B84F665F74197AFD885E322B693C2E8A62D1A74
310
B16F022DD30E37BA404A89BDBF7E8714298B8A6CAB1750AC03C432450D67BEB947D3B7FB3842CF84719A26D796EF78162249986E68B2BBB68A7C6B8F2DF47686A62C4DF3DA3E0B253826D79658B666D31D4B8B4C2D6DC816175173F56EFE37E221498885C208737E6DF1F091C4D8C1459E6E087F723638C7CE6EBB777CA7DC
310
6892DD319C3D368ECA3023490EACC27A02541407BEF91344726753576C30B6F5BB6DEB9DD9E64AC14D4669C2739C84AFB86A1CD73BC155E3B8BE3F58DEF686137B3818F4EDC1A8E7DBF3BBF9D2F6AFFADE62B4584C6E6E27169A4DD7691A550AC848B2012D1EAC993F75C59D4A7C85421BDF619A24245468B66DD810459712
310
DEC4C400D697A2D51452CA5A5BE87714FEC4B64EA0182C19686BE1F477DD7AD3F53F0002EF62A58C1361E53C67A06B857DE90FDED42D570DBD508E629C1346718422BA66988182606BA920838CF016410A09CCA41635BD3AAF60D8977DA98DCB6D1145C27FAD99F4B400FC91E45C7246FF25ECC87DFD34E009A42D68928F95
310
B0F921031293A92B17CB7BFD9EBA590289B611DE81B580986253BFD7C06B2162C16A69CDDEDFADF70F223EB41F9EB134232C1796279D59F99DD660CDB4C0F83A8052E26AEAEE88CA6780FE03205FF182A6A03946F783FD40CBCE70C2B7298B413BC843B607FF3C242E5F5D4DDDEAE1194246AC3C8529B8ED0FC2D410C338BB
310
06E96CFA0C469FB2BE12EE21C411D8F43D4D849F83A1A028852588F7DBF5DE9AAD2098C2223C8523901EFEA6AEB844F055D28178D3D0505BF8EDA028ED304D3F3BEAEA1DD80CA361A52A43C653F80E7F08BE37CB87F70F05DBE290DC2BC75E922D4D680EC9B49D210374C3E5BFAC3E488F9C1FFEC487BA0F1ABB423867978A
310
C0D1A29707A517241503AC883C5CAA46AEDC5370F728C209490BAED6DB02559846290BD687A0F4E1D6B3FED246501EA62CA0359841760F19CD0428D64CA9AB8A84CE11270E26869932C15DA9D6605DC45980E3B44844AC7D6D8B4D3E20D0085304AA929AB66CEDB69AEC866EB70587E8D54A726100A91C5A132E4D7C0081AC
310
8D5F46B60C43164D93804212066F693DC138A002EF3CCF9C44DB80465111075B1A412209629C9DA0DF51827AEA7A228797946D5A099A96A59D52DB90005C01AB41D2E9AA0CFA4AA78C3C535167CA84A6D381B14315A2D66C70225F8854D102A8364669E6B783BB7E6F3EBFB12783FEC01E5CF94B7BBE5C2CEDAB05544FC3F1
310
7871E5CF9B7CEA70554F78A04A51E718FE973F16F13AC134821B426CBCC9DEBC95E9F3DA85D8E80EC7BDFECDEDCDC81ECD8757F660311AD8F3B9DFB7BDD172389ADF7A237FDC7319E169C142C2DD9EEB05DA24B364778A2BCDDDEB200A75CDE56CA7F5D514E6FF1B44DF359382A1C45F358856B1ABA522EC1A44C5A3CD108A
310
C32791A38210CABE56F76904D1261F6D71EE2BE3B2E7F43DF9F1FD49CF9BF4C6935165EC6703B53CE7BBE35C9B0421349E451EA4190E69DE9E501BB8748CD35F955B9CBE3F44804EF5BF3AE47C9E51870434C63B126CB168135A02E325095A73D82E4A39A709E1B2CD7B55FE35687A0E545366CE6D3142CA8398E4F85BEC4F
310
F60D0D9B86D81C05D090E6622470B12AA80C5AB520A7288AF61712B794FF10701C6751D9EA5EC2C0EF69087493D36671826971C433D85B80F3C0DB1039B9B844BD625FD707AD5A6B529F7C33F913F0E8BAE627C2A38FE85E3A39437F223E63082AA3A1DFBFD28AB884953E2A178D5C5440EB191E821742778F9D0ACD6E3AA9
310
956C65519D9318FA589C17AC93BF8E86DEAB83545C683844EDA4AF2C0E6503A75B38404F7670A7CADBDA315087D204065D9D04792545AB094B5DC8A19E985D7D855F9F55769DEA77C7CB9F5E31D79D2F96D39FCB3840B55C0660157D8C9ABAB5EA36EA21FE82F31002E983FCB6E7E0111BB239366606B9B6125DD7A797AAE7
310
9508A8318C6CB188B3F7E222FA8C41D5D03E7357156D6EB9BE1289CD81E9F4910F836993D6C7770F0D2AB0D2F9E94F0223F2D2A0A05617A21B3E43EACBEAD8F437282889BEACCE3CFE4B74145A81B5391A8C83791A5198CA930DDA9114B2378C1D3A741B2C265C6665305E15A4F42B810E4F3F9743D51CAF23FD74F8886132
310
1DA95EAC08612A0A19F3DA52EBE83798838A51A49C4E394FD086A91866A182D16B0B2C36A7D06D396B9867C9E9A1A4DE98578263E36427F27DF954F5FBF8984007A2D251AE6A4F175C9464863341619BC9170550F5953766D36F175DB383700E97EB22AF84392E1CA55120E83702A57030F67B52F0EEA1A0382F97EFC83D06
310
249D46F367EDA0A46AE798EDE47CBD86F7CDF2932B46E3AB8F288B8A9D50E7B9EED7A0648BAE3B2ACA29D4140C4389996151432EDEB89F580AEF98627447C108D0EFFBF1E80F7791C6719A944BEE8D7A53851E1EE1BDD3C6D5333F68E33D7FE8CA29809AEB076BCC898337FC091640B58C8AE16809B161005534AD1980D688
310
D0053C66EC5F2D91AA8D6A13927AD815F0C8A13E0247122F7384DBD437D42690E00BC095BC79BCD00B5397C1147CF61F504B03041400060808005D80FF4AF6E03424E2000000550100003C0000006662782F35383233414541362D364235372D344336342D424231332D3036443536424530363138322F7265736F75726365
310
732F322F636E782E786D6C4D90CD4E042110845F6542E271F819A3AB1B867D094F5E3608BD2359A027FC6CF4ED8515134FDDA9FAD2A92E79FA0A7EBA41CA0EE34A04E5648268D0BAB8ADA496CBFC42A6939209B1FCC3C814758095749928B925ACFB902C5C74F55DF52E5E87C8CF1B4448CE9CF7B891C9789DF34AB2F984A0
310
A9AE052DE42BB5BA682A68828C351968278A0B304E9804BA80256AE1E230F3C3FC28DEC4F3912FC7A7D777C93AA9E407A21FBC8B0512EE0F0B37D8D6D81271C93AA0644D6E50FD8D66FCC5A32D9E64CD563297D43A1858F9DE1BE682DE80DD915F5749D69F6CE3DE409BBD10F503504B03041400060808005D80FF4AFF15A4
310
A45D000000800000003A0000006662782F35383233414541362D364235372D344336342D424231332D3036443536424530363138322F7265736F75726365732F636E782E786D6C4D8B3B0E80201005AF42B6F75B59F0390B113044D83508C6E30BC6C26AF226F3B8BA6360974DA7271430F523308B2B198F9B80925DB70053
310
9227A2FCCB80A18E5640D320F996A81C9F32D6E9129A0D1EF74FCE750E6D57BC7165FBCA07504B03041400060808005D80FF4A6EC318194301000056050000300000006662782F35383233414541362D364235372D344336342D424231332D3036443536424530363138322F636E782E786D6CCD94C14E032110865F6543E2
310
7161B746AB0D4B130F3E8107E38D65A72B96850D0CC6BEBD50B7ADC6347A68D2DEC8F091FCFFCCCFF0E5C7608A77F0413BDB909A56A400AB5CA76DDF9088ABF28E144BC1BD73F80D2385950334249789E0BD77719C4A1DAC6434B96AB45D4F4589E8751B1102299491213424A857182495115D07614D3B8992D6D44370D12B
310
48EF510F30BD571E244247C4ACAAE765352FAFEBA7FA7651CD1637F72F9C6552F0D63933F1DA2278375ECD2AE5D2D12639156719103C7A3D51D90311076DB4D596B3742F78487A6D3F71B81933378E462B89A951CC29042C130472E0EC0B169C65C73F7C3F3E3C1F34A453A73D28747E73B636D4C7DAB097465322FED7852D
310
F89779D7BE25CBE79BFB51C393B093D9DD2537A4E8FE4E42CA93B4BDB9C40FB09776FAFCA7C5825A5DA2E99DB2137966DB1598069F37A2F804504B03041400060808005D80FF4A783645327E000000A30000000B0000006662782F636E782E786D6C4D8C410EC2201405AF42FE1E85B6200BA029DA83349636440A068BF1F8
310
82E9C2D54B266F46F69FCDA3B74D2F1783027A22806CB8C7D9855541DE172C00F55AA618F7BF1BA0306D5641C5A0E59A627E1E68B6CB947DA5DE85C7019968DA611C38E6865D7077E51D3686B698F01BE366249C8AA618E7AA94F9F5CAD6BCFE02504B03041400060808005D80FF4AA6D797065F0000008200000007000000
310
636E782E786D6C4DCB3B0E80201045D1AD90E9FD7516806B51190811670C8A61F982B1B0BAC9C97B72CA7B1037C6D3332918DA1E04D2CAC69353902EDB8C20262D23F3F59B81A079470595414B17391D1F19B4730A5583A7ED43BBE4025D9592775E5ADFFA01504B03041400060808005D80FF4AECFD112DA8000000260100
310
00130000005B436F6E74656E745F54797065735D2E786D6C7D4F4B0EC22010BD0A61DF525D18634ABB506FE00510A79458060253536F2FD89D5197F3FED3F68B9BD80362B21E25DFD40D6780DADF2C1AC9671AAA3D677DD75E9E0112CB5A4C928F44E12044D22338956A1F003333F8E814E5331A1194BE2B0362DB343BA13D
310
122055543278D79E6050F344ECBC6478EDCD76CE8EABAE5449AE4298AC56946789C28AAFBEABC53F3EAF09A84A1441B91F0101CD4780756578C173A578FFDDBD00504B03041400060808005D80FF4A3DEE336E64000000790000001B0000006175746F6465736B2D64657369676E2D7061636B6167652E786D6C35CBC10E83
310
200C00D05F21DCA56CA76D41FC96062B120735B69A7DBE268BB7777961F8D5AF396893C2ADB70FE7ADA196782C2DF776D7A97B5933C430F15651E5469C55D70F80A4992A3ADC954792C525AE70A1E4D6AD9816CC044FEFDF01FE3FDE907802504B03041400060808005D80FF4A21A67CB2F40000008E0100003D0000006662
310
782F35383233414541362D364235372D344336342D424231332D3036443536424530363138322F7265736F75726365732F322F636F72652E786D6C8550CB6E833010FC15B477834D48A0917194A6F80B7AEACD320EB1126CE447D5CFAF1DA8D49E7ADAD5ECCCECEED0D3D7FC283E95F3DA9A1E4889A15046DA519BA98718AE
310
A883E2C4A8B336FCA24161C4AC7AC830303A391B970D92D60465326AECA8365078AF0214F2919A1EBCBCA959942286C4F0F77211F22E26559272E5311AA31E37A91E939BBE6AE5800D6DC32F7C8F1121F80D35E74383CEED8011EF3A8EC9E5950FBCA55516331AF4FCB35D3A25821A81D598B408B76847DEC9E188EBE3FEE5
310
835699C9A80F2EFDBC2DCDDF253AAD56F48F5B5CC6FFDDA23661576F6EABC20323E9B8E780D12AA793CA33BA547392EC1B504B03041400060808005D80FF4AD7AB6B28F9000000960100003B0000006662782F35383233414541362D364235372D344336342D424231332D3036443536424530363138322F7265736F757263
310
65732F636F72652E786D6C8550CB6EC32010FC156BEFD89097DD0813A5A9F9829E7A4378E3A0C410F1A8FAF985C495DA534FBB9A9D99DD1D7EF89A6FD527FA609CED81D5142AB4DA8DC64E3DA478261D5407C1BD73F1170D2AAB66ECA1C020F8E45DBA2F907636A22DA875232EA00A012354FA969B1E82BEE0AC6A95626684
310
6B7D57FAAA26AC59FDE4099E921917A919B39B391BF4208676234F724B0963F48D6C8EBB0D39B60325B2EB2465A75739C89637452C7834F3CF76ED51451C41AC286B096DC99ABDB3DD9EAEF6DB970FDE14A6E021FAFCF3B2B47C07C26370C96B0CBC794EFFB8A6FBF8BF6B3236AE578BEB531140B07CE46320785352CAE511
310
61AE2551F10D504B03041400060808005D80FF4A037D1F76F2000000B1010000310000006662782F35383233414541362D364235372D344336342D424231332D3036443536424530363138322F636F72652E786D6C8D50CB6EC32010FC156BEFD860C7D88D3051DCE60F7AEA0D61E2A2C460F1A8FAF985D895DA5B4E8B6667
310
98D961A7EFE55E7C29E7B53503901243A18CB49336F300315C510FC58933676DF84383C288450D9061E06C7636AE3B24AD09CA64D4D849EDA0F05E0528E43D3D06F0F2532DA214312486BF95AB903731AB92941B8FB3A0975FA9744A043501AF31E910EE5043DE093DE2FAD8BE7CB02A33398B514FBB959E92BBBE6AE580B7
310
7DDD9C2F678AE8D876E8F04A0F681C4983307D6BE978C194F435ABB298331F5CBA79FF245FF7AC7C13FECB1CD7E989CCDA84A6DE0D3785074E529EC782B32A1798C6A3DD3473D9FC07504B03041400060808005D80FF4A1BDDA6B254010000DD0200000C0000006662782F636F72652E786D6C8D52DB8E832014FC15C33B0A
310
D6D66E8334DD6EFD827DDA378AD425553008A69FBFE0255D1FF612132473CE993933811C1F6D130DC2F452AB02E018814828AE2BA9EA02387B837B101D29315ADB6F6D2052AC15050830A0A436DA7533C4B5B2420554E94ACC20EB7B6141C41B7F2940CF3F45CB62E6ACEFE8EF71C7F89DD522C6F1D4478973B29A4765E5D9
310
E44D0A03E825CFCA73B9451063F406B3D32E83A7FC8260B9DF97089F5FCB4B9993240C536265BBA87323981515A029C2394439DCE077BC3BA0F4B07DF92049E8A4A4B7C67B9E45833B406FD70749267CC5E7BAEA6F3E2795DDA433DF34D1038AFD7A63819224E4E37F6378EB0CBDB0CFCFB26BB358B87B6810DC6A93F94AA5
310
DDB334B0C6094F8DA2F123C954F5CC23C14F3CE92F3CBF73F8A098AAFD6ACCFAEBD5D9A0BEDEA913060EF611296D5AD63C979B567C9E4FA195A5659CEB469BFF4C2F56973093F030E917504B03041400060808005D80FF4A802A089708010000B201000008000000636F72652E786D6C8D50C172832014FC15E6DD513026DA
310
0C924953FD829E7AA3422C13050730D3FE7D21DA99F6D6D36376F7BD5D969D3EA711DD95F3DA9A0668460029D35BA9CDD0C012AEB80674E2CC591B7EC9001931A906120C9C0DCE2EF306F5D60465126AAC541B28BC5701503FC64703BEFF5093C8C412A2C2DFB259F43731A88C66AB8EB3A0A79FD5DE291194045E105A6152
310
E11D7DA58723298EFBA73796272567CBA2E566A56574D757AD1CF0B62ABB4BB7279852F282CBF3A1C4E7AA25B8ABEB8ED0CB73D77615CBD332673EB8F8E7ED48CC199017F7E4CBF295E2ECDDDA7113C4501259337E01272C4FC49FD0CB2CFF115A9BB02BB683EB86074E63A007118D5383713CEA8D33B5CDBF01504B010214
310
001400060808005D80FF4A0000000000000000000000003700000000000000000000000000000000006662782F35383233414541362D364235372D344336342D424231332D3036443536424530363138322F617474726962757465732E62696E504B010214001400060808005D80FF4A000000000000000000000000350000
310
0000000000000000000000550000006662782F35383233414541362D364235372D344336342D424231332D3036443536424530363138322F76657274696365732E62696E504B010214001400060808005D80FF4AF270F13306000000040000003600000000000000000000000000A80000006662782F35383233414541362D
310
364235372D344336342D424231332D3036443536424530363138322F747269616E676C65732E62696E504B010214001400060808005D80FF4A88E57597CD3F0000904100004200000000000000000000000000020100006662782F35383233414541362D364235372D344336342D424231332D303644353642453036313832
310
2F7265736F75726365732F322F305F67656E657269632E706E67504B010214001400060808005D80FF4A51464CB4890000004301000036000000000000000000000000002F4100006662782F35383233414541362D364235372D344336342D424231332D3036443536424530363138322F6469726563746F72792E786D6C50
310
4B010214001400060808005D80FF4A213666C33E070000211C000034000000000000000000000000000C4200006662782F35383233414541362D364235372D344336342D424231332D3036443536424530363138322F6F626A656374732E786D6C504B010214001400060808005D80FF4AF6E03424E2000000550100003C00
310
0000000000000000000000009C4900006662782F35383233414541362D364235372D344336342D424231332D3036443536424530363138322F7265736F75726365732F322F636E782E786D6C504B010214001400060808005D80FF4AFF15A4A45D000000800000003A00000000000000000000000000D84A00006662782F35
310
383233414541362D364235372D344336342D424231332D3036443536424530363138322F7265736F75726365732F636E782E786D6C504B010214001400060808005D80FF4A6EC31819430100005605000030000000000000000000000000008D4B00006662782F35383233414541362D364235372D344336342D424231332D
310
3036443536424530363138322F636E782E786D6C504B010214001400060808005D80FF4A783645327E000000A30000000B000000000000000000000000001E4D00006662782F636E782E786D6C504B010214001400060808005D80FF4AA6D797065F000000820000000700000000000000000000000000C54D0000636E782E
310
786D6C504B010214001400060808005D80FF4AECFD112DA8000000260100001300000000000000000000000000494E00005B436F6E74656E745F54797065735D2E786D6C504B010214001400060808005D80FF4A3DEE336E64000000790000001B00000000000000000000000000224F00006175746F6465736B2D64657369
310
676E2D7061636B6167652E786D6C504B010214001400060808005D80FF4A21A67CB2F40000008E0100003D00000000000000000000000000BF4F00006662782F35383233414541362D364235372D344336342D424231332D3036443536424530363138322F7265736F75726365732F322F636F72652E786D6C504B01021400
310
1400060808005D80FF4AD7AB6B28F9000000960100003B000000000000000000000000000E5100006662782F35383233414541362D364235372D344336342D424231332D3036443536424530363138322F7265736F75726365732F636F72652E786D6C504B010214001400060808005D80FF4A037D1F76F2000000B1010000
310
3100000000000000000000000000605200006662782F35383233414541362D364235372D344336342D424231332D3036443536424530363138322F636F72652E786D6C504B010214001400060808005D80FF4A1BDDA6B254010000DD0200000C00000000000000000000000000A15300006662782F636F72652E786D6C504B
310
010214001400060808005D80FF4A802A089708010000B201000008000000000000000000000000001F550000636F72652E786D6C504B050600000000120012002D0600004D5600000000
  0
XRECORD
  5
17
102
{ACAD_REACTORS
330
12
102
}
330
12
100
AcDbXrecord
280
     1
270
     1
271
     1
  0
XRECORD
  5
16
102
{ACAD_REACTORS
330
12
102
}
330
12
100
AcDbXrecord
280
     1
270
     1
271
     1
  0
XRECORD
  5
18
102
{ACAD_REACTORS
330
12
102
}
330
12
100
AcDbXrecord
280
     1
270
     1
271
     1
  0
XRECORD
  5
15
102
{ACAD_REACTORS
330
12
102
}
330
12
100
AcDbXrecord
280
     1
270
     1
271
     1
  0
XRECORD
  5
24
102
{ACAD_REACTORS
330
22
102
}
330
22
100
AcDbXrecord
280
     1
270
     1
271
     1
  0
XRECORD
  5
23
102
{ACAD_REACTORS
330
22
102
}
330
22
100
AcDbXrecord
280
     1
270
     1
271
     1
  0
XRECORD
  5
27
102
{ACAD_REACTORS
330
22
102
}
330
22
100
AcDbXrecord
280
     1
270
     1
271
     1
  0
XRECORD
  5
26
102
{ACAD_REACTORS
330
22
102
}
330
22
100
AcDbXrecord
280
     1
270
     1
271
     1
  0
XRECORD
  5
28
102
{ACAD_REACTORS
330
22
102
}
330
22
100
AcDbXrecord
280
     1
270
     1
271
     1
  0
XRECORD
  5
25
102
{ACAD_REACTORS
330
22
102
}
330
22
100
AcDbXrecord
280
     1
270
     1
271
     1
  0
XRECORD
  5
99B
102
{ACAD_REACTORS
330
99A
102
}
330
99A
100
AcDbXrecord
280
     1
102
DISPLAYNAME
  1
Imperial24
102
FLAGS
 90
        0
  0
CELLSTYLEMAP
  5
999
102
{ACAD_REACTORS
330
998
102
}
330
998
100
AcDbCellStyleMap
 90
        3
300
CELLSTYLE
  1
TABLEFORMAT_BEGIN
 90
        5
170
     1
 91
        0
 92
    32768
 62
   257
 93
        1
300
CONTENTFORMAT
  1
CONTENTFORMAT_BEGIN
 90
        0
 91
        0
 92
      512
 93
        0
300

 40
0.0
140
1.0
 94
        5
 62
     0
340
55
144
0.25
309
CONTENTFORMAT_END
171
     0
 94
        0
309
TABLEFORMAT_END
  1
CELLSTYLE_BEGIN
 90
        1
 91
        1
300
_TITLE
309
CELLSTYLE_END
300
CELLSTYLE
  1
TABLEFORMAT_BEGIN
 90
        5
170
     1
 91
        0
 92
        0
 62
   257
 93
        1
300
CONTENTFORMAT
  1
CONTENTFORMAT_BEGIN
 90
        0
 91
        0
 92
      512
 93
        0
300

 40
0.0
140
1.0
 94
        5
 62
     0
340
55
144
0.18
309
CONTENTFORMAT_END
171
     0
 94
        0
309
TABLEFORMAT_END
  1
CELLSTYLE_BEGIN
 90
        2
 91
        1
300
_HEADER
309
CELLSTYLE_END
300
CELLSTYLE
  1
TABLEFORMAT_BEGIN
 90
        5
170
     1
 91
        0
 92
        0
 62
   257
 93
        1
300
CONTENTFORMAT
  1
CONTENTFORMAT_BEGIN
 90
        0
 91
        0
 92
      512
 93
        0
300

 40
0.0
140
1.0
 94
        2
 62
     0
340
55
144
0.18
309
CONTENTFORMAT_END
171
     0
 94
        0
309
TABLEFORMAT_END
  1
CELLSTYLE_BEGIN
 90
        3
 91
        2
300
_DATA
309
CELLSTYLE_END
  0
ENDSEC
  0
EOF
