  0
SECTION
  2
HEADER
  9
$ACADVER
  1
AC1024
  9
$ACADMAINTVER
 70
   181
  9
$DWGCODEPAGE
  3
ANSI_1252
  9
$AUTHOR
  1
KIM
  9
$CUSTOMPROPERTYTAG
  1
Manager
  9
$CUSTOMPROPERTY
  1

  9
$CUSTOMPROPERTYTAG
  1
Company
  9
$CUSTOMPROPERTY
  1

  9
$CUSTOMPROPERTYTAG
  1
Category
  9
$CUSTOMPROPERTY
  1

  9
$CUSTOMPROPERTYTAG
  1
Part Number
  9
$CUSTOMPROPERTY
  1
491204
  9
$CUSTOMPROPERTYTAG
  1
Description
  9
$CUSTOMPROPERTY
  1

  9
$CUSTOMPROPERTYTAG
  1
Project
  9
$CUSTOMPROPERTY
  1

  9
$CUSTOMPROPERTYTAG
  1
Designer
  9
$CUSTOMPROPERTY
  1
KIM
  9
$CUSTOMPROPERTYTAG
  1
Engineer
  9
$CUSTOMPROPERTY
  1

  9
$CUSTOMPROPERTYTAG
  1
Authority
  9
$CUSTOMPROPERTY
  1

  9
$CUSTOMPROPERTYTAG
  1
Cost Center
  9
$CUSTOMPROPERTY
  1

  9
$CUSTOMPROPERTYTAG
  1
Cost
  9
$CUSTOMPROPERTY
  1

  9
$CUSTOMPROPERTYTAG
  1
Vendor
  9
$CUSTOMPROPERTY
  1

  9
$CUSTOMPROPERTYTAG
  1
User Status
  9
$CUSTOMPROPERTY
  1

  9
$CUSTOMPROPERTYTAG
  1
Design Status
  9
$CUSTOMPROPERTY
  1
WorkInProgress
  9
$CUSTOMPROPERTYTAG
  1
Checked by
  9
$CUSTOMPROPERTY
  1

  9
$CUSTOMPROPERTYTAG
  1
Engr Approved by
  9
$CUSTOMPROPERTY
  1

  9
$CUSTOMPROPERTYTAG
  1
Mfg Approved by
  9
$CUSTOMPROPERTY
  1

  9
$CUSTOMPROPERTYTAG
  1
Date Created
  9
$CUSTOMPROPERTY
  1
08/27/2017
  9
$CUSTOMPROPERTYTAG
  1
Stock Number
  9
$CUSTOMPROPERTY
  1

  9
$INSBASE
 10
0.0
 20
0.0
 30
0.0
  9
$EXTMIN
 10
0.0
 20
0.0
 30
0.0
  9
$EXTMAX
 10
840.9999999999998
 20
594.0
 30
0.0
  9
$LIMMIN
 10
0.0
 20
0.0
  9
$LIMMAX
 10
840.9999999999998
 20
594.0
  9
$ORTHOMODE
 70
     0
  9
$REGENMODE
 70
     1
  9
$FILLMODE
 70
     1
  9
$QTEXTMODE
 70
     0
  9
$MIRRTEXT
 70
     0
  9
$LTSCALE
 40
1.0
  9
$ATTMODE
 70
     1
  9
$TEXTSIZE
 40
0.2
  9
$TRACEWID
 40
0.05
  9
$TEXTSTYLE
  7
Standard
  9
$CLAYER
  8
0
  9
$CELTYPE
  6
ByLayer
  9
$CECOLOR
 62
   256
  9
$CELTSCALE
 40
1.0
  9
$DISPSILH
 70
     0
  9
$DIMSCALE
 40
1.0
  9
$DIMASZ
 40
1.799999999999999
  9
$DIMEXO
 40
0.0625
  9
$DIMDLI
 40
0.38
  9
$DIMRND
 40
0.0
  9
$DIMDLE
 40
0.0
  9
$DIMEXE
 40
0.18
  9
$DIMTP
 40
0.0
  9
$DIMTM
 40
0.0
  9
$DIMTXT
 40
0.25
  9
$DIMCEN
 40
0.09
  9
$DIMTSZ
 40
0.0
  9
$DIMTOL
 70
     0
  9
$DIMLIM
 70
     0
  9
$DIMTIH
 70
     1
  9
$DIMTOH
 70
     1
  9
$DIMSE1
 70
     0
  9
$DIMSE2
 70
     0
  9
$DIMTAD
 70
     0
  9
$DIMZIN
 70
     0
  9
$DIMBLK
  1

  9
$DIMASO
 70
     1
  9
$DIMSHO
 70
     1
  9
$DIMPOST
  1

  9
$DIMAPOST
  1

  9
$DIMALT
 70
     0
  9
$DIMALTD
 70
     2
  9
$DIMALTF
 40
25.4
  9
$DIMLFAC
 40
1.0
  9
$DIMTOFL
 70
     0
  9
$DIMTVP
 40
0.0
  9
$DIMTIX
 70
     0
  9
$DIMSOXD
 70
     0
  9
$DIMSAH
 70
     0
  9
$DIMBLK1
  1

  9
$DIMBLK2
  1

  9
$DIMSTYLE
  2
Standard
  9
$DIMCLRD
 70
     0
  9
$DIMCLRE
 70
     0
  9
$DIMCLRT
 70
     0
  9
$DIMTFAC
 40
1.0
  9
$DIMGAP
 40
0.09
  9
$DIMJUST
 70
     0
  9
$DIMSD1
 70
     0
  9
$DIMSD2
 70
     0
  9
$DIMTOLJ
 70
     1
  9
$DIMTZIN
 70
     0
  9
$DIMALTZ
 70
     0
  9
$DIMALTTZ
 70
     0
  9
$DIMUPT
 70
     0
  9
$DIMDEC
 70
     4
  9
$DIMTDEC
 70
     4
  9
$DIMALTU
 70
     2
  9
$DIMALTTD
 70
     2
  9
$DIMTXSTY
  7
Standard
  9
$DIMAUNIT
 70
     0
  9
$DIMADEC
 70
     0
  9
$DIMALTRND
 40
0.0
  9
$DIMAZIN
 70
     0
  9
$DIMDSEP
 70
    46
  9
$DIMATFIT
 70
     3
  9
$DIMFRAC
 70
     0
  9
$DIMLDRBLK
  1

  9
$DIMLUNIT
 70
     2
  9
$DIMLWD
 70
    -2
  9
$DIMLWE
 70
    -2
  9
$DIMTMOVE
 70
     0
  9
$DIMFXL
 40
1.0
  9
$DIMFXLON
 70
     0
  9
$DIMJOGANG
 40
0.7853981633974483
  9
$DIMTFILL
 70
     0
  9
$DIMTFILLCLR
 70
     0
  9
$DIMARCSYM
 70
     0
  9
$DIMLTYPE
  6

  9
$DIMLTEX1
  6

  9
$DIMLTEX2
  6

  9
$DIMTXTDIRECTION
 70
     0
  9
$LUNITS
 70
     2
  9
$LUPREC
 70
     4
  9
$SKETCHINC
 40
0.1
  9
$FILLETRAD
 40
0.0
  9
$AUNITS
 70
     0
  9
$AUPREC
 70
     0
  9
$MENU
  1
.
  9
$ELEVATION
 40
0.0
  9
$PELEVATION
 40
0.0
  9
$THICKNESS
 40
0.0
  9
$LIMCHECK
 70
     0
  9
$CHAMFERA
 40
0.0
  9
$CHAMFERB
 40
0.0
  9
$CHAMFERC
 40
0.0
  9
$CHAMFERD
 40
0.0
  9
$SKPOLY
 70
     0
  9
$TDCREATE
 40
2457993.596692107
  9
$TDUCREATE
 40
2457993.471692107
  9
$TDUPDATE
 40
2457993.596692107
  9
$TDUUPDATE
 40
2457993.471692107
  9
$TDINDWG
 40
0.0000063773
  9
$TDUSRTIMER
 40
0.0000063773
  9
$USRTIMER
 70
     1
  9
$ANGBASE
 50
0.0
  9
$ANGDIR
 70
     0
  9
$PDMODE
 70
     0
  9
$PDSIZE
 40
0.0
  9
$PLINEWID
 40
0.0
  9
$SPLFRAME
 70
     0
  9
$SPLINETYPE
 70
     6
  9
$SPLINESEGS
 70
     8
  9
$HANDSEED
  5
77C
  9
$SURFTAB1
 70
     6
  9
$SURFTAB2
 70
     6
  9
$SURFTYPE
 70
     6
  9
$SURFU
 70
     6
  9
$SURFV
 70
     6
  9
$UCSBASE
  2

  9
$UCSNAME
  2

  9
$UCSORG
 10
0.0
 20
0.0
 30
0.0
  9
$UCSXDIR
 10
1.0
 20
0.0
 30
0.0
  9
$UCSYDIR
 10
0.0
 20
1.0
 30
0.0
  9
$UCSORTHOREF
  2

  9
$UCSORTHOVIEW
 70
     0
  9
$UCSORGTOP
 10
0.0
 20
0.0
 30
0.0
  9
$UCSORGBOTTOM
 10
0.0
 20
0.0
 30
0.0
  9
$UCSORGLEFT
 10
0.0
 20
0.0
 30
0.0
  9
$UCSORGRIGHT
 10
0.0
 20
0.0
 30
0.0
  9
$UCSORGFRONT
 10
0.0
 20
0.0
 30
0.0
  9
$UCSORGBACK
 10
0.0
 20
0.0
 30
0.0
  9
$PUCSBASE
  2

  9
$PUCSNAME
  2

  9
$PUCSORG
 10
0.0
 20
0.0
 30
0.0
  9
$PUCSXDIR
 10
1.0
 20
0.0
 30
0.0
  9
$PUCSYDIR
 10
0.0
 20
1.0
 30
0.0
  9
$PUCSORTHOREF
  2

  9
$PUCSORTHOVIEW
 70
     0
  9
$PUCSORGTOP
 10
0.0
 20
0.0
 30
0.0
  9
$PUCSORGBOTTOM
 10
0.0
 20
0.0
 30
0.0
  9
$PUCSORGLEFT
 10
0.0
 20
0.0
 30
0.0
  9
$PUCSORGRIGHT
 10
0.0
 20
0.0
 30
0.0
  9
$PUCSORGFRONT
 10
0.0
 20
0.0
 30
0.0
  9
$PUCSORGBACK
 10
0.0
 20
0.0
 30
0.0
  9
$USERI1
 70
     0
  9
$USERI2
 70
     0
  9
$USERI3
 70
     0
  9
$USERI4
 70
     0
  9
$USERI5
 70
     0
  9
$USERR1
 40
0.0
  9
$USERR2
 40
0.0
  9
$USERR3
 40
0.0
  9
$USERR4
 40
0.0
  9
$USERR5
 40
0.0
  9
$WORLDVIEW
 70
     1
  9
$SHADEDGE
 70
     3
  9
$SHADEDIF
 70
    70
  9
$TILEMODE
 70
     1
  9
$MAXACTVP
 70
    64
  9
$PINSBASE
 10
0.0
 20
0.0
 30
0.0
  9
$PLIMCHECK
 70
     0
  9
$PEXTMIN
 10
0.0
 20
0.0
 30
0.0
  9
$PEXTMAX
 10
840.9999999999998
 20
594.0
 30
0.0
  9
$PLIMMIN
 10
0.0
 20
0.0
  9
$PLIMMAX
 10
840.9999999999998
 20
594.0
  9
$UNITMODE
 70
     0
  9
$VISRETAIN
 70
     1
  9
$PLINEGEN
 70
     0
  9
$PSLTSCALE
 70
     1
  9
$TREEDEPTH
 70
  3020
  9
$CMLSTYLE
  2
Standard
  9
$CMLJUST
 70
     0
  9
$CMLSCALE
 40
1.0
  9
$PROXYGRAPHICS
 70
     1
  9
$MEASUREMENT
 70
     1
  9
$CELWEIGHT
370
    -1
  9
$ENDCAPS
280
     0
  9
$JOINSTYLE
280
     0
  9
$LWDISPLAY
290
     0
  9
$INSUNITS
 70
     4
  9
$HYPERLINKBASE
  1

  9
$STYLESHEET
  1

  9
$XEDIT
290
     1
  9
$CEPSNTYPE
380
     0
  9
$PSTYLEMODE
290
     1
  9
$FINGERPRINTGUID
  2
{41410A60-6826-406F-B42E-1A88F6166580}
  9
$VERSIONGUID
  2
{FA82B282-118A-48E3-8A5C-B0C690D05AAC}
  9
$EXTNAMES
290
     1
  9
$PSVPSCALE
 40
0.0
  9
$OLESTARTUP
290
     0
  9
$SORTENTS
280
   127
  9
$INDEXCTL
280
     0
  9
$HIDETEXT
280
     1
  9
$XCLIPFRAME
280
     2
  9
$HALOGAP
280
     0
  9
$OBSCOLOR
 70
   257
  9
$OBSLTYPE
280
     0
  9
$INTERSECTIONDISPLAY
280
     0
  9
$INTERSECTIONCOLOR
 70
   257
  9
$DIMASSOC
280
     1
  9
$PROJECTNAME
  1

  9
$CAMERADISPLAY
290
     0
  9
$LENSLENGTH
 40
50.0
  9
$CAMERAHEIGHT
 40
0.0
  9
$STEPSPERSEC
 40
2.0
  9
$STEPSIZE
 40
6.0
  9
$3DDWFPREC
 40
2.0
  9
$PSOLWIDTH
 40
0.25
  9
$PSOLHEIGHT
 40
4.0
  9
$LOFTANG1
 40
1.570796326794896
  9
$LOFTANG2
 40
1.570796326794896
  9
$LOFTMAG1
 40
0.0
  9
$LOFTMAG2
 40
0.0
  9
$LOFTPARAM
 70
     7
  9
$LOFTNORMALS
280
     1
  9
$LATITUDE
 40
37.795
  9
$LONGITUDE
 40
-122.394
  9
$NORTHDIRECTION
 40
0.0
  9
$TIMEZONE
 70
 -8000
  9
$LIGHTGLYPHDISPLAY
280
     1
  9
$TILEMODELIGHTSYNCH
280
     1
  9
$CMATERIAL
347
11
  9
$SOLIDHIST
280
     0
  9
$SHOWHIST
280
     1
  9
$DWFFRAME
280
     2
  9
$DGNFRAME
280
     0
  9
$REALWORLDSCALE
290
     1
  9
$INTERFERECOLOR
 62
     1
  9
$INTERFEREOBJVS
345
33
  9
$INTERFEREVPVS
346
30
  9
$CSHADOW
280
     0
  9
$SHADOWPLANELOCATION
 40
0.0
  0
ENDSEC
  0
SECTION
  2
CLASSES
  0
CLASS
  1
ACDBDICTIONARYWDFLT
  2
AcDbDictionaryWithDefault
  3
ObjectDBX Classes
 90
        0
 91
        1
280
     0
281
     0
  0
CLASS
  1
MATERIAL
  2
AcDbMaterial
  3
ObjectDBX Classes
 90
     1153
 91
        3
280
     0
281
     0
  0
CLASS
  1
VISUALSTYLE
  2
AcDbVisualStyle
  3
ObjectDBX Classes
 90
     4095
 91
       24
280
     0
281
     0
  0
CLASS
  1
SCALE
  2
AcDbScale
  3
ObjectDBX Classes
 90
     1153
 91
       17
280
     0
281
     0
  0
CLASS
  1
TABLESTYLE
  2
AcDbTableStyle
  3
ObjectDBX Classes
 90
     4095
 91
        1
280
     0
281
     0
  0
CLASS
  1
MLEADERSTYLE
  2
AcDbMLeaderStyle
  3
ACDB_MLEADERSTYLE_CLASS
 90
     4095
 91
        1
280
     0
281
     0
  0
CLASS
  1
ACDBSECTIONVIEWSTYLE
  2
AcDbSectionViewStyle
  3
ObjectDBX Classes
 90
     1025
 91
        1
280
     0
281
     0
  0
CLASS
  1
ACDBDETAILVIEWSTYLE
  2
AcDbDetailViewStyle
  3
ObjectDBX Classes
 90
     1025
 91
        1
280
     0
281
     0
  0
CLASS
  1
DICTIONARYVAR
  2
AcDbDictionaryVar
  3
ObjectDBX Classes
 90
        0
 91
        5
280
     0
281
     0
  0
CLASS
  1
CELLSTYLEMAP
  2
AcDbCellStyleMap
  3
ObjectDBX Classes
 90
     1152
 91
        1
280
     0
281
     0
  0
ENDSEC
  0
SECTION
  2
TABLES
  0
TABLE
  2
VPORT
  5
8
330
0
100
AcDbSymbolTable
 70
     1
  0
VPORT
  5
57
330
8
100
AcDbSymbolTableRecord
100
AcDbViewportTableRecord
  2
*Active
 70
     0
 10
0.0
 20
0.0
 11
1.0
 21
1.0
 12
420.4999999999999
 22
297.0
 13
0.0
 23
0.0
 14
1.0
 24
1.0
 15
0.0
 25
0.0
 16
0.0
 26
0.0
 36
1.0
 17
0.0
 27
0.0
 37
0.0
 40
594.0
 41
1.415824915824915
 42
50.0
 43
0.0
 44
0.0
 50
0.0
 51
0.0
 71
     0
 72
   100
 73
     1
 74
     1
 75
     0
 76
     0
 77
     0
 78
     0
281
     0
 65
     1
110
0.0
120
0.0
130
0.0
111
1.0
121
0.0
131
0.0
112
0.0
122
1.0
132
0.0
 79
     0
146
0.0
 60
     3
 61
     5
292
     1
282
     1
141
0.0
142
0.0
 63
   250
421
  3355443
  0
ENDTAB
  0
TABLE
  2
LTYPE
  5
5
330
0
100
AcDbSymbolTable
 70
    59
  0
LTYPE
  5
5B
330
5
100
AcDbSymbolTableRecord
100
AcDbLinetypeTableRecord
  2
ByBlock
 70
     0
  3

 72
    65
 73
     0
 40
0.0
  0
LTYPE
  5
5C
330
5
100
AcDbSymbolTableRecord
100
AcDbLinetypeTableRecord
  2
ByLayer
 70
     0
  3

 72
    65
 73
     0
 40
0.0
  0
LTYPE
  5
5D
330
5
100
AcDbSymbolTableRecord
100
AcDbLinetypeTableRecord
  2
Continuous
 70
     0
  3
Solid line
 72
    65
 73
     0
 40
0.0
  0
LTYPE
  5
78
330
5
100
AcDbSymbolTableRecord
100
AcDbLinetypeTableRecord
  2
Section_View_Lines
 70
     0
  3
Section View Lines
 72
    65
 73
     4
 40
0.8406
 49
0.6614
 74
     0
 49
-0.0827
 74
     0
 49
0.0138
 74
     0
 49
-0.0827
 74
     0
  0
LTYPE
  5
79
330
5
100
AcDbSymbolTableRecord
100
AcDbLinetypeTableRecord
  2
CHAIN
 70
     0
  3
Chain ____ _ ____ _ ____ _ ____ _ ____ _ ____
 72
    65
 73
     4
 40
0.3543
 49
0.2362
 74
     0
 49
-0.0295
 74
     0
 49
0.0591
 74
     0
 49
-0.0295
 74
     0
  0
LTYPE
  5
7A
330
5
100
AcDbSymbolTableRecord
100
AcDbLinetypeTableRecord
  2
DASH_DOT
 70
     0
  3
Dash dot _._._._._._._._._._._._._._._.
 72
    65
 73
     4
 40
0.182
 49
0.1181
 74
     0
 49
-0.0295
 74
     0
 49
0.0049
 74
     0
 49
-0.0295
 74
     0
  0
LTYPE
  5
7B
330
5
100
AcDbSymbolTableRecord
100
AcDbLinetypeTableRecord
  2
DASH_DOUBLE_DOT
 70
     0
  3
Dash Double Dot __ __ . __ __ . __ __ . __ _
 72
    65
 73
     6
 40
0.2164
 49
0.1181
 74
     0
 49
-0.0295
 74
     0
 49
0.0049
 74
     0
 49
-0.0295
 74
     0
 49
0.0049
 74
     0
 49
-0.0295
 74
     0
  0
LTYPE
  5
7C
330
5
100
AcDbSymbolTableRecord
100
AcDbLinetypeTableRecord
  2
DASH_TRIPLE_DOT
 70
     0
  3
Dash Triple-Dot _ . . . _ . . . _ . . . _
 72
    65
 73
     8
 40
0.2508
 49
0.1181
 74
     0
 49
-0.0295
 74
     0
 49
0.0049
 74
     0
 49
-0.0295
 74
     0
 49
0.0049
 74
     0
 49
-0.0295
 74
     0
 49
0.0049
 74
     0
 49
-0.0295
 74
     0
  0
LTYPE
  5
7D
330
5
100
AcDbSymbolTableRecord
100
AcDbLinetypeTableRecord
  2
DASHED
 70
     0
  3
Dashed __ __ __ __ __ __ __ __ __ __ __ __ __ _
 72
    65
 73
     2
 40
0.2068
 49
0.1655
 74
     0
 49
-0.0413
 74
     0
  0
LTYPE
  5
7E
330
5
100
AcDbSymbolTableRecord
100
AcDbLinetypeTableRecord
  2
DASHED_SPACE
 70
     0
  3
Dashed Space __ __ __ __ __ __ __ __ __ __ __ _
 72
    65
 73
     2
 40
0.2067
 49
0.1654
 74
     0
 49
-0.0413
 74
     0
  0
LTYPE
  5
7F
330
5
100
AcDbSymbolTableRecord
100
AcDbLinetypeTableRecord
  2
DOTTED
 70
     0
  3
Dotted . . . . . . . . . . . . . . . . . . . . 
 72
    65
 73
     2
 40
0.0481
 49
0.0068
 74
     0
 49
-0.0413
 74
     0
  0
LTYPE
  5
80
330
5
100
AcDbSymbolTableRecord
100
AcDbLinetypeTableRecord
  2
DOUBLE_DASH_CHAIN
 70
     0
  3
Double Dash Chain ___ _ _ ___ _ _ ___ _ _ ___ _
 72
    65
 73
     6
 40
1.240299999999999
 49
0.6614
 74
     0
 49
-0.0827
 74
     0
 49
0.1654
 74
     0
 49
-0.0827
 74
     0
 49
0.1654
 74
     0
 49
-0.0827
 74
     0
  0
LTYPE
  5
81
330
5
100
AcDbSymbolTableRecord
100
AcDbLinetypeTableRecord
  2
DOUBLE_DASH_DOT
 70
     0
  3
Double Dash Dot __ __ . __ __ . __ __ . __ _
 72
    65
 73
     6
 40
0.3296
 49
0.1181
 74
     0
 49
-0.0295
 74
     0
 49
0.1181
 74
     0
 49
-0.0295
 74
     0
 49
0.0049
 74
     0
 49
-0.0295
 74
     0
  0
LTYPE
  5
82
330
5
100
AcDbSymbolTableRecord
100
AcDbLinetypeTableRecord
  2
DOUBLE_DASH_DOUBLE_DOT
 70
     0
  3
Double Dash Double Dot _ _ . . _ _ . . _ _
 72
    65
 73
     8
 40
0.364
 49
0.1181
 74
     0
 49
-0.0295
 74
     0
 49
0.1181
 74
     0
 49
-0.0295
 74
     0
 49
0.0049
 74
     0
 49
-0.0295
 74
     0
 49
0.0049
 74
     0
 49
-0.0295
 74
     0
  0
LTYPE
  5
83
330
5
100
AcDbSymbolTableRecord
100
AcDbLinetypeTableRecord
  2
DOUBLE_DASH_TRIPLE_DOT
 70
     0
  3
Double Dash Triple Dot __ __ . . . __ __ . . .
 72
    65
 73
    10
 40
0.3984
 49
0.1181
 74
     0
 49
-0.0295
 74
     0
 49
0.1181
 74
     0
 49
-0.0295
 74
     0
 49
0.0049
 74
     0
 49
-0.0295
 74
     0
 49
0.0049
 74
     0
 49
-0.0295
 74
     0
 49
0.0049
 74
     0
 49
-0.0295
 74
     0
  0
LTYPE
  5
84
330
5
100
AcDbSymbolTableRecord
100
AcDbLinetypeTableRecord
  2
LONG_DASH_DOTTED
 70
     0
  3
Long Dash Dotted ____ . ____ . ____ . ____ . _
 72
    65
 73
     4
 40
0.3001
 49
0.2362
 74
     0
 49
-0.0295
 74
     0
 49
0.0049
 74
     0
 49
-0.0295
 74
     0
  0
LTYPE
  5
85
330
5
100
AcDbSymbolTableRecord
100
AcDbLinetypeTableRecord
  2
LONG_DASH_DOUBLE_DOT
 70
     0
  3
Long Dash Double Dot ____ . . ____ . . ____ . .
 72
    65
 73
     6
 40
0.3345
 49
0.2362
 74
     0
 49
-0.0295
 74
     0
 49
0.0049
 74
     0
 49
-0.0295
 74
     0
 49
0.0049
 74
     0
 49
-0.0295
 74
     0
  0
LTYPE
  5
86
330
5
100
AcDbSymbolTableRecord
100
AcDbLinetypeTableRecord
  2
LONG_DASH_TRIPLE_DOT
 70
     0
  3
Long Dash Triple Dot ____ ... ____ ... ____
 72
    65
 73
     8
 40
0.3689
 49
0.2362
 74
     0
 49
-0.0295
 74
     0
 49
0.0049
 74
     0
 49
-0.0295
 74
     0
 49
0.0049
 74
     0
 49
-0.0295
 74
     0
 49
0.0049
 74
     0
 49
-0.0295
 74
     0
  0
LTYPE
  5
87
330
5
100
AcDbSymbolTableRecord
100
AcDbLinetypeTableRecord
  2
BORDER
 70
     0
  3
Border __ __ . __ __ . __ __ . __ __ . __ __ .
 72
    65
 73
     6
 40
44.45
 49
12.7
 74
     0
 49
-6.349999999999999
 74
     0
 49
12.7
 74
     0
 49
-6.349999999999999
 74
     0
 49
0.0
 74
     0
 49
-6.349999999999999
 74
     0
  0
LTYPE
  5
88
330
5
100
AcDbSymbolTableRecord
100
AcDbLinetypeTableRecord
  2
BORDER2
 70
     0
  3
Border (.5x) __.__.__.__.__.__.__.__.__.__.__.
 72
    65
 73
     6
 40
22.225
 49
6.349999999999999
 74
     0
 49
-3.174999999999999
 74
     0
 49
6.349999999999999
 74
     0
 49
-3.174999999999999
 74
     0
 49
0.0
 74
     0
 49
-3.174999999999999
 74
     0
  0
LTYPE
  5
89
330
5
100
AcDbSymbolTableRecord
100
AcDbLinetypeTableRecord
  2
BORDERX2
 70
     0
  3
Border (2x) ____  ____  .  ____  ____  .  ___
 72
    65
 73
     6
 40
88.9
 49
25.4
 74
     0
 49
-12.7
 74
     0
 49
25.4
 74
     0
 49
-12.7
 74
     0
 49
0.0
 74
     0
 49
-12.7
 74
     0
  0
LTYPE
  5
8A
330
5
100
AcDbSymbolTableRecord
100
AcDbLinetypeTableRecord
  2
CENTER
 70
     0
  3
Center ____ _ ____ _ ____ _ ____ _ ____ _ ____
 72
    65
 73
     4
 40
50.8
 49
31.75
 74
     0
 49
-6.349999999999999
 74
     0
 49
6.349999999999999
 74
     0
 49
-6.349999999999999
 74
     0
  0
LTYPE
  5
8B
330
5
100
AcDbSymbolTableRecord
100
AcDbLinetypeTableRecord
  2
CENTER2
 70
     0
  3
Center (.5x) ___ _ ___ _ ___ _ ___ _ ___ _ ___
 72
    65
 73
     4
 40
28.575
 49
19.05
 74
     0
 49
-3.174999999999999
 74
     0
 49
3.174999999999999
 74
     0
 49
-3.174999999999999
 74
     0
  0
LTYPE
  5
8C
330
5
100
AcDbSymbolTableRecord
100
AcDbLinetypeTableRecord
  2
CENTERX2
 70
     0
  3
Center (2x) ________  __  ________  __  _____
 72
    65
 73
     4
 40
101.6
 49
63.5
 74
     0
 49
-12.7
 74
     0
 49
12.7
 74
     0
 49
-12.7
 74
     0
  0
LTYPE
  5
8D
330
5
100
AcDbSymbolTableRecord
100
AcDbLinetypeTableRecord
  2
DASHDOT2
 70
     0
  3
Dash dot (.5x) _._._._._._._._._._._._._._._.
 72
    65
 73
     4
 40
12.7
 49
6.349999999999999
 74
     0
 49
-3.174999999999999
 74
     0
 49
0.0
 74
     0
 49
-3.174999999999999
 74
     0
  0
LTYPE
  5
8E
330
5
100
AcDbSymbolTableRecord
100
AcDbLinetypeTableRecord
  2
DASHDOTX2
 70
     0
  3
Dash dot (2x) ____  .  ____  .  ____  .  ___
 72
    65
 73
     4
 40
50.8
 49
25.4
 74
     0
 49
-12.7
 74
     0
 49
0.0
 74
     0
 49
-12.7
 74
     0
  0
LTYPE
  5
8F
330
5
100
AcDbSymbolTableRecord
100
AcDbLinetypeTableRecord
  2
DASHED2
 70
     0
  3
Dashed (.5x) _ _ _ _ _ _ _ _ _ _ _ _ _ _ _ _ _
 72
    65
 73
     2
 40
9.524999999999998
 49
6.349999999999999
 74
     0
 49
-3.174999999999999
 74
     0
  0
LTYPE
  5
90
330
5
100
AcDbSymbolTableRecord
100
AcDbLinetypeTableRecord
  2
DASHEDX2
 70
     0
  3
Dashed (2x) ____  ____  ____  ____  ____  ___
 72
    65
 73
     2
 40
38.1
 49
25.4
 74
     0
 49
-12.7
 74
     0
  0
LTYPE
  5
91
330
5
100
AcDbSymbolTableRecord
100
AcDbLinetypeTableRecord
  2
DIVIDE
 70
     0
  3
Divide ____ . . ____ . . ____ . . ____ . . ____
 72
    65
 73
     6
 40
31.75
 49
12.7
 74
     0
 49
-6.349999999999999
 74
     0
 49
0.0
 74
     0
 49
-6.349999999999999
 74
     0
 49
0.0
 74
     0
 49
-6.349999999999999
 74
     0
  0
LTYPE
  5
92
330
5
100
AcDbSymbolTableRecord
100
AcDbLinetypeTableRecord
  2
DIVIDE2
 70
     0
  3
Divide (.5x) __..__..__..__..__..__..__..__.._
 72
    65
 73
     6
 40
15.875
 49
6.349999999999999
 74
     0
 49
-3.174999999999999
 74
     0
 49
0.0
 74
     0
 49
-3.174999999999999
 74
     0
 49
0.0
 74
     0
 49
-3.174999999999999
 74
     0
  0
LTYPE
  5
93
330
5
100
AcDbSymbolTableRecord
100
AcDbLinetypeTableRecord
  2
DIVIDEX2
 70
     0
  3
Divide (2x) ________  .  .  ________  .  .  _
 72
    65
 73
     6
 40
63.49999999999999
 49
25.4
 74
     0
 49
-12.7
 74
     0
 49
0.0
 74
     0
 49
-12.7
 74
     0
 49
0.0
 74
     0
 49
-12.7
 74
     0
  0
LTYPE
  5
94
330
5
100
AcDbSymbolTableRecord
100
AcDbLinetypeTableRecord
  2
DOT
 70
     0
  3
Dot . . . . . . . . . . . . . . . . . . . . . .
 72
    65
 73
     2
 40
6.349999999999999
 49
0.0
 74
     0
 49
-6.349999999999999
 74
     0
  0
LTYPE
  5
95
330
5
100
AcDbSymbolTableRecord
100
AcDbLinetypeTableRecord
  2
DOT2
 70
     0
  3
Dot (.5x) .....................................
 72
    65
 73
     2
 40
3.174999999999999
 49
0.0
 74
     0
 49
-3.174999999999999
 74
     0
  0
LTYPE
  5
96
330
5
100
AcDbSymbolTableRecord
100
AcDbLinetypeTableRecord
  2
DOTX2
 70
     0
  3
Dot (2x) .  .  .  .  .  .  .  .  .  .  .  .  . 
 72
    65
 73
     2
 40
12.7
 49
0.0
 74
     0
 49
-12.7
 74
     0
  0
LTYPE
  5
97
330
5
100
AcDbSymbolTableRecord
100
AcDbLinetypeTableRecord
  2
HIDDEN
 70
     0
  3
Hidden __ __ __ __ __ __ __ __ __ __ __ __ __ _
 72
    65
 73
     2
 40
9.524999999999998
 49
6.349999999999999
 74
     0
 49
-3.174999999999999
 74
     0
  0
LTYPE
  5
98
330
5
100
AcDbSymbolTableRecord
100
AcDbLinetypeTableRecord
  2
HIDDEN2
 70
     0
  3
Hidden (.5x) _ _ _ _ _ _ _ _ _ _ _ _ _ _ _ _ _
 72
    65
 73
     2
 40
4.762499999999999
 49
3.174999999999999
 74
     0
 49
-1.587499999999999
 74
     0
  0
LTYPE
  5
99
330
5
100
AcDbSymbolTableRecord
100
AcDbLinetypeTableRecord
  2
HIDDENX2
 70
     0
  3
Hidden (2x) ____ ____ ____ ____ ____ ____ ____
 72
    65
 73
     2
 40
19.05
 49
12.7
 74
     0
 49
-6.349999999999999
 74
     0
  0
LTYPE
  5
9A
330
5
100
AcDbSymbolTableRecord
100
AcDbLinetypeTableRecord
  2
PHANTOM
 70
     0
  3
Phantom ______  __  __  ______  __  __  ______
 72
    65
 73
     6
 40
63.5
 49
31.75
 74
     0
 49
-6.349999999999999
 74
     0
 49
6.349999999999999
 74
     0
 49
-6.349999999999999
 74
     0
 49
6.349999999999999
 74
     0
 49
-6.349999999999999
 74
     0
  0
LTYPE
  5
9B
330
5
100
AcDbSymbolTableRecord
100
AcDbLinetypeTableRecord
  2
PHANTOM2
 70
     0
  3
Phantom (.5x) ___ _ _ ___ _ _ ___ _ _ ___ _ _
 72
    65
 73
     6
 40
31.75
 49
15.875
 74
     0
 49
-3.174999999999999
 74
     0
 49
3.174999999999999
 74
     0
 49
-3.174999999999999
 74
     0
 49
3.174999999999999
 74
     0
 49
-3.174999999999999
 74
     0
  0
LTYPE
  5
9C
330
5
100
AcDbSymbolTableRecord
100
AcDbLinetypeTableRecord
  2
PHANTOMX2
 70
     0
  3
Phantom (2x) ____________    ____    ____   _
 72
    65
 73
     6
 40
127.0
 49
63.5
 74
     0
 49
-12.7
 74
     0
 49
12.7
 74
     0
 49
-12.7
 74
     0
 49
12.7
 74
     0
 49
-12.7
 74
     0
  0
LTYPE
  5
9D
330
5
100
AcDbSymbolTableRecord
100
AcDbLinetypeTableRecord
  2
ACAD_ISO02W100
 70
     0
  3
ISO dash __ __ __ __ __ __ __ __ __ __ __ __ __
 72
    65
 73
     2
 40
15.0
 49
12.0
 74
     0
 49
-3.0
 74
     0
  0
LTYPE
  5
9E
330
5
100
AcDbSymbolTableRecord
100
AcDbLinetypeTableRecord
  2
ACAD_ISO03W100
 70
     0
  3
ISO dash space __    __    __    __    __    __
 72
    65
 73
     2
 40
30.0
 49
12.0
 74
     0
 49
-18.0
 74
     0
  0
LTYPE
  5
9F
330
5
100
AcDbSymbolTableRecord
100
AcDbLinetypeTableRecord
  2
ACAD_ISO04W100
 70
     0
  3
ISO long-dash dot ____ . ____ . ____ . ____ . _
 72
    65
 73
     4
 40
30.0
 49
24.0
 74
     0
 49
-3.0
 74
     0
 49
0.0
 74
     0
 49
-3.0
 74
     0
  0
LTYPE
  5
A0
330
5
100
AcDbSymbolTableRecord
100
AcDbLinetypeTableRecord
  2
ACAD_ISO05W100
 70
     0
  3
ISO long-dash double-dot ____ .. ____ .. ____ .
 72
    65
 73
     6
 40
33.0
 49
24.0
 74
     0
 49
-3.0
 74
     0
 49
0.0
 74
     0
 49
-3.0
 74
     0
 49
0.0
 74
     0
 49
-3.0
 74
     0
  0
LTYPE
  5
A1
330
5
100
AcDbSymbolTableRecord
100
AcDbLinetypeTableRecord
  2
ACAD_ISO06W100
 70
     0
  3
ISO long-dash triple-dot ____ ... ____ ... ____
 72
    65
 73
     8
 40
36.0
 49
24.0
 74
     0
 49
-3.0
 74
     0
 49
0.0
 74
     0
 49
-3.0
 74
     0
 49
0.0
 74
     0
 49
-3.0
 74
     0
 49
0.0
 74
     0
 49
-3.0
 74
     0
  0
LTYPE
  5
A2
330
5
100
AcDbSymbolTableRecord
100
AcDbLinetypeTableRecord
  2
ACAD_ISO07W100
 70
     0
  3
ISO dot . . . . . . . . . . . . . . . . . . . .
 72
    65
 73
     2
 40
3.0
 49
0.0
 74
     0
 49
-3.0
 74
     0
  0
LTYPE
  5
A3
330
5
100
AcDbSymbolTableRecord
100
AcDbLinetypeTableRecord
  2
ACAD_ISO08W100
 70
     0
  3
ISO long-dash short-dash ____ __ ____ __ ____ _
 72
    65
 73
     4
 40
36.0
 49
24.0
 74
     0
 49
-3.0
 74
     0
 49
6.0
 74
     0
 49
-3.0
 74
     0
  0
LTYPE
  5
A4
330
5
100
AcDbSymbolTableRecord
100
AcDbLinetypeTableRecord
  2
ACAD_ISO09W100
 70
     0
  3
ISO long-dash double-short-dash ____ __ __ ____
 72
    65
 73
     6
 40
45.0
 49
24.0
 74
     0
 49
-3.0
 74
     0
 49
6.0
 74
     0
 49
-3.0
 74
     0
 49
6.0
 74
     0
 49
-3.0
 74
     0
  0
LTYPE
  5
A5
330
5
100
AcDbSymbolTableRecord
100
AcDbLinetypeTableRecord
  2
ACAD_ISO10W100
 70
     0
  3
ISO dash dot __ . __ . __ . __ . __ . __ . __ .
 72
    65
 73
     4
 40
18.0
 49
12.0
 74
     0
 49
-3.0
 74
     0
 49
0.0
 74
     0
 49
-3.0
 74
     0
  0
LTYPE
  5
A6
330
5
100
AcDbSymbolTableRecord
100
AcDbLinetypeTableRecord
  2
ACAD_ISO11W100
 70
     0
  3
ISO double-dash dot __ __ . __ __ . __ __ . __ 
 72
    65
 73
     6
 40
33.0
 49
12.0
 74
     0
 49
-3.0
 74
     0
 49
12.0
 74
     0
 49
-3.0
 74
     0
 49
0.0
 74
     0
 49
-3.0
 74
     0
  0
LTYPE
  5
A7
330
5
100
AcDbSymbolTableRecord
100
AcDbLinetypeTableRecord
  2
ACAD_ISO12W100
 70
     0
  3
ISO dash double-dot __ . . __ . . __ . . __ . .
 72
    65
 73
     6
 40
21.0
 49
12.0
 74
     0
 49
-3.0
 74
     0
 49
0.0
 74
     0
 49
-3.0
 74
     0
 49
0.0
 74
     0
 49
-3.0
 74
     0
  0
LTYPE
  5
A8
330
5
100
AcDbSymbolTableRecord
100
AcDbLinetypeTableRecord
  2
ACAD_ISO13W100
 70
     0
  3
ISO double-dash double-dot __ __ . . __ __ . . 
 72
    65
 73
     8
 40
36.0
 49
12.0
 74
     0
 49
-3.0
 74
     0
 49
12.0
 74
     0
 49
-3.0
 74
     0
 49
0.0
 74
     0
 49
-3.0
 74
     0
 49
0.0
 74
     0
 49
-3.0
 74
     0
  0
LTYPE
  5
A9
330
5
100
AcDbSymbolTableRecord
100
AcDbLinetypeTableRecord
  2
ACAD_ISO14W100
 70
     0
  3
ISO dash triple-dot __ . . . __ . . . __ . . . 
 72
    65
 73
     8
 40
24.0
 49
12.0
 74
     0
 49
-3.0
 74
     0
 49
0.0
 74
     0
 49
-3.0
 74
     0
 49
0.0
 74
     0
 49
-3.0
 74
     0
 49
0.0
 74
     0
 49
-3.0
 74
     0
  0
LTYPE
  5
AA
330
5
100
AcDbSymbolTableRecord
100
AcDbLinetypeTableRecord
  2
ACAD_ISO15W100
 70
     0
  3
ISO double-dash triple-dot __ __ . . . __ __ . 
 72
    65
 73
    10
 40
39.0
 49
12.0
 74
     0
 49
-3.0
 74
     0
 49
12.0
 74
     0
 49
-3.0
 74
     0
 49
0.0
 74
     0
 49
-3.0
 74
     0
 49
0.0
 74
     0
 49
-3.0
 74
     0
 49
0.0
 74
     0
 49
-3.0
 74
     0
  0
LTYPE
  5
AD
330
5
100
AcDbSymbolTableRecord
100
AcDbLinetypeTableRecord
  2
FENCELINE1
 70
     0
  3
Fenceline circle ----0-----0----0-----0----0---
 72
    65
 73
     4
 40
36.83
 49
6.349999999999999
 74
     0
 49
-2.54
 74
     4
 75
   133
340
AC
 46
2.54
 50
0.0
 44
-2.54
 45
0.0
 49
-2.54
 74
     0
 49
25.4
 74
     0
  0
LTYPE
  5
AE
330
5
100
AcDbSymbolTableRecord
100
AcDbLinetypeTableRecord
  2
FENCELINE2
 70
     0
  3
Fenceline square ----[]-----[]----[]-----[]----
 72
    65
 73
     4
 40
36.83
 49
6.349999999999999
 74
     0
 49
-2.54
 74
     4
 75
   132
340
AC
 46
2.54
 50
0.0
 44
-2.54
 45
0.0
 49
-2.54
 74
     0
 49
25.4
 74
     0
  0
LTYPE
  5
AF
330
5
100
AcDbSymbolTableRecord
100
AcDbLinetypeTableRecord
  2
TRACKS
 70
     0
  3
Tracks -|-|-|-|-|-|-|-|-|-|-|-|-|-|-|-|-|-|-|-|
 72
    65
 73
     2
 40
7.62
 49
3.81
 74
     4
 75
   130
340
AC
 46
6.349999999999999
 50
0.0
 44
0.0
 45
0.0
 49
3.81
 74
     0
  0
LTYPE
  5
B0
330
5
100
AcDbSymbolTableRecord
100
AcDbLinetypeTableRecord
  2
BATTING
 70
     0
  3
Batting SSSSSSSSSSSSSSSSSSSSSSSSSSSSSSSSSSSSSSS
 72
    65
 73
     4
 40
10.16254
 49
0.00254
 74
     0
 49
-2.54
 74
     4
 75
   134
340
AC
 46
2.54
 50
0.0
 44
-2.54
 45
0.0
 49
-5.08
 74
     4
 75
   134
340
AC
 46
2.54
 50
180.0
 44
2.54
 45
0.0
 49
-2.54
 74
     0
  0
LTYPE
  5
B1
330
5
100
AcDbSymbolTableRecord
100
AcDbLinetypeTableRecord
  2
HOT_WATER_SUPPLY
 70
     0
  3
Hot water supply ---- HW ---- HW ---- HW ----
 72
    65
 73
     3
 40
22.86
 49
12.7
 74
     0
 49
-5.08
 74
     2
 75
     0
340
55
 46
2.54
 50
0.0
 44
-2.54
 45
-1.27
  9
HW
 49
-5.08
 74
     0
  0
LTYPE
  5
B2
330
5
100
AcDbSymbolTableRecord
100
AcDbLinetypeTableRecord
  2
GAS_LINE
 70
     0
  3
Gas line ----GAS----GAS----GAS----GAS----GAS---
 72
    65
 73
     3
 40
24.13
 49
12.7
 74
     0
 49
-5.08
 74
     2
 75
     0
340
55
 46
2.54
 50
0.0
 44
-2.54
 45
-1.27
  9
GAS
 49
-6.349999999999999
 74
     0
  0
LTYPE
  5
B3
330
5
100
AcDbSymbolTableRecord
100
AcDbLinetypeTableRecord
  2
ZIGZAG
 70
     0
  3
Zig zag /\/\/\/\/\/\/\/\/\/\/\/\/\/\/\/\/\/\/\/
 72
    65
 73
     4
 40
20.32254
 49
0.00254
 74
     0
 49
-5.08
 74
     4
 75
   131
340
AC
 46
5.08
 50
0.0
 44
-5.08
 45
0.0
 49
-10.16
 74
     4
 75
   131
340
AC
 46
5.08
 50
180.0
 44
5.08
 45
0.0
 49
-5.08
 74
     0
  0
ENDTAB
  0
TABLE
  2
LAYER
  5
2
330
0
100
AcDbSymbolTable
 70
    27
  0
LAYER
  5
54
330
2
100
AcDbSymbolTableRecord
100
AcDbLayerTableRecord
  2
0
 70
     0
 62
     7
  6
Continuous
370
    -3
390
F
347
21
  0
LAYER
  5
B7
330
2
100
AcDbSymbolTableRecord
100
AcDbLayerTableRecord
  2
Border (ISO)
 70
     0
 62
     7
  6
Continuous
370
    70
390
F
347
21
  0
LAYER
  5
BC
330
2
100
AcDbSymbolTableRecord
100
AcDbLayerTableRecord
  2
Dimension (ISO)
 70
     0
 62
     7
  6
Continuous
370
    25
390
F
347
21
  0
LAYER
  5
BD
330
2
100
AcDbSymbolTableRecord
100
AcDbLayerTableRecord
  2
Hatch (ISO)
 70
     0
 62
     7
  6
Continuous
370
    18
390
F
347
21
  0
LAYER
  5
C3
330
2
100
AcDbSymbolTableRecord
100
AcDbLayerTableRecord
  2
Section Line (ISO)
 70
     0
 62
     7
  6
CHAIN
370
    70
390
F
347
21
  0
LAYER
  5
C5
330
2
100
AcDbSymbolTableRecord
100
AcDbLayerTableRecord
  2
Symbol (ISO)
 70
     0
 62
     7
  6
Continuous
370
    25
390
F
347
21
  0
LAYER
  5
C6
330
2
100
AcDbSymbolTableRecord
100
AcDbLayerTableRecord
  2
Title (ISO)
 70
     0
 62
     7
  6
Continuous
370
    50
390
F
347
21
  0
LAYER
  5
C8
330
2
100
AcDbSymbolTableRecord
100
AcDbLayerTableRecord
  2
Visible (ISO)
 70
     0
 62
     7
  6
Continuous
370
    50
390
F
347
21
  0
LAYER
  5
C9
330
2
100
AcDbSymbolTableRecord
100
AcDbLayerTableRecord
  2
Visible Narrow (ISO)
 70
     0
 62
     7
  6
Continuous
370
    35
390
F
347
21
  0
LAYER
  5
301
330
2
100
AcDbSymbolTableRecord
100
AcDbLayerTableRecord
  2
Defpoints
 70
     0
 62
     7
  6
Continuous
290
     0
370
    -3
390
F
347
21
  0
ENDTAB
  0
TABLE
  2
STYLE
  5
3
330
0
100
AcDbSymbolTable
 70
     5
  0
STYLE
  5
55
330
3
100
AcDbSymbolTableRecord
100
AcDbTextStyleTableRecord
  2
Standard
 70
     0
 40
0.0
 41
1.0
 50
0.0
 71
     0
 42
0.2
  3
tahoma.ttf
  4

1001
ACAD
1000
Tahoma
1071
      256
  0
STYLE
  5
5A
330
3
100
AcDbSymbolTableRecord
100
AcDbTextStyleTableRecord
  2
Annotative
 70
     0
 40
0.0
 41
1.0
 50
0.0
 71
     0
 42
0.2
  3
txt
  4

1001
AcadAnnotative
1000
AnnotativeData
1002
{
1070
     1
1070
     1
1002
}
  0
STYLE
  5
AC
330
3
100
AcDbSymbolTableRecord
100
AcDbTextStyleTableRecord
  2

 70
     1
 40
0.0
 41
1.0
 50
0.0
 71
     0
 42
0.2
  3
ltypeshp.shx
  4

  0
STYLE
  5
CD
330
3
100
AcDbSymbolTableRecord
100
AcDbTextStyleTableRecord
  2
Label Text (ISO)
 70
     0
 40
0.0
 41
1.0
 50
0.0
 71
     0
 42
0.2
  3
tahoma.ttf
  4

1001
ACAD
1000
Tahoma
1071
      256
  0
STYLE
  5
CE
330
3
100
AcDbSymbolTableRecord
100
AcDbTextStyleTableRecord
  2
Note Text (ISO)
 70
     0
 40
0.0
 41
1.0
 50
0.0
 71
     0
 42
0.2
  3
tahoma.ttf
  4

1001
ACAD
1000
Tahoma
1071
      256
  0
ENDTAB
  0
TABLE
  2
VIEW
  5
6
330
0
100
AcDbSymbolTable
 70
     0
  0
ENDTAB
  0
TABLE
  2
UCS
  5
7
330
0
100
AcDbSymbolTable
 70
     0
  0
ENDTAB
  0
TABLE
  2
APPID
  5
9
330
0
100
AcDbSymbolTable
 70
     3
  0
APPID
  5
56
330
9
100
AcDbSymbolTableRecord
100
AcDbRegAppTableRecord
  2
ACAD
 70
     0
  0
APPID
  5
5E
330
9
100
AcDbSymbolTableRecord
100
AcDbRegAppTableRecord
  2
AcadAnnotative
 70
     0
  0
APPID
  5
171
330
9
100
AcDbSymbolTableRecord
100
AcDbRegAppTableRecord
  2
AcadAnnoPO
 70
     0
  0
ENDTAB
  0
TABLE
  2
DIMSTYLE
  5
A
330
0
100
AcDbSymbolTable
 70
    15
100
AcDbDimStyleTable
 71
     2
340
D7
340
58
  0
DIMSTYLE
105
58
330
A
100
AcDbSymbolTableRecord
100
AcDbDimStyleTableRecord
  2
Standard
 70
     0
340
55
  0
DIMSTYLE
105
59
330
A
100
AcDbSymbolTableRecord
100
AcDbDimStyleTableRecord
  2
Annotative
 70
     0
340
55
1001
AcadAnnotative
1000
AnnotativeData
1002
{
1070
     1
1070
     1
1002
}
  0
DIMSTYLE
105
CF
330
A
100
AcDbSymbolTableRecord
100
AcDbDimStyleTableRecord
  2
Default - Method 1b (ISO)
 70
     0
 41
2.5
 42
0.0
 43
5.999999999999999
 44
3.174999999999999
 45
0.00000001
 46
10.0
 73
     0
 77
     1
 78
     8
 79
     2
140
2.5
143
0.03937
146
1.399999976158142
147
0.762
171
     3
172
     1
176
   256
177
   256
178
   232
179
     2
271
     2
272
     2
274
     3
278
    44
284
     8
286
     8
340
CE
371
    -1
372
    -1
  0
DIMSTYLE
105
D0
330
A
100
AcDbSymbolTableRecord
100
AcDbDimStyleTableRecord
  2
Default - Method 1b (ISO)$7
 70
     0
 41
2.5
 42
0.0
 43
5.999999999999999
 44
3.174999999999999
 45
0.00000001
 46
10.0
 73
     0
 77
     1
 78
     8
 79
     2
140
2.5
143
0.03937
146
1.399999976158142
147
0.762
171
     3
172
     1
176
   256
177
   256
178
   232
179
     2
271
     2
272
     2
274
     3
278
    44
284
     8
286
     8
340
CE
371
    -1
372
    -1
  0
DIMSTYLE
105
D1
330
A
100
AcDbSymbolTableRecord
100
AcDbDimStyleTableRecord
  2
Default - Method 2a (ISO)
 70
     0
 41
2.5
 42
0.0
 43
5.999999999999999
 44
3.174999999999999
 45
0.00000001
 46
10.0
 77
     1
 78
     8
 79
     2
140
2.5
143
0.03937
146
1.399999976158142
147
0.762
171
     3
172
     1
176
   256
177
   256
178
   232
179
     2
271
     2
272
     2
274
     3
278
    44
284
     8
286
     8
340
CE
371
    -1
372
    -1
  0
DIMSTYLE
105
D2
330
A
100
AcDbSymbolTableRecord
100
AcDbDimStyleTableRecord
  2
Default - Method 2a (ISO)$7
 70
     0
 41
2.5
 42
0.0
 43
5.999999999999999
 44
3.174999999999999
 45
0.00000001
 46
10.0
 77
     1
 78
     8
 79
     2
140
2.5
143
0.03937
146
1.399999976158142
147
0.762
171
     3
172
     1
176
   256
177
   256
178
   232
179
     2
271
     2
272
     2
274
     3
278
    44
284
     8
286
     8
340
CE
371
    -1
372
    -1
  0
DIMSTYLE
105
D3
330
A
100
AcDbSymbolTableRecord
100
AcDbDimStyleTableRecord
  2
Default - Method 2b (ISO)
 70
     0
 41
2.5
 42
0.0
 43
5.999999999999999
 44
3.174999999999999
 45
0.00000001
 46
10.0
 77
     1
 78
     8
 79
     2
140
2.5
143
0.03937
147
0.762
171
     3
172
     1
176
   256
177
   256
178
   232
179
     2
271
     2
272
     1
274
     3
278
    44
284
     8
286
     8
340
CE
371
    -1
372
    -1
  0
DIMSTYLE
105
D4
330
A
100
AcDbSymbolTableRecord
100
AcDbDimStyleTableRecord
  2
Default - Method 2b (ISO)$7
 70
     0
 41
2.5
 42
0.0
 43
5.999999999999999
 44
3.174999999999999
 45
0.00000001
 46
10.0
 77
     1
 78
     8
 79
     2
140
2.5
143
0.03937
147
0.762
171
     3
172
     1
176
   256
177
   256
178
   232
179
     2
271
     2
272
     1
274
     3
278
    44
284
     8
286
     8
340
CE
371
    -1
372
    -1
  0
DIMSTYLE
105
D5
330
A
100
AcDbSymbolTableRecord
100
AcDbDimStyleTableRecord
  2
Default - mm [in] (ISO)
 70
     0
  4
 in
 41
2.5
 42
0.0
 43
5.999999999999999
 44
3.174999999999999
 45
0.00000001
 46
10.0
 73
     0
 74
     0
 77
     1
 78
     8
 79
     2
140
2.5
143
0.03937
146
1.399999976158142
147
0.762
170
     1
171
     3
172
     1
176
   256
177
   256
178
   232
179
     3
271
     3
272
     2
274
     3
275
     1
278
    44
284
     8
285
     8
286
     8
340
CE
371
    -1
372
    -1
  0
DIMSTYLE
105
D6
330
A
100
AcDbSymbolTableRecord
100
AcDbDimStyleTableRecord
  2
Default - mm [in] (ISO)$7
 70
     0
  4
 in
 41
2.5
 42
0.0
 43
5.999999999999999
 44
3.174999999999999
 45
0.00000001
 46
10.0
 73
     0
 74
     0
 77
     1
 78
     8
 79
     2
140
2.5
143
0.03937
146
1.399999976158142
147
0.762
170
     1
171
     3
172
     1
176
   256
177
   256
178
   232
179
     3
271
     3
272
     2
274
     3
275
     1
278
    44
284
     8
285
     8
286
     8
340
CE
371
    -1
372
    -1
  0
DIMSTYLE
105
D7
102
{ACAD_REACTORS
330
300
330
3D7
330
4AE
330
584
330
65A
102
}
330
A
100
AcDbSymbolTableRecord
100
AcDbDimStyleTableRecord
  2
Default (ISO)
 70
     0
 41
2.5
 42
0.0
 43
5.999999999999999
 44
3.174999999999999
 45
0.00000001
 46
10.0
 73
     0
 74
     0
 77
     1
140
2.5
143
0.03937
146
1.402080059051513
147
0.762
171
     3
172
     1
176
   256
177
   256
178
   232
179
     2
271
     2
272
     2
274
     3
278
    44
340
CE
371
    -1
372
    -1
  0
DIMSTYLE
105
D8
330
A
100
AcDbSymbolTableRecord
100
AcDbDimStyleTableRecord
  2
Default (ISO)$7
 70
     0
 41
2.5
 42
0.0
 43
5.999999999999999
 44
3.174999999999999
 45
0.00000001
 46
10.0
 73
     0
 74
     0
 77
     1
140
2.5
143
0.03937
146
1.402080059051513
147
0.762
171
     3
172
     1
176
   256
177
   256
178
   232
179
     2
271
     2
272
     2
274
     3
278
    44
340
CE
371
    -1
372
    -1
  0
DIMSTYLE
105
D9
330
A
100
AcDbSymbolTableRecord
100
AcDbDimStyleTableRecord
  2
Alternate (ISO)
 70
     0
 41
2.5
340
55
342
DA
  0
DIMSTYLE
105
EC
330
A
100
AcDbSymbolTableRecord
100
AcDbDimStyleTableRecord
  2
Datum (ISO)
 70
     0
 41
2.5
340
55
342
DA
  0
DIMSTYLE
105
FB
330
A
100
AcDbSymbolTableRecord
100
AcDbDimStyleTableRecord
  2
Large (ISO)
 70
     0
 41
5.0
340
55
342
DA
  0
ENDTAB
  0
TABLE
  2
BLOCK_RECORD
  5
1
330
0
100
AcDbSymbolTable
 70
    12
  0
BLOCK_RECORD
  5
70
330
1
100
AcDbSymbolTableRecord
100
AcDbBlockTableRecord
  2
*Model_Space
340
73
 70
     0
280
     1
281
     0
  0
BLOCK_RECORD
  5
6C
330
1
100
AcDbSymbolTableRecord
100
AcDbBlockTableRecord
  2
*Paper_Space
340
6F
 70
     0
280
     1
281
     0
  0
BLOCK_RECORD
  5
74
330
1
100
AcDbSymbolTableRecord
100
AcDbBlockTableRecord
  2
*Paper_Space0
340
77
 70
     0
280
     1
281
     0
  0
BLOCK_RECORD
  5
DA
330
1
100
AcDbSymbolTableRecord
100
AcDbBlockTableRecord
  2
_Closed
340
0
 70
     0
280
     1
281
     0
  0
BLOCK_RECORD
  5
E1
330
1
100
AcDbSymbolTableRecord
100
AcDbBlockTableRecord
  2
DatumFilled45
340
0
 70
     0
280
     1
281
     0
  0
BLOCK_RECORD
  5
ED
330
1
100
AcDbSymbolTableRecord
100
AcDbBlockTableRecord
  2
Filled-1
340
0
 70
     0
280
     1
281
     0
  0
BLOCK_RECORD
  5
FC
330
1
100
AcDbSymbolTableRecord
100
AcDbBlockTableRecord
  2
Borders Default Border
340
0
102
{BLKREFS
331
16B
102
}
 70
     0
280
     1
281
     0
  0
BLOCK_RECORD
  5
16C
330
1
100
AcDbSymbolTableRecord
100
AcDbBlockTableRecord
  2
Title Blocks ISO
340
0
102
{BLKREFS
331
173
102
}
 70
     0
280
     1
281
     0
  0
BLOCK_RECORD
  5
20D
330
1
100
AcDbSymbolTableRecord
100
AcDbBlockTableRecord
  2
2dTransSection0
340
0
102
{BLKREFS
331
22D
102
}
 70
     0
280
     1
281
     0
  0
BLOCK_RECORD
  5
302
330
1
100
AcDbSymbolTableRecord
100
AcDbBlockTableRecord
  2
*D7
340
0
 70
     0
280
     1
281
     0
  0
BLOCK_RECORD
  5
3D8
330
1
100
AcDbSymbolTableRecord
100
AcDbBlockTableRecord
  2
*D8
340
0
 70
     0
280
     1
281
     0
  0
BLOCK_RECORD
  5
4AF
330
1
100
AcDbSymbolTableRecord
100
AcDbBlockTableRecord
  2
*D9
340
0
 70
     0
280
     1
281
     0
  0
BLOCK_RECORD
  5
585
330
1
100
AcDbSymbolTableRecord
100
AcDbBlockTableRecord
  2
*D10
340
0
 70
     0
280
     1
281
     0
  0
BLOCK_RECORD
  5
65B
330
1
100
AcDbSymbolTableRecord
100
AcDbBlockTableRecord
  2
*D11
340
0
 70
     0
280
     1
281
     0
  0
ENDTAB
  0
ENDSEC
  0
SECTION
  2
BLOCKS
  0
BLOCK
  5
71
330
70
100
AcDbEntity
  8
0
100
AcDbBlockBegin
  2
*Model_Space
 70
     0
 10
0.0
 20
0.0
 30
0.0
  3
*Model_Space
  1

  0
ENDBLK
  5
72
330
70
100
AcDbEntity
  8
0
100
AcDbBlockEnd
  0
BLOCK
  5
6D
330
6C
100
AcDbEntity
 67
     1
  8
0
100
AcDbBlockBegin
  2
*Paper_Space
 70
     0
 10
0.0
 20
0.0
 30
0.0
  3
*Paper_Space
  1

  0
ENDBLK
  5
6E
330
6C
100
AcDbEntity
 67
     1
  8
0
100
AcDbBlockEnd
  0
BLOCK
  5
75
330
74
100
AcDbEntity
 67
     1
  8
0
100
AcDbBlockBegin
  2
*Paper_Space0
 70
     0
 10
0.0
 20
0.0
 30
0.0
  3
*Paper_Space0
  1

  0
ENDBLK
  5
76
330
74
100
AcDbEntity
 67
     1
  8
0
100
AcDbBlockEnd
  0
BLOCK
  5
DF
330
DA
100
AcDbEntity
  8
0
100
AcDbBlockBegin
  2
_Closed
 70
     0
 10
0.0
 20
0.0
 30
0.0
  3
_Closed
  1

  0
LINE
  5
DB
330
DA
100
AcDbEntity
  8
0
  6
ByBlock
 62
     0
370
    -2
100
AcDbLine
 10
-1.0
 20
0.1666666666666666
 30
0.0
 11
0.0
 21
0.0
 31
0.0
  0
LINE
  5
DC
330
DA
100
AcDbEntity
  8
0
  6
ByBlock
 62
     0
370
    -2
100
AcDbLine
 10
0.0
 20
0.0
 30
0.0
 11
-1.0
 21
-0.1666666666666666
 31
0.0
  0
LINE
  5
DD
330
DA
100
AcDbEntity
  8
0
  6
ByBlock
 62
     0
370
    -2
100
AcDbLine
 10
-1.0
 20
0.1666666666666666
 30
0.0
 11
-1.0
 21
-0.1666666666666666
 31
0.0
  0
LINE
  5
DE
330
DA
100
AcDbEntity
  8
0
  6
ByBlock
 62
     0
370
    -2
100
AcDbLine
 10
0.0
 20
0.0
 30
0.0
 11
-1.0
 21
0.0
 31
0.0
  0
ENDBLK
  5
E0
330
DA
100
AcDbEntity
  8
0
100
AcDbBlockEnd
  0
BLOCK
  5
E2
330
E1
100
AcDbEntity
  8
0
100
AcDbBlockBegin
  2
DatumFilled45
 70
     0
 10
0.0
 20
0.0
 30
0.0
  3
DatumFilled45
  1

  0
POLYLINE
  5
E4
330
E1
100
AcDbEntity
  8
0
 62
     0
100
AcDb2dPolyline
 66
     1
 10
0.0
 20
0.0
 30
0.0
 70
   128
  0
VERTEX
  5
E5
330
E4
100
AcDbEntity
  8
0
 62
     0
100
AcDbVertex
100
AcDb2dVertex
 10
0.0
 20
1.0
 30
0.0
  0
VERTEX
  5
E6
330
E4
100
AcDbEntity
  8
0
 62
     0
100
AcDbVertex
100
AcDb2dVertex
 10
0.0
 20
-1.0
 30
0.0
  0
VERTEX
  5
E8
330
E4
100
AcDbEntity
  8
0
 62
     0
100
AcDbVertex
100
AcDb2dVertex
 10
-1.0
 20
0.0
 30
0.0
  0
VERTEX
  5
E9
330
E4
100
AcDbEntity
  8
0
 62
     0
100
AcDbVertex
100
AcDb2dVertex
 10
0.0
 20
1.0
 30
0.0
  0
SEQEND
  5
E7
330
E4
100
AcDbEntity
  8
0
 62
     0
  0
SOLID
  5
EB
330
E1
100
AcDbEntity
  8
0
 62
     0
100
AcDbTrace
 10
0.0
 20
1.0
 30
0.0
 11
0.0
 21
-1.0
 31
0.0
 12
-1.0
 22
0.0
 32
0.0
 13
0.0
 23
1.0
 33
0.0
  0
ENDBLK
  5
E3
330
E1
100
AcDbEntity
  8
0
100
AcDbBlockEnd
  0
BLOCK
  5
EE
330
ED
100
AcDbEntity
  8
0
100
AcDbBlockBegin
  2
Filled-1
 70
     0
 10
0.0
 20
0.0
 30
0.0
  3
Filled-1
  1

  0
LINE
  5
F0
330
ED
100
AcDbEntity
  8
0
 62
     0
100
AcDbLine
 10
-1.0
 20
0.0
 30
0.0
 11
0.0
 21
0.0
 31
0.0
  0
POLYLINE
  5
F1
330
ED
100
AcDbEntity
  8
0
 62
     0
100
AcDb2dPolyline
 66
     1
 10
0.0
 20
0.0
 30
0.0
 70
   128
  0
VERTEX
  5
F2
330
F1
100
AcDbEntity
  8
0
 62
     0
100
AcDbVertex
100
AcDb2dVertex
 10
-1.0
 20
-0.1
 30
0.0
  0
VERTEX
  5
F3
330
F1
100
AcDbEntity
  8
0
 62
     0
100
AcDbVertex
100
AcDb2dVertex
 10
0.0
 20
0.0
 30
0.0
  0
VERTEX
  5
F5
330
F1
100
AcDbEntity
  8
0
 62
     0
100
AcDbVertex
100
AcDb2dVertex
 10
-1.0
 20
0.1
 30
0.0
  0
VERTEX
  5
F6
330
F1
100
AcDbEntity
  8
0
 62
     0
100
AcDbVertex
100
AcDb2dVertex
 10
-1.0
 20
-0.1
 30
0.0
  0
SEQEND
  5
F4
330
F1
100
AcDbEntity
  8
0
 62
     0
  0
SOLID
  5
F7
330
ED
100
AcDbEntity
  8
0
 62
     0
100
AcDbTrace
 10
-1.0
 20
-0.1
 30
0.0
 11
0.0
 21
0.0
 31
0.0
 12
-1.0
 22
0.1
 32
0.0
 13
-1.0
 23
-0.1
 33
0.0
  0
LINE
  5
F8
330
ED
100
AcDbEntity
  8
0
 62
     0
100
AcDbLine
 10
-1.0
 20
-0.1
 30
0.0
 11
0.0
 21
0.0
 31
0.0
  0
LINE
  5
F9
330
ED
100
AcDbEntity
  8
0
 62
     0
100
AcDbLine
 10
0.0
 20
0.0
 30
0.0
 11
-1.0
 21
0.1
 31
0.0
  0
LINE
  5
FA
330
ED
100
AcDbEntity
  8
0
 62
     0
100
AcDbLine
 10
-1.0
 20
0.1
 30
0.0
 11
-1.0
 21
-0.1
 31
0.0
  0
ENDBLK
  5
EF
330
ED
100
AcDbEntity
  8
0
100
AcDbBlockEnd
  0
BLOCK
  5
FD
330
FC
100
AcDbEntity
  8
0
100
AcDbBlockBegin
  2
Borders Default Border
 70
     0
 10
0.0
 20
0.0
 30
0.0
  3
Borders Default Border
  1

  0
POLYLINE
  5
FF
330
FC
100
AcDbEntity
  8
Border (ISO)
100
AcDb2dPolyline
 66
     1
 10
0.0
 20
0.0
 30
0.0
 70
   128
  0
VERTEX
  5
100
330
FF
100
AcDbEntity
  8
Border (ISO)
100
AcDbVertex
100
AcDb2dVertex
 10
20.0
 20
20.0
 30
0.0
  0
VERTEX
  5
101
330
FF
100
AcDbEntity
  8
Border (ISO)
100
AcDbVertex
100
AcDb2dVertex
 10
20.0
 20
574.000015258789
 30
0.0
  0
VERTEX
  5
103
330
FF
100
AcDbEntity
  8
Border (ISO)
100
AcDbVertex
100
AcDb2dVertex
 10
820.999984741211
 20
574.000015258789
 30
0.0
  0
VERTEX
  5
104
330
FF
100
AcDbEntity
  8
Border (ISO)
100
AcDbVertex
100
AcDb2dVertex
 10
820.999984741211
 20
20.0
 30
0.0
  0
VERTEX
  5
105
330
FF
100
AcDbEntity
  8
Border (ISO)
100
AcDbVertex
100
AcDb2dVertex
 10
20.0
 20
20.0
 30
0.0
  0
SEQEND
  5
102
330
FF
100
AcDbEntity
  8
Border (ISO)
  0
POLYLINE
  5
106
330
FC
100
AcDbEntity
  8
Border (ISO)
100
AcDb2dPolyline
 66
     1
 10
0.0
 20
0.0
 30
0.0
 70
   128
  0
VERTEX
  5
107
330
106
100
AcDbEntity
  8
Border (ISO)
100
AcDbVertex
100
AcDb2dVertex
 10
420.4999923706054
 20
0.0
 30
0.0
  0
VERTEX
  5
108
330
106
100
AcDbEntity
  8
Border (ISO)
100
AcDbVertex
100
AcDb2dVertex
 10
420.4999923706054
 20
20.0
 30
0.0
  0
VERTEX
  5
10A
330
106
100
AcDbEntity
  8
Border (ISO)
100
AcDbVertex
100
AcDb2dVertex
 10
414.7264862060547
 20
10.0
 30
0.0
  0
VERTEX
  5
10B
330
106
100
AcDbEntity
  8
Border (ISO)
100
AcDbVertex
100
AcDb2dVertex
 10
426.2734985351562
 20
10.0
 30
0.0
  0
VERTEX
  5
10C
330
106
100
AcDbEntity
  8
Border (ISO)
100
AcDbVertex
100
AcDb2dVertex
 10
420.4999923706054
 20
20.0
 30
0.0
  0
SEQEND
  5
109
330
106
100
AcDbEntity
  8
Border (ISO)
  0
POLYLINE
  5
10D
330
FC
100
AcDbEntity
  8
Border (ISO)
100
AcDb2dPolyline
 66
     1
 10
0.0
 20
0.0
 30
0.0
 70
   128
  0
VERTEX
  5
10E
330
10D
100
AcDbEntity
  8
Border (ISO)
100
AcDbVertex
100
AcDb2dVertex
 10
420.4999923706054
 20
594.0000152587891
 30
0.0
  0
VERTEX
  5
10F
330
10D
100
AcDbEntity
  8
Border (ISO)
100
AcDbVertex
100
AcDb2dVertex
 10
420.4999923706054
 20
574.000015258789
 30
0.0
  0
VERTEX
  5
111
330
10D
100
AcDbEntity
  8
Border (ISO)
100
AcDbVertex
100
AcDb2dVertex
 10
414.7264862060547
 20
584.000015258789
 30
0.0
  0
VERTEX
  5
112
330
10D
100
AcDbEntity
  8
Border (ISO)
100
AcDbVertex
100
AcDb2dVertex
 10
426.2734985351562
 20
584.000015258789
 30
0.0
  0
VERTEX
  5
113
330
10D
100
AcDbEntity
  8
Border (ISO)
100
AcDbVertex
100
AcDb2dVertex
 10
420.4999923706054
 20
574.000015258789
 30
0.0
  0
SEQEND
  5
110
330
10D
100
AcDbEntity
  8
Border (ISO)
  0
POLYLINE
  5
114
330
FC
100
AcDbEntity
  8
Border (ISO)
100
AcDb2dPolyline
 66
     1
 10
0.0
 20
0.0
 30
0.0
 70
   128
  0
VERTEX
  5
115
330
114
100
AcDbEntity
  8
Border (ISO)
100
AcDbVertex
100
AcDb2dVertex
 10
0.0
 20
297.0000076293946
 30
0.0
  0
VERTEX
  5
116
330
114
100
AcDbEntity
  8
Border (ISO)
100
AcDbVertex
100
AcDb2dVertex
 10
20.0
 20
297.0000076293946
 30
0.0
  0
VERTEX
  5
118
330
114
100
AcDbEntity
  8
Border (ISO)
100
AcDbVertex
100
AcDb2dVertex
 10
10.0
 20
302.773494720459
 30
0.0
  0
VERTEX
  5
119
330
114
100
AcDbEntity
  8
Border (ISO)
100
AcDbVertex
100
AcDb2dVertex
 10
10.0
 20
291.2265014648438
 30
0.0
  0
VERTEX
  5
11A
330
114
100
AcDbEntity
  8
Border (ISO)
100
AcDbVertex
100
AcDb2dVertex
 10
20.0
 20
297.0000076293946
 30
0.0
  0
SEQEND
  5
117
330
114
100
AcDbEntity
  8
Border (ISO)
  0
POLYLINE
  5
11B
330
FC
100
AcDbEntity
  8
Border (ISO)
100
AcDb2dPolyline
 66
     1
 10
0.0
 20
0.0
 30
0.0
 70
   128
  0
VERTEX
  5
11C
330
11B
100
AcDbEntity
  8
Border (ISO)
100
AcDbVertex
100
AcDb2dVertex
 10
840.9999847412109
 20
297.0000076293946
 30
0.0
  0
VERTEX
  5
11D
330
11B
100
AcDbEntity
  8
Border (ISO)
100
AcDbVertex
100
AcDb2dVertex
 10
820.999984741211
 20
297.0000076293946
 30
0.0
  0
VERTEX
  5
11F
330
11B
100
AcDbEntity
  8
Border (ISO)
100
AcDbVertex
100
AcDb2dVertex
 10
830.9999847412109
 20
302.773494720459
 30
0.0
  0
VERTEX
  5
120
330
11B
100
AcDbEntity
  8
Border (ISO)
100
AcDbVertex
100
AcDb2dVertex
 10
830.9999847412109
 20
291.2265014648438
 30
0.0
  0
VERTEX
  5
121
330
11B
100
AcDbEntity
  8
Border (ISO)
100
AcDbVertex
100
AcDb2dVertex
 10
820.999984741211
 20
297.0000076293946
 30
0.0
  0
SEQEND
  5
11E
330
11B
100
AcDbEntity
  8
Border (ISO)
  0
LINE
  5
122
330
FC
100
AcDbEntity
  8
Border (ISO)
100
AcDbLine
 10
70.08333206176757
 20
20.0
 30
0.0
 11
70.08333206176757
 21
17.10000038146972
 31
0.0
  0
LINE
  5
123
330
FC
100
AcDbEntity
  8
Border (ISO)
100
AcDbLine
 10
70.08333206176757
 20
574.000015258789
 30
0.0
 11
70.08333206176757
 21
576.8999862670898
 31
0.0
  0
LINE
  5
124
330
FC
100
AcDbEntity
  8
Border (ISO)
100
AcDbLine
 10
140.1666641235351
 20
20.0
 30
0.0
 11
140.1666641235351
 21
17.10000038146972
 31
0.0
  0
LINE
  5
125
330
FC
100
AcDbEntity
  8
Border (ISO)
100
AcDbLine
 10
140.1666641235351
 20
574.000015258789
 30
0.0
 11
140.1666641235351
 21
576.8999862670898
 31
0.0
  0
LINE
  5
126
330
FC
100
AcDbEntity
  8
Border (ISO)
100
AcDbLine
 10
210.2499961853027
 20
20.0
 30
0.0
 11
210.2499961853027
 21
17.10000038146972
 31
0.0
  0
LINE
  5
127
330
FC
100
AcDbEntity
  8
Border (ISO)
100
AcDbLine
 10
210.2499961853027
 20
574.000015258789
 30
0.0
 11
210.2499961853027
 21
576.8999862670898
 31
0.0
  0
LINE
  5
128
330
FC
100
AcDbEntity
  8
Border (ISO)
100
AcDbLine
 10
280.3333282470703
 20
20.0
 30
0.0
 11
280.3333282470703
 21
17.10000038146972
 31
0.0
  0
LINE
  5
129
330
FC
100
AcDbEntity
  8
Border (ISO)
100
AcDbLine
 10
280.3333282470703
 20
574.000015258789
 30
0.0
 11
280.3333282470703
 21
576.8999862670898
 31
0.0
  0
LINE
  5
12A
330
FC
100
AcDbEntity
  8
Border (ISO)
100
AcDbLine
 10
350.4166793823242
 20
20.0
 30
0.0
 11
350.4166793823242
 21
17.10000038146972
 31
0.0
  0
LINE
  5
12B
330
FC
100
AcDbEntity
  8
Border (ISO)
100
AcDbLine
 10
350.4166793823242
 20
574.000015258789
 30
0.0
 11
350.4166793823242
 21
576.8999862670898
 31
0.0
  0
LINE
  5
12C
330
FC
100
AcDbEntity
  8
Border (ISO)
100
AcDbLine
 10
490.5833435058593
 20
20.0
 30
0.0
 11
490.5833435058593
 21
17.10000038146972
 31
0.0
  0
LINE
  5
12D
330
FC
100
AcDbEntity
  8
Border (ISO)
100
AcDbLine
 10
490.5833435058593
 20
574.000015258789
 30
0.0
 11
490.5833435058593
 21
576.8999862670898
 31
0.0
  0
LINE
  5
12E
330
FC
100
AcDbEntity
  8
Border (ISO)
100
AcDbLine
 10
560.6666564941406
 20
20.0
 30
0.0
 11
560.6666564941406
 21
17.10000038146972
 31
0.0
  0
LINE
  5
12F
330
FC
100
AcDbEntity
  8
Border (ISO)
100
AcDbLine
 10
560.6666564941406
 20
574.000015258789
 30
0.0
 11
560.6666564941406
 21
576.8999862670898
 31
0.0
  0
LINE
  5
130
330
FC
100
AcDbEntity
  8
Border (ISO)
100
AcDbLine
 10
630.7500076293945
 20
20.0
 30
0.0
 11
630.7500076293945
 21
17.10000038146972
 31
0.0
  0
LINE
  5
131
330
FC
100
AcDbEntity
  8
Border (ISO)
100
AcDbLine
 10
630.7500076293945
 20
574.000015258789
 30
0.0
 11
630.7500076293945
 21
576.8999862670898
 31
0.0
  0
LINE
  5
132
330
FC
100
AcDbEntity
  8
Border (ISO)
100
AcDbLine
 10
700.8333587646484
 20
20.0
 30
0.0
 11
700.8333587646484
 21
17.10000038146972
 31
0.0
  0
LINE
  5
133
330
FC
100
AcDbEntity
  8
Border (ISO)
100
AcDbLine
 10
700.8333587646484
 20
574.000015258789
 30
0.0
 11
700.8333587646484
 21
576.8999862670898
 31
0.0
  0
LINE
  5
134
330
FC
100
AcDbEntity
  8
Border (ISO)
100
AcDbLine
 10
770.9166717529297
 20
20.0
 30
0.0
 11
770.9166717529297
 21
17.10000038146972
 31
0.0
  0
LINE
  5
135
330
FC
100
AcDbEntity
  8
Border (ISO)
100
AcDbLine
 10
770.9166717529297
 20
574.000015258789
 30
0.0
 11
770.9166717529297
 21
576.8999862670898
 31
0.0
  0
MTEXT
  5
136
330
FC
100
AcDbEntity
  8
Border (ISO)
 62
   232
420
 13238372
100
AcDbMText
 10
34.47766113364014
 20
574.3999999999999
 30
0.0
 40
2.5
 41
0.0
 46
0.0
 71
     7
 72
     1
  1
1
  7
Note Text (ISO)
 73
     1
 44
1.0
  0
MTEXT
  5
138
330
FC
100
AcDbEntity
  8
Border (ISO)
 62
   232
420
 13238372
100
AcDbMText
 10
34.47766113364014
 20
17.1
 30
0.0
 40
2.5
 41
0.0
 46
0.0
 71
     7
 72
     1
  1
1
  7
Note Text (ISO)
 73
     1
 44
1.0
  0
MTEXT
  5
139
330
FC
100
AcDbEntity
  8
Border (ISO)
 62
   232
420
 13238372
100
AcDbMText
 10
104.3669939703322
 20
574.3999999999999
 30
0.0
 40
2.5
 41
0.0
 46
0.0
 71
     7
 72
     1
  1
2
  7
Note Text (ISO)
 73
     1
 44
1.0
  0
MTEXT
  5
13A
330
FC
100
AcDbEntity
  8
Border (ISO)
 62
   232
420
 13238372
100
AcDbMText
 10
104.3669939703322
 20
17.1
 30
0.0
 40
2.5
 41
0.0
 46
0.0
 71
     7
 72
     1
  1
2
  7
Note Text (ISO)
 73
     1
 44
1.0
  0
MTEXT
  5
13B
330
FC
100
AcDbEntity
  8
Border (ISO)
 62
   232
420
 13238372
100
AcDbMText
 10
174.4303272524654
 20
574.3473257688805
 30
0.0
 40
2.5
 41
0.0
 46
0.0
 71
     7
 72
     1
  1
3
  7
Note Text (ISO)
 73
     1
 44
1.0
  0
MTEXT
  5
13C
330
FC
100
AcDbEntity
  8
Border (ISO)
 62
   232
420
 13238372
100
AcDbMText
 10
174.4303272524654
 20
17.04732576888055
 30
0.0
 40
2.5
 41
0.0
 46
0.0
 71
     7
 72
     1
  1
3
  7
Note Text (ISO)
 73
     1
 44
1.0
  0
MTEXT
  5
13D
330
FC
100
AcDbEntity
  8
Border (ISO)
 62
   232
420
 13238372
100
AcDbMText
 10
244.4196603451581
 20
574.3999999999999
 30
0.0
 40
2.5
 41
0.0
 46
0.0
 71
     7
 72
     1
  1
4
  7
Note Text (ISO)
 73
     1
 44
1.0
  0
MTEXT
  5
13E
330
FC
100
AcDbEntity
  8
Border (ISO)
 62
   232
420
 13238372
100
AcDbMText
 10
244.4196603451581
 20
17.1
 30
0.0
 40
2.5
 41
0.0
 46
0.0
 71
     7
 72
     1
  1
4
  7
Note Text (ISO)
 73
     1
 44
1.0
  0
MTEXT
  5
13F
330
FC
100
AcDbEntity
  8
Border (ISO)
 62
   232
420
 13238372
100
AcDbMText
 10
314.6429940368923
 20
574.3473257688805
 30
0.0
 40
2.5
 41
0.0
 46
0.0
 71
     7
 72
     1
  1
5
  7
Note Text (ISO)
 73
     1
 44
1.0
  0
MTEXT
  5
140
330
FC
100
AcDbEntity
  8
Border (ISO)
 62
   232
420
 13238372
100
AcDbMText
 10
314.6429940368923
 20
17.04732576888055
 30
0.0
 40
2.5
 41
0.0
 46
0.0
 71
     7
 72
     1
  1
5
  7
Note Text (ISO)
 73
     1
 44
1.0
  0
MTEXT
  5
141
330
FC
100
AcDbEntity
  8
Border (ISO)
 62
   232
420
 13238372
100
AcDbMText
 10
384.6603272012653
 20
574.3473257688805
 30
0.0
 40
2.5
 41
0.0
 46
0.0
 71
     7
 72
     1
  1
6
  7
Note Text (ISO)
 73
     1
 44
1.0
  0
MTEXT
  5
142
330
FC
100
AcDbEntity
  8
Border (ISO)
 62
   232
420
 13238372
100
AcDbMText
 10
384.6603272012653
 20
17.04732576888055
 30
0.0
 40
2.5
 41
0.0
 46
0.0
 71
     7
 72
     1
  1
6
  7
Note Text (ISO)
 73
     1
 44
1.0
  0
MTEXT
  5
143
330
FC
100
AcDbEntity
  8
Border (ISO)
 62
   232
420
 13238372
100
AcDbMText
 10
454.7676605960387
 20
574.3999999999999
 30
0.0
 40
2.5
 41
0.0
 46
0.0
 71
     7
 72
     1
  1
7
  7
Note Text (ISO)
 73
     1
 44
1.0
  0
MTEXT
  5
144
330
FC
100
AcDbEntity
  8
Border (ISO)
 62
   232
420
 13238372
100
AcDbMText
 10
454.7676605960387
 20
17.1
 30
0.0
 40
2.5
 41
0.0
 46
0.0
 71
     7
 72
     1
  1
7
  7
Note Text (ISO)
 73
     1
 44
1.0
  0
MTEXT
  5
145
330
FC
100
AcDbEntity
  8
Border (ISO)
 62
   232
420
 13238372
100
AcDbMText
 10
524.8089938218518
 20
574.3432739056646
 30
0.0
 40
2.5
 41
0.0
 46
0.0
 71
     7
 72
     1
  1
8
  7
Note Text (ISO)
 73
     1
 44
1.0
  0
MTEXT
  5
146
330
FC
100
AcDbEntity
  8
Border (ISO)
 62
   232
420
 13238372
100
AcDbMText
 10
524.8089938218518
 20
17.04327390566468
 30
0.0
 40
2.5
 41
0.0
 46
0.0
 71
     7
 72
     1
  1
8
  7
Note Text (ISO)
 73
     1
 44
1.0
  0
MTEXT
  5
147
330
FC
100
AcDbEntity
  8
Border (ISO)
 62
   232
420
 13238372
100
AcDbMText
 10
594.882327129585
 20
574.3513776320964
 30
0.0
 40
2.5
 41
0.0
 46
0.0
 71
     7
 72
     1
  1
9
  7
Note Text (ISO)
 73
     1
 44
1.0
  0
MTEXT
  5
148
330
FC
100
AcDbEntity
  8
Border (ISO)
 62
   232
420
 13238372
100
AcDbMText
 10
594.882327129585
 20
17.05137763209641
 30
0.0
 40
2.5
 41
0.0
 46
0.0
 71
     7
 72
     1
  1
9
  7
Note Text (ISO)
 73
     1
 44
1.0
  0
MTEXT
  5
149
330
FC
100
AcDbEntity
  8
Border (ISO)
 62
   232
420
 13238372
100
AcDbMText
 10
664.2896546431711
 20
574.3473257688805
 30
0.0
 40
2.5
 41
0.0
 46
0.0
 71
     7
 72
     1
  1
10
  7
Note Text (ISO)
 73
     1
 44
1.0
  0
MTEXT
  5
14A
330
FC
100
AcDbEntity
  8
Border (ISO)
 62
   232
420
 13238372
100
AcDbMText
 10
664.2896546431711
 20
17.04732576888055
 30
0.0
 40
2.5
 41
0.0
 46
0.0
 71
     7
 72
     1
  1
10
  7
Note Text (ISO)
 73
     1
 44
1.0
  0
MTEXT
  5
14B
330
FC
100
AcDbEntity
  8
Border (ISO)
 62
   232
420
 13238372
100
AcDbMText
 10
734.3729879765045
 20
574.3999999999999
 30
0.0
 40
2.5
 41
0.0
 46
0.0
 71
     7
 72
     1
  1
11
  7
Note Text (ISO)
 73
     1
 44
1.0
  0
MTEXT
  5
14C
330
FC
100
AcDbEntity
  8
Border (ISO)
 62
   232
420
 13238372
100
AcDbMText
 10
734.3729879765045
 20
17.1
 30
0.0
 40
2.5
 41
0.0
 46
0.0
 71
     7
 72
     1
  1
11
  7
Note Text (ISO)
 73
     1
 44
1.0
  0
MTEXT
  5
14D
330
FC
100
AcDbEntity
  8
Border (ISO)
 62
   232
420
 13238372
100
AcDbMText
 10
804.4563213098378
 20
574.3999999999999
 30
0.0
 40
2.5
 41
0.0
 46
0.0
 71
     7
 72
     1
  1
12
  7
Note Text (ISO)
 73
     1
 44
1.0
  0
MTEXT
  5
14E
330
FC
100
AcDbEntity
  8
Border (ISO)
 62
   232
420
 13238372
100
AcDbMText
 10
804.4563213098378
 20
17.1
 30
0.0
 40
2.5
 41
0.0
 46
0.0
 71
     7
 72
     1
  1
12
  7
Note Text (ISO)
 73
     1
 44
1.0
  0
LINE
  5
14F
330
FC
100
AcDbEntity
  8
Border (ISO)
100
AcDbLine
 10
20.0
 20
74.25000190734863
 30
0.0
 11
17.10000038146972
 21
74.25000190734863
 31
0.0
  0
LINE
  5
150
330
FC
100
AcDbEntity
  8
Border (ISO)
100
AcDbLine
 10
820.999984741211
 20
74.25000190734863
 30
0.0
 11
823.8999938964843
 21
74.25000190734863
 31
0.0
  0
LINE
  5
151
330
FC
100
AcDbEntity
  8
Border (ISO)
100
AcDbLine
 10
20.0
 20
148.5000038146973
 30
0.0
 11
17.10000038146972
 21
148.5000038146973
 31
0.0
  0
LINE
  5
152
330
FC
100
AcDbEntity
  8
Border (ISO)
100
AcDbLine
 10
820.999984741211
 20
148.5000038146973
 30
0.0
 11
823.8999938964843
 21
148.5000038146973
 31
0.0
  0
LINE
  5
153
330
FC
100
AcDbEntity
  8
Border (ISO)
100
AcDbLine
 10
20.0
 20
222.7499961853027
 30
0.0
 11
17.10000038146972
 21
222.7499961853027
 31
0.0
  0
LINE
  5
154
330
FC
100
AcDbEntity
  8
Border (ISO)
100
AcDbLine
 10
820.999984741211
 20
222.7499961853027
 30
0.0
 11
823.8999938964843
 21
222.7499961853027
 31
0.0
  0
LINE
  5
155
330
FC
100
AcDbEntity
  8
Border (ISO)
100
AcDbLine
 10
20.0
 20
371.25
 30
0.0
 11
17.10000038146972
 21
371.25
 31
0.0
  0
LINE
  5
156
330
FC
100
AcDbEntity
  8
Border (ISO)
100
AcDbLine
 10
820.999984741211
 20
371.25
 30
0.0
 11
823.8999938964843
 21
371.25
 31
0.0
  0
LINE
  5
157
330
FC
100
AcDbEntity
  8
Border (ISO)
100
AcDbLine
 10
20.0
 20
445.4999923706054
 30
0.0
 11
17.10000038146972
 21
445.4999923706054
 31
0.0
  0
LINE
  5
158
330
FC
100
AcDbEntity
  8
Border (ISO)
100
AcDbLine
 10
820.999984741211
 20
445.4999923706054
 30
0.0
 11
823.8999938964843
 21
445.4999923706054
 31
0.0
  0
LINE
  5
159
330
FC
100
AcDbEntity
  8
Border (ISO)
100
AcDbLine
 10
20.0
 20
519.7499847412109
 30
0.0
 11
17.10000038146972
 21
519.7499847412109
 31
0.0
  0
LINE
  5
15A
330
FC
100
AcDbEntity
  8
Border (ISO)
100
AcDbLine
 10
820.999984741211
 20
519.7499847412109
 30
0.0
 11
823.8999938964843
 21
519.7499847412109
 31
0.0
  0
MTEXT
  5
15B
330
FC
100
AcDbEntity
  8
Border (ISO)
 62
   232
420
 13238372
100
AcDbMText
 10
17.28659316639921
 20
555.625
 30
0.0
 40
2.5
 41
0.0
 46
0.0
 71
     7
 72
     1
  1
A
  7
Note Text (ISO)
 73
     1
 44
1.0
  0
MTEXT
  5
15C
330
FC
100
AcDbEntity
  8
Border (ISO)
 62
   232
420
 13238372
100
AcDbMText
 10
821.5865931663993
 20
555.625
 30
0.0
 40
2.5
 41
0.0
 46
0.0
 71
     7
 72
     1
  1
A
  7
Note Text (ISO)
 73
     1
 44
1.0
  0
MTEXT
  5
15D
330
FC
100
AcDbEntity
  8
Border (ISO)
 62
   232
420
 13238372
100
AcDbMText
 10
17.58703467771087
 20
481.3749999999999
 30
0.0
 40
2.5
 41
0.0
 46
0.0
 71
     7
 72
     1
  1
B
  7
Note Text (ISO)
 73
     1
 44
1.0
  0
MTEXT
  5
15E
330
FC
100
AcDbEntity
  8
Border (ISO)
 62
   232
420
 13238372
100
AcDbMText
 10
821.8870346777109
 20
481.3749999999999
 30
0.0
 40
2.5
 41
0.0
 46
0.0
 71
     7
 72
     1
  1
B
  7
Note Text (ISO)
 73
     1
 44
1.0
  0
MTEXT
  5
15F
330
FC
100
AcDbEntity
  8
Border (ISO)
 62
   232
420
 13238372
100
AcDbMText
 10
17.42778797951198
 20
407.0804294999689
 30
0.0
 40
2.5
 41
0.0
 46
0.0
 71
     7
 72
     1
  1
C
  7
Note Text (ISO)
 73
     1
 44
1.0
  0
MTEXT
  5
160
330
FC
100
AcDbEntity
  8
Border (ISO)
 62
   232
420
 13238372
100
AcDbMText
 10
821.7277879795119
 20
407.0804294999689
 30
0.0
 40
2.5
 41
0.0
 46
0.0
 71
     7
 72
     1
  1
C
  7
Note Text (ISO)
 73
     1
 44
1.0
  0
MTEXT
  5
161
330
FC
100
AcDbEntity
  8
Border (ISO)
 62
   232
420
 13238372
100
AcDbMText
 10
17.43407686575924
 20
332.8750000000001
 30
0.0
 40
2.5
 41
0.0
 46
0.0
 71
     7
 72
     1
  1
D
  7
Note Text (ISO)
 73
     1
 44
1.0
  0
MTEXT
  5
162
330
FC
100
AcDbEntity
  8
Border (ISO)
 62
   232
420
 13238372
100
AcDbMText
 10
821.7340768657592
 20
332.8750000000001
 30
0.0
 40
2.5
 41
0.0
 46
0.0
 71
     7
 72
     1
  1
D
  7
Note Text (ISO)
 73
     1
 44
1.0
  0
MTEXT
  5
163
330
FC
100
AcDbEntity
  8
Border (ISO)
 62
   232
420
 13238372
100
AcDbMText
 10
17.63565709218059
 20
258.6250000000001
 30
0.0
 40
2.5
 41
0.0
 46
0.0
 71
     7
 72
     1
  1
E
  7
Note Text (ISO)
 73
     1
 44
1.0
  0
MTEXT
  5
164
330
FC
100
AcDbEntity
  8
Border (ISO)
 62
   232
420
 13238372
100
AcDbMText
 10
821.9356570921807
 20
258.6250000000001
 30
0.0
 40
2.5
 41
0.0
 46
0.0
 71
     7
 72
     1
  1
E
  7
Note Text (ISO)
 73
     1
 44
1.0
  0
MTEXT
  5
165
330
FC
100
AcDbEntity
  8
Border (ISO)
 62
   232
420
 13238372
100
AcDbMText
 10
17.70352577194248
 20
184.375
 30
0.0
 40
2.5
 41
0.0
 46
0.0
 71
     7
 72
     1
  1
F
  7
Note Text (ISO)
 73
     1
 44
1.0
  0
MTEXT
  5
166
330
FC
100
AcDbEntity
  8
Border (ISO)
 62
   232
420
 13238372
100
AcDbMText
 10
822.0035257719425
 20
184.375
 30
0.0
 40
2.5
 41
0.0
 46
0.0
 71
     7
 72
     1
  1
F
  7
Note Text (ISO)
 73
     1
 44
1.0
  0
MTEXT
  5
167
330
FC
100
AcDbEntity
  8
Border (ISO)
 62
   232
420
 13238372
100
AcDbMText
 10
17.31230986621833
 20
110.0763776320965
 30
0.0
 40
2.5
 41
0.0
 46
0.0
 71
     7
 72
     1
  1
G
  7
Note Text (ISO)
 73
     1
 44
1.0
  0
MTEXT
  5
168
330
FC
100
AcDbEntity
  8
Border (ISO)
 62
   232
420
 13238372
100
AcDbMText
 10
821.6123098662183
 20
110.0763776320965
 30
0.0
 40
2.5
 41
0.0
 46
0.0
 71
     7
 72
     1
  1
G
  7
Note Text (ISO)
 73
     1
 44
1.0
  0
MTEXT
  5
169
330
FC
100
AcDbEntity
  8
Border (ISO)
 62
   232
420
 13238372
100
AcDbMText
 10
17.43914169594322
 20
35.87500000000007
 30
0.0
 40
2.5
 41
0.0
 46
0.0
 71
     7
 72
     1
  1
H
  7
Note Text (ISO)
 73
     1
 44
1.0
  0
MTEXT
  5
16A
330
FC
100
AcDbEntity
  8
Border (ISO)
 62
   232
420
 13238372
100
AcDbMText
 10
821.7391416959433
 20
35.87500000000007
 30
0.0
 40
2.5
 41
0.0
 46
0.0
 71
     7
 72
     1
  1
H
  7
Note Text (ISO)
 73
     1
 44
1.0
  0
ENDBLK
  5
FE
330
FC
100
AcDbEntity
  8
0
100
AcDbBlockEnd
  0
BLOCK
  5
16D
330
16C
100
AcDbEntity
  8
0
100
AcDbBlockBegin
  2
Title Blocks ISO
 70
     2
 10
0.0
 20
0.0
 30
0.0
  3
Title Blocks ISO
  1

  0
ATTDEF
  5
16F
102
{ACAD_XDICTIONARY
360
739
102
}
330
16C
100
AcDbEntity
  8
Title (ISO)
 62
   232
420
 13238372
100
AcDbText
 10
34.15585882339947
 20
73.13494450671268
 30
0.0
 40
2.5
  1
491204225
  7
Note Text (ISO)
100
AcDbAttributeDefinition
280
     0
  3
PART NUMBER
  2
PART_NUMBER_001
 70
     0
280
     0
  0
ATTDEF
  5
172
102
{ACAD_XDICTIONARY
360
73C
102
}
330
16C
100
AcDbEntity
  8
Title (ISO)
 62
   232
420
 13238372
100
AcDbText
 10
33.83688029166227
 20
63.39776635682264
 30
0.0
 40
2.5
  1
PLASSON END CAP 225
  7
Note Text (ISO)
100
AcDbAttributeDefinition
280
     0
  3
DESCRIPTION
  2
DESCRIPTION_001
 70
     0
280
     0
  0
ENDBLK
  5
16E
330
16C
100
AcDbEntity
  8
0
100
AcDbBlockEnd
  0
BLOCK
  5
20E
330
20D
100
AcDbEntity
  8
0
100
AcDbBlockBegin
  2
2dTransSection0
 70
     0
 10
0.0
 20
0.0
 30
0.0
  3
2dTransSection0
  1

  0
LINE
  5
210
330
20D
100
AcDbEntity
  8
Section Line (ISO)
  6
CHAIN
 48
47.37475204467773
100
AcDbLine
 10
194.8554996211946
 20
-83.97121244450785
 30
0.0
 11
978.144597374381
 21
-83.97121244450785
 31
0.0
  0
LINE
  5
211
330
20D
100
AcDbEntity
  8
Section Line (ISO)
  6
Continuous
370
   140
100
AcDbLine
 10
194.8554996211946
 20
-83.97121244450785
 30
0.0
 11
206.0403740414752
 21
-83.97121244450785
 31
0.0
  0
LINE
  5
212
330
20D
100
AcDbEntity
  8
Section Line (ISO)
  6
Continuous
370
   140
100
AcDbLine
 10
966.9597229541004
 20
-83.97121244450785
 30
0.0
 11
978.144597374381
 21
-83.97121244450785
 31
0.0
  0
LINE
  5
213
330
20D
100
AcDbEntity
  8
Section Line (ISO)
  6
Continuous
100
AcDbLine
 10
200.4479368313349
 20
-86.47121244450785
 30
0.0
 11
200.4479368313349
 21
-83.97121244450785
 31
0.0
  0
POLYLINE
  5
214
330
20D
100
AcDbEntity
  8
Section Line (ISO)
  6
Continuous
100
AcDb2dPolyline
 66
     1
 10
0.0
 20
0.0
 30
0.0
 70
   128
  0
VERTEX
  5
215
330
214
100
AcDbEntity
  8
Section Line (ISO)
  6
Continuous
100
AcDbVertex
100
AcDb2dVertex
 10
200.9479325031176
 20
-86.47121244450751
 30
0.0
  0
VERTEX
  5
216
330
214
100
AcDbEntity
  8
Section Line (ISO)
  6
Continuous
100
AcDbVertex
100
AcDb2dVertex
 10
200.4479401325121
 20
-83.97121244450785
 30
0.0
  0
VERTEX
  5
218
330
214
100
AcDbEntity
  8
Section Line (ISO)
  6
Continuous
100
AcDbVertex
100
AcDb2dVertex
 10
199.9479286884203
 20
-86.47121244450751
 30
0.0
  0
VERTEX
  5
219
330
214
100
AcDbEntity
  8
Section Line (ISO)
  6
Continuous
100
AcDbVertex
100
AcDb2dVertex
 10
200.9479325031176
 20
-86.47121244450751
 30
0.0
  0
SEQEND
  5
217
330
214
100
AcDbEntity
  8
Section Line (ISO)
  6
Continuous
  0
SOLID
  5
21A
330
20D
100
AcDbEntity
  8
Section Line (ISO)
100
AcDbTrace
 10
200.9479325031176
 20
-86.47121244450751
 30
0.0
 11
200.4479401325121
 21
-83.97121244450785
 31
0.0
 12
199.9479286884203
 22
-86.47121244450751
 32
0.0
 13
200.9479325031176
 23
-86.47121244450751
 33
0.0
  0
LINE
  5
21B
330
20D
100
AcDbEntity
  8
Section Line (ISO)
  6
Continuous
100
AcDbLine
 10
200.9479368313349
 20
-86.47121244450785
 30
0.0
 11
200.4479368313349
 21
-83.97121244450785
 31
0.0
  0
LINE
  5
21C
330
20D
100
AcDbEntity
  8
Section Line (ISO)
  6
Continuous
100
AcDbLine
 10
200.4479368313349
 20
-83.97121244450785
 30
0.0
 11
199.9479368313349
 21
-86.47121244450785
 31
0.0
  0
LINE
  5
21D
330
20D
100
AcDbEntity
  8
Section Line (ISO)
  6
Continuous
100
AcDbLine
 10
199.9479368313349
 20
-86.47121244450785
 30
0.0
 11
200.9479368313349
 21
-86.47121244450785
 31
0.0
  0
LINE
  5
21E
330
20D
100
AcDbEntity
  8
Section Line (ISO)
  6
Continuous
100
AcDbLine
 10
200.4479368313349
 20
-91.47290251737553
 30
0.0
 11
200.4479368313349
 21
-86.47121244450785
 31
0.0
  0
LINE
  5
21F
330
20D
100
AcDbEntity
  8
Section Line (ISO)
  6
Continuous
100
AcDbLine
 10
972.5521601642407
 20
-86.47121244450785
 30
0.0
 11
972.5521601642407
 21
-83.97121244450785
 31
0.0
  0
POLYLINE
  5
220
330
20D
100
AcDbEntity
  8
Section Line (ISO)
  6
Continuous
100
AcDb2dPolyline
 66
     1
 10
0.0
 20
0.0
 30
0.0
 70
   128
  0
VERTEX
  5
221
330
220
100
AcDbEntity
  8
Section Line (ISO)
  6
Continuous
100
AcDbVertex
100
AcDb2dVertex
 10
973.0521767352954
 20
-86.47121244450751
 30
0.0
  0
VERTEX
  5
222
330
220
100
AcDbEntity
  8
Section Line (ISO)
  6
Continuous
100
AcDbVertex
100
AcDb2dVertex
 10
972.5521462177173
 20
-83.97121244450785
 30
0.0
  0
VERTEX
  5
224
330
220
100
AcDbEntity
  8
Section Line (ISO)
  6
Continuous
100
AcDbVertex
100
AcDb2dVertex
 10
972.0521538471118
 20
-86.47121244450751
 30
0.0
  0
VERTEX
  5
225
330
220
100
AcDbEntity
  8
Section Line (ISO)
  6
Continuous
100
AcDbVertex
100
AcDb2dVertex
 10
973.0521767352954
 20
-86.47121244450751
 30
0.0
  0
SEQEND
  5
223
330
220
100
AcDbEntity
  8
Section Line (ISO)
  6
Continuous
  0
SOLID
  5
226
330
20D
100
AcDbEntity
  8
Section Line (ISO)
100
AcDbTrace
 10
973.0521767352954
 20
-86.47121244450751
 30
0.0
 11
972.5521462177173
 21
-83.97121244450785
 31
0.0
 12
972.0521538471118
 22
-86.47121244450751
 32
0.0
 13
973.0521767352954
 23
-86.47121244450751
 33
0.0
  0
LINE
  5
227
330
20D
100
AcDbEntity
  8
Section Line (ISO)
  6
Continuous
100
AcDbLine
 10
973.0521601642406
 20
-86.47121244450785
 30
0.0
 11
972.5521601642407
 21
-83.97121244450785
 31
0.0
  0
LINE
  5
228
330
20D
100
AcDbEntity
  8
Section Line (ISO)
  6
Continuous
100
AcDbLine
 10
972.5521601642407
 20
-83.97121244450785
 30
0.0
 11
972.0521601642406
 21
-86.47121244450785
 31
0.0
  0
LINE
  5
229
330
20D
100
AcDbEntity
  8
Section Line (ISO)
  6
Continuous
100
AcDbLine
 10
972.0521601642406
 20
-86.47121244450785
 30
0.0
 11
973.0521601642406
 21
-86.47121244450785
 31
0.0
  0
LINE
  5
22A
330
20D
100
AcDbEntity
  8
Section Line (ISO)
  6
Continuous
100
AcDbLine
 10
972.5521601642407
 20
-91.47290251737558
 30
0.0
 11
972.5521601642407
 21
-86.47121244450785
 31
0.0
  0
MTEXT
  5
22B
330
20D
100
AcDbEntity
  8
Section Line (ISO)
100
AcDbMText
 10
199.3797852698615
 20
-95.97121268292642
 30
0.0
 40
3.499999940395355
 41
0.0
 46
0.0
 71
     7
 72
     1
  1
B
  7
Label Text (ISO)
 73
     1
 44
1.0
  0
MTEXT
  5
22C
330
20D
100
AcDbEntity
  8
Section Line (ISO)
100
AcDbMText
 10
971.4840086027672
 20
-95.97121268292642
 30
0.0
 40
3.499999940395355
 41
0.0
 46
0.0
 71
     7
 72
     1
  1
B
  7
Label Text (ISO)
 73
     1
 44
1.0
  0
ENDBLK
  5
20F
330
20D
100
AcDbEntity
  8
0
100
AcDbBlockEnd
  0
BLOCK
  5
303
330
302
100
AcDbEntity
  8
0
100
AcDbBlockBegin
  2
*D7
 70
     1
 10
0.0
 20
0.0
 30
0.0
  3
*D7
  1

  0
LINE
  5
3CE
330
302
100
AcDbEntity
  8
Dimension (ISO)
440
 16777216
100
AcDbLine
 10
665.5312187885181
 20
1313.639649305291
 30
0.0
 11
665.5312187885181
 21
1179.339649305291
 31
0.0
  0
LINE
  5
3CF
330
302
100
AcDbEntity
  8
Dimension (ISO)
440
 16777216
100
AcDbLine
 10
546.5312187885181
 20
1319.264649305291
 30
0.0
 11
546.5312187885181
 21
1179.339649305291
 31
0.0
  0
LINE
  5
3D0
330
302
100
AcDbEntity
  8
Dimension (ISO)
440
 16777216
100
AcDbLine
 10
663.0312187885181
 20
1182.514649305291
 30
0.0
 11
549.0312187885181
 21
1182.514649305291
 31
0.0
  0
SOLID
  5
3D1
330
302
100
AcDbEntity
  8
Dimension (ISO)
440
 16777216
100
AcDbTrace
 10
663.0312187885181
 20
1182.931315971957
 30
0.0
 11
663.0312187885181
 21
1182.097982638624
 31
0.0
 12
665.5312187885181
 22
1182.514649305291
 32
0.0
 13
665.5312187885181
 23
1182.514649305291
 33
0.0
  0
SOLID
  5
3D2
330
302
100
AcDbEntity
  8
Dimension (ISO)
440
 16777216
100
AcDbTrace
 10
549.0312187885181
 20
1182.931315971957
 30
0.0
 11
549.0312187885181
 21
1182.097982638624
 31
0.0
 12
546.5312187885181
 22
1182.514649305291
 32
0.0
 13
546.5312187885181
 23
1182.514649305291
 33
0.0
  0
MTEXT
  5
3D3
330
302
100
AcDbEntity
  8
Dimension (ISO)
 62
   232
420
 13238372
440
 16777216
100
AcDbMText
 10
591.0773907479931
 20
1186.448240957062
 30
0.0
 40
2.5
 41
0.0
 46
0.0
 71
     1
 72
     1
  1
\A1;119,00
  7
Note Text (ISO)
 73
     1
 44
1.0
  0
POINT
  5
3D4
330
302
100
AcDbEntity
  8
Defpoints
 62
     0
440
 16777216
100
AcDbPoint
 10
665.5312187885181
 20
1313.639649305291
 30
0.0
  0
POINT
  5
3D5
330
302
100
AcDbEntity
  8
Defpoints
 62
     0
440
 16777216
100
AcDbPoint
 10
546.5312187885181
 20
1319.264649305291
 30
0.0
  0
POINT
  5
3D6
330
302
100
AcDbEntity
  8
Defpoints
 62
     0
440
 16777216
100
AcDbPoint
 10
546.5312187885181
 20
1182.514649305291
 30
0.0
  0
ENDBLK
  5
304
330
302
100
AcDbEntity
  8
0
100
AcDbBlockEnd
  0
BLOCK
  5
3D9
330
3D8
100
AcDbEntity
  8
0
100
AcDbBlockBegin
  2
*D8
 70
     1
 10
0.0
 20
0.0
 30
0.0
  3
*D8
  1

  0
LINE
  5
4A5
330
3D8
100
AcDbEntity
  8
Dimension (ISO)
440
 16777216
100
AcDbLine
 10
665.5312187885181
 20
1538.639649305291
 30
0.0
 11
697.7977194838073
 21
1538.639649305291
 31
0.0
  0
LINE
  5
4A6
330
3D8
100
AcDbEntity
  8
Dimension (ISO)
440
 16777216
100
AcDbLine
 10
665.5312187885181
 20
1313.639649305291
 30
0.0
 11
697.7977194838073
 21
1313.639649305291
 31
0.0
  0
LINE
  5
4A7
330
3D8
100
AcDbEntity
  8
Dimension (ISO)
440
 16777216
100
AcDbLine
 10
694.6227194838074
 20
1536.139649305291
 30
0.0
 11
694.6227194838074
 21
1316.139649305291
 31
0.0
  0
SOLID
  5
4A8
330
3D8
100
AcDbEntity
  8
Dimension (ISO)
440
 16777216
100
AcDbTrace
 10
694.2060528171407
 20
1536.139649305291
 30
0.0
 11
695.039386150474
 21
1536.139649305291
 31
0.0
 12
694.6227194838074
 22
1538.639649305291
 32
0.0
 13
694.6227194838074
 23
1538.639649305291
 33
0.0
  0
SOLID
  5
4A9
330
3D8
100
AcDbEntity
  8
Dimension (ISO)
440
 16777216
100
AcDbTrace
 10
694.2060528171407
 20
1316.139649305291
 30
0.0
 11
695.039386150474
 21
1316.139649305291
 31
0.0
 12
694.6227194838074
 22
1313.639649305291
 32
0.0
 13
694.6227194838074
 23
1313.639649305291
 33
0.0
  0
MTEXT
  5
4AA
330
3D8
100
AcDbEntity
  8
Dimension (ISO)
 62
   232
420
 13238372
440
 16777216
100
AcDbMText
 10
690.0992215507971
 20
1374.645899543934
 30
0.0
 40
2.5
 41
0.0
 46
0.0
 71
     1
 72
     1
  1
\A1;\fAIGDT|b0|i0;\H2.5000;\ln\fTahoma|b0|i0;\H2.5000;225,00
  7
Note Text (ISO)
 11
0.0000000000000001
 21
1.0
 31
0.0
 73
     1
 44
1.0
  0
POINT
  5
4AB
330
3D8
100
AcDbEntity
  8
Defpoints
 62
     0
440
 16777216
100
AcDbPoint
 10
665.5312187885181
 20
1538.639649305291
 30
0.0
  0
POINT
  5
4AC
330
3D8
100
AcDbEntity
  8
Defpoints
 62
     0
440
 16777216
100
AcDbPoint
 10
665.5312187885181
 20
1313.639649305291
 30
0.0
  0
POINT
  5
4AD
330
3D8
100
AcDbEntity
  8
Defpoints
 62
     0
440
 16777216
100
AcDbPoint
 10
694.6227194838074
 20
1313.639649305291
 30
0.0
  0
ENDBLK
  5
3DA
330
3D8
100
AcDbEntity
  8
0
100
AcDbBlockEnd
  0
BLOCK
  5
4B0
330
4AF
100
AcDbEntity
  8
0
100
AcDbBlockBegin
  2
*D9
 70
     1
 10
0.0
 20
0.0
 30
0.0
  3
*D9
  1

  0
LINE
  5
57B
330
4AF
100
AcDbEntity
  8
Dimension (ISO)
440
 16777216
100
AcDbLine
 10
595.5712187885181
 20
1562.139649305291
 30
0.0
 11
770.7462187885179
 21
1562.139649305291
 31
0.0
  0
LINE
  5
57C
330
4AF
100
AcDbEntity
  8
Dimension (ISO)
440
 16777216
100
AcDbLine
 10
595.5712187885181
 20
1290.139649305291
 30
0.0
 11
770.7462187885179
 21
1290.139649305291
 31
0.0
  0
LINE
  5
57D
330
4AF
100
AcDbEntity
  8
Dimension (ISO)
440
 16777216
100
AcDbLine
 10
767.571218788518
 20
1559.639649305291
 30
0.0
 11
767.571218788518
 21
1292.63964930529
 31
0.0
  0
SOLID
  5
57E
330
4AF
100
AcDbEntity
  8
Dimension (ISO)
440
 16777216
100
AcDbTrace
 10
767.1545521218513
 20
1559.639649305291
 30
0.0
 11
767.9878854551845
 21
1559.639649305291
 31
0.0
 12
767.571218788518
 22
1562.139649305291
 32
0.0
 13
767.571218788518
 23
1562.139649305291
 33
0.0
  0
SOLID
  5
57F
330
4AF
100
AcDbEntity
  8
Dimension (ISO)
440
 16777216
100
AcDbTrace
 10
767.1545521218513
 20
1292.63964930529
 30
0.0
 11
767.9878854551845
 21
1292.63964930529
 31
0.0
 12
767.571218788518
 22
1290.139649305291
 32
0.0
 13
767.571218788518
 23
1290.139649305291
 33
0.0
  0
MTEXT
  5
580
330
4AF
100
AcDbEntity
  8
Dimension (ISO)
 62
   232
420
 13238372
440
 16777216
100
AcDbMText
 10
763.6359481575765
 20
1363.587600983332
 30
0.0
 40
2.5
 41
0.0
 46
0.0
 71
     1
 72
     1
  1
\A1;272,00
  7
Note Text (ISO)
 11
0.0000000000000001
 21
1.0
 31
0.0
 73
     1
 44
1.0
  0
POINT
  5
581
330
4AF
100
AcDbEntity
  8
Defpoints
 62
     0
440
 16777216
100
AcDbPoint
 10
595.5712187885181
 20
1562.139649305291
 30
0.0
  0
POINT
  5
582
330
4AF
100
AcDbEntity
  8
Defpoints
 62
     0
440
 16777216
100
AcDbPoint
 10
595.5712187885181
 20
1290.139649305291
 30
0.0
  0
POINT
  5
583
330
4AF
100
AcDbEntity
  8
Defpoints
 62
     0
440
 16777216
100
AcDbPoint
 10
767.571218788518
 20
1290.139649305291
 30
0.0
  0
ENDBLK
  5
4B1
330
4AF
100
AcDbEntity
  8
0
100
AcDbBlockEnd
  0
BLOCK
  5
586
330
585
100
AcDbEntity
  8
0
100
AcDbBlockBegin
  2
*D10
 70
     1
 10
0.0
 20
0.0
 30
0.0
  3
*D10
  1

  0
LINE
  5
651
330
585
100
AcDbEntity
  8
Dimension (ISO)
440
 16777216
100
AcDbLine
 10
653.276218788518
 20
1564.139649305291
 30
0.0
 11
687.6062187885182
 21
1564.139649305291
 31
0.0
  0
LINE
  5
652
330
585
100
AcDbEntity
  8
Dimension (ISO)
440
 16777216
100
AcDbLine
 10
665.5312187885181
 20
1426.139649305291
 30
0.0
 11
687.6062187885182
 21
1426.139649305291
 31
0.0
  0
LINE
  5
653
330
585
100
AcDbEntity
  8
Dimension (ISO)
440
 16777216
100
AcDbLine
 10
684.4312187885182
 20
1561.639649305291
 30
0.0
 11
684.4312187885182
 21
1428.639649305291
 31
0.0
  0
SOLID
  5
654
330
585
100
AcDbEntity
  8
Dimension (ISO)
440
 16777216
100
AcDbTrace
 10
684.0145521218516
 20
1561.639649305291
 30
0.0
 11
684.8478854551848
 21
1561.639649305291
 31
0.0
 12
684.4312187885182
 22
1564.139649305291
 32
0.0
 13
684.4312187885182
 23
1564.139649305291
 33
0.0
  0
SOLID
  5
655
330
585
100
AcDbEntity
  8
Dimension (ISO)
440
 16777216
100
AcDbTrace
 10
684.0145521218516
 20
1428.639649305291
 30
0.0
 11
684.8478854551848
 21
1428.639649305291
 31
0.0
 12
684.4312187885182
 22
1426.139649305291
 32
0.0
 13
684.4312187885182
 23
1426.139649305291
 33
0.0
  0
MTEXT
  5
656
330
585
100
AcDbEntity
  8
Dimension (ISO)
 62
   232
420
 13238372
440
 16777216
100
AcDbMText
 10
680.4909112200673
 20
1467.185821264766
 30
0.0
 40
2.5
 41
0.0
 46
0.0
 71
     1
 72
     1
  1
\A1;138,00
  7
Note Text (ISO)
 11
0.0000000000000001
 21
1.0
 31
0.0
 73
     1
 44
1.0
  0
POINT
  5
657
330
585
100
AcDbEntity
  8
Defpoints
 62
     0
440
 16777216
100
AcDbPoint
 10
653.276218788518
 20
1564.139649305291
 30
0.0
  0
POINT
  5
658
330
585
100
AcDbEntity
  8
Defpoints
 62
     0
440
 16777216
100
AcDbPoint
 10
665.5312187885181
 20
1426.139649305291
 30
0.0
  0
POINT
  5
659
330
585
100
AcDbEntity
  8
Defpoints
 62
     0
440
 16777216
100
AcDbPoint
 10
684.4312187885182
 20
1426.139649305291
 30
0.0
  0
ENDBLK
  5
587
330
585
100
AcDbEntity
  8
0
100
AcDbBlockEnd
  0
BLOCK
  5
65C
330
65B
100
AcDbEntity
  8
0
100
AcDbBlockBegin
  2
*D11
 70
     1
 10
0.0
 20
0.0
 30
0.0
  3
*D11
  1

  0
LINE
  5
727
330
65B
100
AcDbEntity
  8
Dimension (ISO)
440
 16777216
100
AcDbLine
 10
665.5312187885181
 20
1313.639649305291
 30
0.0
 11
665.5312187885181
 21
1160.964649305291
 31
0.0
  0
LINE
  5
728
330
65B
100
AcDbEntity
  8
Dimension (ISO)
440
 16777216
100
AcDbLine
 10
347.531218788518
 20
1426.139649305291
 30
0.0
 11
347.531218788518
 21
1160.964649305291
 31
0.0
  0
LINE
  5
729
330
65B
100
AcDbEntity
  8
Dimension (ISO)
440
 16777216
100
AcDbLine
 10
663.0312187885181
 20
1164.139649305291
 30
0.0
 11
350.0312187885181
 21
1164.139649305291
 31
0.0
  0
SOLID
  5
72A
330
65B
100
AcDbEntity
  8
Dimension (ISO)
440
 16777216
100
AcDbTrace
 10
663.0312187885181
 20
1164.556315971958
 30
0.0
 11
663.0312187885181
 21
1163.722982638624
 31
0.0
 12
665.5312187885181
 22
1164.139649305291
 32
0.0
 13
665.5312187885181
 23
1164.139649305291
 33
0.0
  0
SOLID
  5
72B
330
65B
100
AcDbEntity
  8
Dimension (ISO)
440
 16777216
100
AcDbTrace
 10
350.0312187885181
 20
1164.556315971958
 30
0.0
 11
350.0312187885181
 21
1163.722982638624
 31
0.0
 12
347.531218788518
 22
1164.139649305291
 32
0.0
 13
347.531218788518
 23
1164.139649305291
 33
0.0
  0
MTEXT
  5
72C
330
65B
100
AcDbEntity
  8
Dimension (ISO)
 62
   232
420
 13238372
440
 16777216
100
AcDbMText
 10
457.9690965915403
 20
1168.079956873741
 30
0.0
 40
2.5
 41
0.0
 46
0.0
 71
     1
 72
     1
  1
\A1;318,00
  7
Note Text (ISO)
 73
     1
 44
1.0
  0
POINT
  5
72D
330
65B
100
AcDbEntity
  8
Defpoints
 62
     0
440
 16777216
100
AcDbPoint
 10
665.5312187885181
 20
1313.639649305291
 30
0.0
  0
POINT
  5
72E
330
65B
100
AcDbEntity
  8
Defpoints
 62
     0
440
 16777216
100
AcDbPoint
 10
347.531218788518
 20
1426.139649305291
 30
0.0
  0
POINT
  5
72F
330
65B
100
AcDbEntity
  8
Defpoints
 62
     0
440
 16777216
100
AcDbPoint
 10
347.531218788518
 20
1164.139649305291
 30
0.0
  0
ENDBLK
  5
65D
330
65B
100
AcDbEntity
  8
0
100
AcDbBlockEnd
  0
ENDSEC
  0
SECTION
  2
ENTITIES
  0
INSERT
  5
16B
330
70
100
AcDbEntity
  8
0
100
AcDbBlockReference
  2
Borders Default Border
 10
0.0
 20
0.0
 30
0.0
  0
INSERT
  5
173
330
70
100
AcDbEntity
  8
0
100
AcDbBlockReference
 66
     1
  2
Title Blocks ISO
 10
821.0
 20
20.0
 30
0.0
  0
ATTRIB
  5
175
102
{ACAD_XDICTIONARY
360
73F
102
}
330
173
100
AcDbEntity
  8
Title (ISO)
 62
   232
420
 13238372
100
AcDbText
 10
855.1558588233993
 20
93.13494450671269
 30
0.0
 40
2.5
  1
491204225
  7
Note Text (ISO)
100
AcDbAttribute
280
     0
  2
PART_NUMBER_001
 70
     0
280
     0
  0
ATTRIB
  5
176
102
{ACAD_XDICTIONARY
360
742
102
}
330
173
100
AcDbEntity
  8
Title (ISO)
 62
   232
420
 13238372
100
AcDbText
 10
854.8368802916622
 20
83.39776635682264
 30
0.0
 40
2.5
  1
PLASSON END CAP 225
  7
Note Text (ISO)
100
AcDbAttribute
280
     0
  2
DESCRIPTION_001
 70
     0
280
     0
  0
SEQEND
  5
174
330
173
100
AcDbEntity
  8
0
  0
LINE
  5
177
330
70
100
AcDbEntity
  8
Visible (ISO)
100
AcDbLine
 10
420.8862187886632
 20
542.4273716077983
 30
0.0
 11
435.8862187886632
 21
542.4273716077983
 31
0.0
  0
SPLINE
  5
178
330
70
100
AcDbEntity
  8
Visible (ISO)
100
AcDbSpline
210
0.0
220
0.0
230
1.0
 70
     8
 71
     3
 72
    22
 73
    18
 74
     0
 42
0.000000001
 43
0.0000000001
 40
1.266212745254824
 40
1.266212745254824
 40
1.266212745332565
 40
1.266212745332565
 40
1.582661425069126
 40
1.582661425069126
 40
1.899110104883428
 40
1.899110104883428
 40
2.215767797696538
 40
2.215767797696538
 40
2.532425490509648
 40
2.532425490509648
 40
2.849083183322759
 40
2.849083183322759
 40
3.165740876135869
 40
3.165740876135869
 40
3.482189555950171
 40
3.482189555950171
 40
3.798638235764473
 40
3.798638235764473
 40
3.798638235764473
 40
3.798638235764473
 10
436.7751036100867
 20
532.2673716077984
 30
0.0
 10
436.7751036099835
 20
532.2673716077913
 30
0.0
 10
436.5652219119401
 20
532.2529774236329
 30
0.0
 10
435.7111612924252
 20
532.2008730803668
 30
0.0
 10
435.0669823878349
 20
532.1639009183388
 30
0.0
 10
433.5790110742656
 20
532.0943227022389
 30
0.0
 10
432.635674168769
 20
532.0571962320864
 30
0.0
 10
430.5670578161009
 20
532.0047723569557
 30
0.0
 10
429.4417444313736
 20
531.9902377901193
 30
0.0
 10
427.3306931459528
 20
531.9902377901193
 30
0.0
 10
426.2053797612256
 20
532.0047723569557
 30
0.0
 10
424.1367634085576
 20
532.0571962320864
 30
0.0
 10
423.1934265030609
 20
532.0943227022389
 30
0.0
 10
421.7054551894916
 20
532.1639009183388
 30
0.0
 10
421.0612762849013
 20
532.2008730803668
 30
0.0
 10
420.2072156652815
 20
532.2529774236393
 30
0.0
 10
419.9973339672399
 20
532.2673716077984
 30
0.0
 10
419.9973339672399
 20
532.2673716077984
 30
0.0
  0
LINE
  5
179
330
70
100
AcDbEntity
  8
Visible (ISO)
100
AcDbLine
 10
435.8862187886632
 20
542.4273716077983
 30
0.0
 11
436.7751036100867
 21
532.2673716077984
 31
0.0
  0
LINE
  5
17A
330
70
100
AcDbEntity
  8
Visible (ISO)
100
AcDbLine
 10
420.8862187886632
 20
542.4273716077983
 30
0.0
 11
419.9973339672399
 21
532.2673716077984
 31
0.0
  0
LINE
  5
17B
330
70
100
AcDbEntity
  8
Visible (ISO)
100
AcDbLine
 10
655.7762187886632
 20
542.4273716077983
 30
0.0
 11
640.7762187886633
 21
542.4273716077983
 31
0.0
  0
SPLINE
  5
17C
330
70
100
AcDbEntity
  8
Visible (ISO)
100
AcDbSpline
210
0.0
220
0.0
230
1.0
 70
     8
 71
     3
 72
    23
 73
    19
 74
     0
 42
0.000000001
 43
0.0000000001
 40
3.798638235764473
 40
3.798638235764473
 40
3.798638235842213
 40
3.798638235842213
 40
4.115086915578775
 40
4.115086915578775
 40
4.431535595393077
 40
4.431535595393077
 40
4.748193288206187
 40
4.748193288206187
 40
5.064850981019297
 40
5.064850981019297
 40
5.064850981019297
 40
5.381508673832407
 40
5.381508673832407
 40
5.698166366645518
 40
5.698166366645518
 40
6.01461504645982
 40
6.01461504645982
 40
6.331063726274122
 40
6.331063726274122
 40
6.331063726274122
 40
6.331063726274122
 10
656.6651036100868
 20
532.2673716077984
 30
0.0
 10
656.6651036099836
 20
532.2673716077913
 30
0.0
 10
656.45522191194
 20
532.2529774236329
 30
0.0
 10
655.6011612924253
 20
532.2008730803668
 30
0.0
 10
654.9569823878348
 20
532.1639009183388
 30
0.0
 10
653.4690110742656
 20
532.0943227022389
 30
0.0
 10
652.525674168769
 20
532.0571962320864
 30
0.0
 10
650.4570578161009
 20
532.0047723569557
 30
0.0
 10
649.3317444313736
 20
531.9902377901193
 30
0.0
 10
648.2762187886633
 20
531.9902377901193
 30
0.0
 10
647.2206931459528
 20
531.9902377901193
 30
0.0
 10
646.0953797612257
 20
532.0047723569557
 30
0.0
 10
644.0267634085576
 20
532.0571962320864
 30
0.0
 10
643.0834265030608
 20
532.0943227022389
 30
0.0
 10
641.5954551894917
 20
532.1639009183388
 30
0.0
 10
640.9512762849012
 20
532.2008730803668
 30
0.0
 10
640.0972156652815
 20
532.2529774236393
 30
0.0
 10
639.8873339672398
 20
532.2673716077984
 30
0.0
 10
639.8873339672398
 20
532.2673716077984
 30
0.0
  0
LINE
  5
17D
330
70
100
AcDbEntity
  8
Visible (ISO)
100
AcDbLine
 10
655.7762187886632
 20
542.4273716077983
 30
0.0
 11
656.6651036100868
 21
532.2673716077984
 31
0.0
  0
LINE
  5
17E
330
70
100
AcDbEntity
  8
Visible (ISO)
100
AcDbLine
 10
640.7762187886633
 20
542.4273716077983
 30
0.0
 11
639.8873339672398
 21
532.2673716077984
 31
0.0
  0
LINE
  5
17F
330
70
100
AcDbEntity
  8
Visible (ISO)
100
AcDbLine
 10
411.1312187886633
 20
280.4225716077983
 30
0.0
 11
411.1312187886633
 21
528.4321716077983
 31
0.0
  0
LINE
  5
180
330
70
100
AcDbEntity
  8
Visible (ISO)
100
AcDbLine
 10
414.9664187886632
 20
276.5873716077983
 30
0.0
 11
414.9664187886632
 21
532.2673716077984
 31
0.0
  0
LINE
  5
181
330
70
100
AcDbEntity
  8
Visible (ISO)
100
AcDbLine
 10
441.8060187886633
 20
276.5873716077983
 30
0.0
 11
441.8060187886633
 21
532.2673716077984
 31
0.0
  0
LINE
  5
182
330
70
100
AcDbEntity
  8
Visible (ISO)
100
AcDbLine
 10
445.6412187886633
 20
280.4225716077983
 30
0.0
 11
445.6412187886633
 21
528.4321716077983
 31
0.0
  0
LINE
  5
183
330
70
100
AcDbEntity
  8
Visible (ISO)
100
AcDbLine
 10
457.1445521219966
 20
280.4225716077983
 30
0.0
 11
457.1445521219966
 21
528.4321716077983
 31
0.0
  0
LINE
  5
184
330
70
100
AcDbEntity
  8
Visible (ISO)
100
AcDbLine
 10
481.0912187886633
 20
268.4273716077984
 30
0.0
 11
481.0912187886633
 21
540.4273716077983
 31
0.0
  0
LINE
  5
185
330
70
100
AcDbEntity
  8
Visible (ISO)
100
AcDbLine
 10
595.5712187886633
 20
268.4273716077984
 30
0.0
 11
595.5712187886633
 21
540.4273716077983
 31
0.0
  0
LINE
  5
186
330
70
100
AcDbEntity
  8
Visible (ISO)
100
AcDbLine
 10
619.5178854553299
 20
280.4225716077983
 30
0.0
 11
619.5178854553299
 21
528.4321716077983
 31
0.0
  0
LINE
  5
187
330
70
100
AcDbEntity
  8
Visible (ISO)
100
AcDbLine
 10
631.0212187886633
 20
280.4225716077983
 30
0.0
 11
631.0212187886633
 21
528.4321716077983
 31
0.0
  0
LINE
  5
188
330
70
100
AcDbEntity
  8
Visible (ISO)
100
AcDbLine
 10
634.8564187886633
 20
276.5873716077983
 30
0.0
 11
634.8564187886633
 21
532.2673716077984
 31
0.0
  0
LINE
  5
189
330
70
100
AcDbEntity
  8
Visible (ISO)
100
AcDbLine
 10
661.6960187886633
 20
276.5873716077983
 30
0.0
 11
661.6960187886633
 21
532.2673716077984
 31
0.0
  0
LINE
  5
18A
330
70
100
AcDbEntity
  8
Visible (ISO)
100
AcDbLine
 10
665.5312187886634
 20
280.4225716077983
 30
0.0
 11
665.5312187886634
 21
528.4321716077983
 31
0.0
  0
LINE
  5
18B
330
70
100
AcDbEntity
  8
Visible Narrow (ISO)
100
AcDbLine
 10
372.4827214782665
 20
314.9923818571354
 30
0.0
 11
372.4827214782665
 21
493.8623613584613
 31
0.0
  0
LINE
  5
18C
330
70
100
AcDbEntity
  8
Visible (ISO)
100
AcDbLine
 10
411.1312187886633
 20
528.4321716077983
 30
0.0
 11
414.9664187886632
 21
532.2673716077984
 31
0.0
  0
LINE
  5
18D
330
70
100
AcDbEntity
  8
Visible (ISO)
100
AcDbLine
 10
411.1312187886632
 20
280.4225716077984
 30
0.0
 11
414.9664187886632
 21
276.5873716077983
 31
0.0
  0
LINE
  5
18E
330
70
100
AcDbEntity
  8
Visible (ISO)
100
AcDbLine
 10
414.9664187886632
 20
532.2673716077984
 30
0.0
 11
419.9973339672399
 21
532.2673716077984
 31
0.0
  0
LINE
  5
18F
330
70
100
AcDbEntity
  8
Visible (ISO)
100
AcDbLine
 10
436.7751036100866
 20
532.2673716077984
 30
0.0
 11
441.8060187886633
 21
532.2673716077984
 31
0.0
  0
LINE
  5
190
330
70
100
AcDbEntity
  8
Visible (ISO)
100
AcDbLine
 10
414.9664187886632
 20
276.5873716077983
 30
0.0
 11
441.8060187886633
 21
276.5873716077983
 31
0.0
  0
LINE
  5
191
330
70
100
AcDbEntity
  8
Visible (ISO)
100
AcDbLine
 10
445.6412187886633
 20
280.4225716077984
 30
0.0
 11
441.8060187886633
 21
276.5873716077983
 31
0.0
  0
LINE
  5
192
330
70
100
AcDbEntity
  8
Visible (ISO)
100
AcDbLine
 10
445.6412187886633
 20
528.4321716077983
 30
0.0
 11
441.8060187886633
 21
532.2673716077984
 31
0.0
  0
LINE
  5
193
330
70
100
AcDbEntity
  8
Visible (ISO)
100
AcDbLine
 10
445.6412187886633
 20
528.4321716077983
 30
0.0
 11
457.1445521219966
 21
528.4321716077983
 31
0.0
  0
LINE
  5
194
330
70
100
AcDbEntity
  8
Visible (ISO)
100
AcDbLine
 10
445.6412187886633
 20
280.4225716077983
 30
0.0
 11
457.1445521219966
 21
280.4225716077983
 31
0.0
  0
LINE
  5
195
330
70
100
AcDbEntity
  8
Visible (ISO)
100
AcDbLine
 10
457.1445521219966
 20
528.4321716077983
 30
0.0
 11
481.0912187886633
 21
540.4273716077983
 31
0.0
  0
LINE
  5
196
330
70
100
AcDbEntity
  8
Visible (ISO)
100
AcDbLine
 10
457.1445521219966
 20
280.4225716077983
 30
0.0
 11
481.0912187886633
 21
268.4273716077984
 31
0.0
  0
LINE
  5
197
330
70
100
AcDbEntity
  8
Visible (ISO)
100
AcDbLine
 10
481.0912187886633
 20
540.4273716077983
 30
0.0
 11
595.5712187886632
 21
540.4273716077983
 31
0.0
  0
LINE
  5
198
330
70
100
AcDbEntity
  8
Visible (ISO)
100
AcDbLine
 10
481.0912187886633
 20
268.4273716077984
 30
0.0
 11
595.5712187886633
 21
268.4273716077984
 31
0.0
  0
LINE
  5
199
330
70
100
AcDbEntity
  8
Visible (ISO)
100
AcDbLine
 10
619.5178854553299
 20
280.4225716077983
 30
0.0
 11
595.5712187886633
 21
268.4273716077984
 31
0.0
  0
LINE
  5
19A
330
70
100
AcDbEntity
  8
Visible (ISO)
100
AcDbLine
 10
619.5178854553298
 20
528.4321716077983
 30
0.0
 11
595.5712187886632
 21
540.4273716077983
 31
0.0
  0
LINE
  5
19B
330
70
100
AcDbEntity
  8
Visible (ISO)
100
AcDbLine
 10
619.5178854553298
 20
528.4321716077983
 30
0.0
 11
631.0212187886633
 21
528.4321716077983
 31
0.0
  0
LINE
  5
19C
330
70
100
AcDbEntity
  8
Visible (ISO)
100
AcDbLine
 10
619.5178854553299
 20
280.4225716077983
 30
0.0
 11
631.0212187886633
 21
280.4225716077983
 31
0.0
  0
LINE
  5
19D
330
70
100
AcDbEntity
  8
Visible (ISO)
100
AcDbLine
 10
631.0212187886633
 20
528.4321716077983
 30
0.0
 11
634.8564187886633
 21
532.2673716077984
 31
0.0
  0
LINE
  5
19E
330
70
100
AcDbEntity
  8
Visible (ISO)
100
AcDbLine
 10
631.0212187886633
 20
280.4225716077983
 30
0.0
 11
634.8564187886633
 21
276.5873716077983
 31
0.0
  0
LINE
  5
19F
330
70
100
AcDbEntity
  8
Visible (ISO)
100
AcDbLine
 10
634.8564187886633
 20
532.2673716077984
 30
0.0
 11
639.8873339672398
 21
532.2673716077984
 31
0.0
  0
LINE
  5
1A0
330
70
100
AcDbEntity
  8
Visible (ISO)
100
AcDbLine
 10
656.6651036100865
 20
532.2673716077984
 30
0.0
 11
661.6960187886633
 21
532.2673716077984
 31
0.0
  0
LINE
  5
1A1
330
70
100
AcDbEntity
  8
Visible (ISO)
100
AcDbLine
 10
634.8564187886633
 20
276.5873716077983
 30
0.0
 11
661.6960187886633
 21
276.5873716077983
 31
0.0
  0
LINE
  5
1A2
330
70
100
AcDbEntity
  8
Visible (ISO)
100
AcDbLine
 10
665.5312187886634
 20
280.4225716077983
 30
0.0
 11
661.6960187886633
 21
276.5873716077983
 31
0.0
  0
LINE
  5
1A3
330
70
100
AcDbEntity
  8
Visible (ISO)
100
AcDbLine
 10
665.5312187886634
 20
528.4321716077983
 30
0.0
 11
661.6960187886633
 21
532.2673716077984
 31
0.0
  0
ARC
  5
1A4
330
70
100
AcDbEntity
  8
Visible (ISO)
100
AcDbCircle
 10
524.3110574983407
 20
404.4273716077984
 30
0.0
 40
176.7798387096774
100
AcDbArc
 50
149.1883198795221
 51
210.8116801204779
  0
ARC
  5
1A5
330
70
100
AcDbEntity
  8
Visible (ISO)
100
AcDbCircle
 10
411.1312187886633
 20
336.9273716077984
 30
0.0
 40
45.0
100
AcDbArc
 50
210.8116801204779
 51
270.0
  0
ARC
  5
1A6
330
70
100
AcDbEntity
  8
Visible (ISO)
100
AcDbCircle
 10
411.1312187886633
 20
471.9273716077983
 30
0.0
 40
45.0
100
AcDbArc
 50
90.0
 51
149.1883198795221
  0
LINE
  5
1A7
330
70
100
AcDbEntity
  8
Visible (ISO)
100
AcDbLine
 10
1023.463746890143
 20
542.4273716077983
 30
0.0
 11
1038.463746890143
 21
542.4273716077983
 31
0.0
  0
LINE
  5
1A8
330
70
100
AcDbEntity
  8
Visible (ISO)
100
AcDbLine
 10
1038.463746890143
 20
542.4273716077983
 30
0.0
 11
1039.376877778893
 21
531.9902377901193
 31
0.0
  0
LINE
  5
1A9
330
70
100
AcDbEntity
  8
Visible (ISO)
100
AcDbLine
 10
1023.463746890143
 20
542.4273716077983
 30
0.0
 11
1022.550616001393
 21
531.9902377901193
 31
0.0
  0
CIRCLE
  5
1AA
330
70
100
AcDbEntity
  8
Visible (ISO)
100
AcDbCircle
 10
1030.963746890138
 20
404.4273716077984
 30
0.0
 40
112.5
  0
CIRCLE
  5
1AB
330
70
100
AcDbEntity
  8
Visible (ISO)
100
AcDbCircle
 10
1030.963746890138
 20
404.4273716077984
 30
0.0
 40
124.0048
  0
CIRCLE
  5
1AC
330
70
100
AcDbEntity
  8
Visible (ISO)
100
AcDbCircle
 10
1030.963746890139
 20
404.4273716077984
 30
0.0
 40
127.84
  0
ARC
  5
1AD
330
70
100
AcDbEntity
  8
Visible (ISO)
100
AcDbCircle
 10
1030.963746890159
 20
404.4273716077984
 30
0.0
 40
136.0
100
AcDbArc
 50
93.24317022356067
 51
86.75682977643941
  0
CIRCLE
  5
1AE
330
70
100
AcDbEntity
  8
Visible Narrow (ISO)
100
AcDbCircle
 10
1030.963746890126
 20
404.4273716077984
 30
0.0
 40
90.54980814775378
  0
LINE
  5
1AF
330
70
100
AcDbEntity
  8
Visible (ISO)
100
AcDbLine
 10
411.1312187888197
 20
808.4775238937716
 30
0.0
 11
411.1312187888197
 21
1056.487123893772
 31
0.0
  0
LINE
  5
1B0
330
70
100
AcDbEntity
  8
Visible (ISO)
100
AcDbLine
 10
414.9664187888197
 20
804.6423238937716
 30
0.0
 11
414.9664187888197
 21
1060.322323893772
 31
0.0
  0
LINE
  5
1B1
330
70
100
AcDbEntity
  8
Visible (ISO)
100
AcDbLine
 10
441.8060187888196
 20
804.6423238937716
 30
0.0
 11
441.8060187888196
 21
1060.322323893772
 31
0.0
  0
LINE
  5
1B2
330
70
100
AcDbEntity
  8
Visible (ISO)
100
AcDbLine
 10
445.6412187888196
 20
808.4775238937716
 30
0.0
 11
445.6412187888196
 21
1056.487123893772
 31
0.0
  0
LINE
  5
1B3
330
70
100
AcDbEntity
  8
Visible (ISO)
100
AcDbLine
 10
457.1445521221529
 20
808.4775238937716
 30
0.0
 11
457.1445521221529
 21
1056.487123893772
 31
0.0
  0
LINE
  5
1B4
330
70
100
AcDbEntity
  8
Visible (ISO)
100
AcDbLine
 10
481.0912187888196
 20
796.4823238937717
 30
0.0
 11
481.0912187888196
 21
1068.482323893771
 31
0.0
  0
LINE
  5
1B5
330
70
100
AcDbEntity
  8
Visible (ISO)
100
AcDbLine
 10
595.5712187888196
 20
796.4823238937717
 30
0.0
 11
595.5712187888196
 21
1068.482323893771
 31
0.0
  0
LINE
  5
1B6
330
70
100
AcDbEntity
  8
Visible (ISO)
100
AcDbLine
 10
619.5178854554864
 20
808.4775238937716
 30
0.0
 11
619.5178854554864
 21
1056.487123893772
 31
0.0
  0
LINE
  5
1B7
330
70
100
AcDbEntity
  8
Visible (ISO)
100
AcDbLine
 10
631.0212187888196
 20
808.4775238937716
 30
0.0
 11
631.0212187888196
 21
1056.487123893772
 31
0.0
  0
LINE
  5
1B8
330
70
100
AcDbEntity
  8
Visible (ISO)
100
AcDbLine
 10
634.8564187888197
 20
804.6423238937716
 30
0.0
 11
634.8564187888197
 21
1060.322323893772
 31
0.0
  0
LINE
  5
1B9
330
70
100
AcDbEntity
  8
Visible (ISO)
100
AcDbLine
 10
661.6960187888196
 20
804.6423238937716
 30
0.0
 11
661.6960187888196
 21
1060.322323893772
 31
0.0
  0
LINE
  5
1BA
330
70
100
AcDbEntity
  8
Visible (ISO)
100
AcDbLine
 10
665.5312187888196
 20
808.4775238937716
 30
0.0
 11
665.5312187888196
 21
1056.487123893772
 31
0.0
  0
LINE
  5
1BB
330
70
100
AcDbEntity
  8
Visible Narrow (ISO)
100
AcDbLine
 10
372.4827214784228
 20
843.0473341431042
 30
0.0
 11
372.4827214784228
 21
1021.91731364443
 31
0.0
  0
LINE
  5
1BC
330
70
100
AcDbEntity
  8
Visible (ISO)
100
AcDbLine
 10
411.1312187888197
 20
1056.487123893772
 30
0.0
 11
414.9664187888197
 21
1060.322323893772
 31
0.0
  0
LINE
  5
1BD
330
70
100
AcDbEntity
  8
Visible (ISO)
100
AcDbLine
 10
411.1312187888197
 20
808.4775238937716
 30
0.0
 11
414.9664187888197
 21
804.6423238937716
 31
0.0
  0
LINE
  5
1BE
330
70
100
AcDbEntity
  8
Visible (ISO)
100
AcDbLine
 10
414.9664187888197
 20
1060.322323893772
 30
0.0
 11
441.8060187888196
 21
1060.322323893772
 31
0.0
  0
LINE
  5
1BF
330
70
100
AcDbEntity
  8
Visible (ISO)
100
AcDbLine
 10
414.9664187888197
 20
804.6423238937716
 30
0.0
 11
441.8060187888196
 21
804.6423238937716
 31
0.0
  0
LINE
  5
1C0
330
70
100
AcDbEntity
  8
Visible (ISO)
100
AcDbLine
 10
445.6412187888196
 20
808.4775238937716
 30
0.0
 11
441.8060187888196
 21
804.6423238937716
 31
0.0
  0
LINE
  5
1C1
330
70
100
AcDbEntity
  8
Visible (ISO)
100
AcDbLine
 10
445.6412187888196
 20
1056.487123893772
 30
0.0
 11
441.8060187888196
 21
1060.322323893772
 31
0.0
  0
LINE
  5
1C2
330
70
100
AcDbEntity
  8
Visible (ISO)
100
AcDbLine
 10
445.6412187888196
 20
1056.487123893772
 30
0.0
 11
457.1445521221529
 21
1056.487123893772
 31
0.0
  0
LINE
  5
1C3
330
70
100
AcDbEntity
  8
Visible (ISO)
100
AcDbLine
 10
445.6412187888196
 20
808.4775238937716
 30
0.0
 11
457.1445521221529
 21
808.4775238937716
 31
0.0
  0
LINE
  5
1C4
330
70
100
AcDbEntity
  8
Visible (ISO)
100
AcDbLine
 10
457.1445521221529
 20
1056.487123893772
 30
0.0
 11
481.0912187888196
 21
1068.482323893771
 31
0.0
  0
LINE
  5
1C5
330
70
100
AcDbEntity
  8
Visible (ISO)
100
AcDbLine
 10
457.1445521221529
 20
808.4775238937716
 30
0.0
 11
481.0912187888196
 21
796.4823238937717
 31
0.0
  0
LINE
  5
1C6
330
70
100
AcDbEntity
  8
Visible (ISO)
100
AcDbLine
 10
481.0912187888196
 20
1068.482323893771
 30
0.0
 11
595.5712187888196
 21
1068.482323893771
 31
0.0
  0
LINE
  5
1C7
330
70
100
AcDbEntity
  8
Visible (ISO)
100
AcDbLine
 10
481.0912187888196
 20
796.4823238937717
 30
0.0
 11
595.5712187888196
 21
796.4823238937717
 31
0.0
  0
LINE
  5
1C8
330
70
100
AcDbEntity
  8
Visible (ISO)
100
AcDbLine
 10
619.5178854554864
 20
808.4775238937716
 30
0.0
 11
595.5712187888196
 21
796.4823238937717
 31
0.0
  0
LINE
  5
1C9
330
70
100
AcDbEntity
  8
Visible (ISO)
100
AcDbLine
 10
619.5178854554864
 20
1056.487123893772
 30
0.0
 11
595.5712187888196
 21
1068.482323893771
 31
0.0
  0
LINE
  5
1CA
330
70
100
AcDbEntity
  8
Visible (ISO)
100
AcDbLine
 10
619.5178854554864
 20
1056.487123893772
 30
0.0
 11
631.0212187888196
 21
1056.487123893772
 31
0.0
  0
LINE
  5
1CB
330
70
100
AcDbEntity
  8
Visible (ISO)
100
AcDbLine
 10
619.5178854554864
 20
808.4775238937716
 30
0.0
 11
631.0212187888196
 21
808.4775238937716
 31
0.0
  0
LINE
  5
1CC
330
70
100
AcDbEntity
  8
Visible (ISO)
100
AcDbLine
 10
631.0212187888196
 20
1056.487123893772
 30
0.0
 11
634.8564187888197
 21
1060.322323893772
 31
0.0
  0
LINE
  5
1CD
330
70
100
AcDbEntity
  8
Visible (ISO)
100
AcDbLine
 10
631.0212187888196
 20
808.4775238937716
 30
0.0
 11
634.8564187888197
 21
804.6423238937716
 31
0.0
  0
LINE
  5
1CE
330
70
100
AcDbEntity
  8
Visible (ISO)
100
AcDbLine
 10
634.8564187888197
 20
1060.322323893772
 30
0.0
 11
661.6960187888196
 21
1060.322323893772
 31
0.0
  0
LINE
  5
1CF
330
70
100
AcDbEntity
  8
Visible (ISO)
100
AcDbLine
 10
634.8564187888197
 20
804.6423238937716
 30
0.0
 11
661.6960187888196
 21
804.6423238937716
 31
0.0
  0
LINE
  5
1D0
330
70
100
AcDbEntity
  8
Visible (ISO)
100
AcDbLine
 10
665.5312187888196
 20
808.4775238937716
 30
0.0
 11
661.6960187888196
 21
804.6423238937716
 31
0.0
  0
LINE
  5
1D1
330
70
100
AcDbEntity
  8
Visible (ISO)
100
AcDbLine
 10
665.5312187888196
 20
1056.487123893772
 30
0.0
 11
661.6960187888196
 21
1060.322323893772
 31
0.0
  0
ARC
  5
1D2
330
70
100
AcDbEntity
  8
Visible (ISO)
100
AcDbCircle
 10
524.3110574984971
 20
932.4823238937716
 30
0.0
 40
176.7798387096774
100
AcDbArc
 50
149.1883198795221
 51
210.8116801204779
  0
ARC
  5
1D3
330
70
100
AcDbEntity
  8
Visible (ISO)
100
AcDbCircle
 10
411.1312187888197
 20
864.9823238937717
 30
0.0
 40
45.0
100
AcDbArc
 50
210.8116801204779
 51
270.0
  0
ARC
  5
1D4
330
70
100
AcDbEntity
  8
Visible (ISO)
100
AcDbCircle
 10
411.1312187888197
 20
999.9823238937716
 30
0.0
 40
45.0
100
AcDbArc
 50
90.0
 51
149.1883198795221
  0
LINE
  5
1D5
330
70
100
AcDbEntity
  8
Visible (ISO)
100
AcDbLine
 10
-24.54145789996412
 20
542.4273716077983
 30
0.0
 11
-39.54145789996412
 21
542.4273716077983
 31
0.0
  0
LINE
  5
1D6
330
70
100
AcDbEntity
  8
Visible (ISO)
100
AcDbLine
 10
-24.54145789996412
 20
542.4273716077983
 30
0.0
 11
-23.62832701121416
 21
531.9902377901193
 31
0.0
  0
LINE
  5
1D7
330
70
100
AcDbEntity
  8
Visible (ISO)
100
AcDbLine
 10
-39.54145789996412
 20
542.4273716077983
 30
0.0
 11
-40.45458878871406
 21
531.9902377901193
 31
0.0
  0
ARC
  5
1D8
330
70
100
AcDbEntity
  8
Visible (ISO)
100
AcDbCircle
 10
-32.04145789997971
 20
404.4273716077984
 30
0.0
 40
136.0
100
AcDbArc
 50
93.24317022356064
 51
86.75682977643933
  0
CIRCLE
  5
1D9
330
70
100
AcDbEntity
  8
Visible (ISO)
100
AcDbCircle
 10
-32.04145789996014
 20
404.4273716077984
 30
0.0
 40
127.84
  0
CIRCLE
  5
1DA
330
70
100
AcDbEntity
  8
Visible (ISO)
100
AcDbCircle
 10
-32.04145789995899
 20
404.4273716077984
 30
0.0
 40
124.0048
  0
CIRCLE
  5
1DB
330
70
100
AcDbEntity
  8
Visible (ISO)
100
AcDbCircle
 10
-32.04145789995899
 20
404.4273716077984
 30
0.0
 40
112.5
  0
CIRCLE
  5
1DC
330
70
100
AcDbEntity
  8
Visible (ISO)
100
AcDbCircle
 10
-32.0414578999943
 20
404.4273716077984
 30
0.0
 40
106.875
  0
CIRCLE
  5
1DD
330
70
100
AcDbEntity
  8
Visible (ISO)
100
AcDbCircle
 10
-32.04145789999917
 20
404.4273716077984
 30
0.0
 40
90.00000000000001
  0
CIRCLE
  5
1DE
330
70
100
AcDbEntity
  8
Visible Narrow (ISO)
100
AcDbCircle
 10
-32.0414579000402
 20
404.4273716077984
 30
0.0
 40
79.02490407387688
  0
CIRCLE
  5
1DF
330
70
100
AcDbEntity
  8
Visible (ISO)
100
AcDbCircle
 10
648.276218788518
 20
-83.97121244446777
 30
0.0
 40
2.0
  0
CIRCLE
  5
1E0
330
70
100
AcDbEntity
  8
Visible (ISO)
100
AcDbCircle
 10
428.3862187885179
 20
-83.97121244446777
 30
0.0
 40
2.0
  0
CIRCLE
  5
1E1
330
70
100
AcDbEntity
  8
Visible (ISO)
100
AcDbCircle
 10
648.276218788518
 20
-83.97121244446687
 30
0.0
 40
5.0
  0
CIRCLE
  5
1E2
330
70
100
AcDbEntity
  8
Visible (ISO)
100
AcDbCircle
 10
428.3862187885179
 20
-83.97121244446687
 30
0.0
 40
5.0
  0
CIRCLE
  5
1E3
330
70
100
AcDbEntity
  8
Visible (ISO)
100
AcDbCircle
 10
428.3862187885179
 20
-83.97121244446687
 30
0.0
 40
7.5
  0
SPLINE
  5
1E4
330
70
100
AcDbEntity
  8
Visible (ISO)
100
AcDbSpline
210
0.0
220
0.0
230
1.0
 70
    11
 71
     3
 72
    38
 73
    34
 74
     0
 42
0.000000001
 43
0.0000000001
 40
0.0
 40
0.0
 40
0.0
 40
0.0
 40
0.3166576928131101
 40
0.3166576928131101
 40
0.6333153856262202
 40
0.6333153856262202
 40
0.9497640654405222
 40
0.9497640654405222
 40
1.266212745254824
 40
1.266212745254824
 40
1.582661425069126
 40
1.582661425069126
 40
1.899110104883428
 40
1.899110104883428
 40
2.215767797696538
 40
2.215767797696538
 40
2.532425490509648
 40
2.532425490509648
 40
2.849083183322759
 40
2.849083183322759
 40
3.165740876135869
 40
3.165740876135869
 40
3.482189555950171
 40
3.482189555950171
 40
3.798638235764473
 40
3.798638235764473
 40
4.115086915578775
 40
4.115086915578775
 40
4.431535595393077
 40
4.431535595393077
 40
4.748193288206187
 40
4.748193288206187
 40
5.064850981019297
 40
5.064850981019297
 40
5.064850981019297
 40
5.064850981019297
 10
428.3862187885179
 20
-75.55808155572002
 30
0.0
 10
429.4417444312284
 20
-75.55808155572002
 30
0.0
 10
430.5670578159555
 20
-75.77009205917143
 30
0.0
 10
432.6356741686237
 20
-76.63095202922805
 30
0.0
 10
433.5790110741203
 20
-77.27976623001547
 30
0.0
 10
435.0669823876896
 20
-78.77465641857622
 30
0.0
 10
435.7111612922799
 20
-79.72024672133821
 30
0.0
 10
436.5652219118997
 20
-81.79110101302359
 30
0.0
 10
436.7751036099413
 20
-82.91638351175555
 30
0.0
 10
436.7751036099413
 20
-85.02604137718423
 30
0.0
 10
436.5652219118997
 20
-86.1513238759162
 30
0.0
 10
435.7111612922799
 20
-88.22217816760161
 30
0.0
 10
435.0669823876896
 20
-89.16776847036363
 30
0.0
 10
433.5790110741203
 20
-90.66265865892445
 30
0.0
 10
432.6356741686237
 20
-91.31147285971184
 30
0.0
 10
430.5670578159555
 20
-92.17233282976851
 30
0.0
 10
429.4417444312284
 20
-92.38434333321992
 30
0.0
 10
427.3306931458075
 20
-92.38434333321992
 30
0.0
 10
426.2053797610803
 20
-92.17233282976851
 30
0.0
 10
424.1367634084122
 20
-91.31147285971184
 30
0.0
 10
423.1934265029155
 20
-90.66265865892445
 30
0.0
 10
421.7054551893463
 20
-89.16776847036363
 30
0.0
 10
421.061276284756
 20
-88.22217816760161
 30
0.0
 10
420.2072156651363
 20
-86.1513238759162
 30
0.0
 10
419.9973339670946
 20
-85.02604137718423
 30
0.0
 10
419.9973339670946
 20
-82.91638351175555
 30
0.0
 10
420.2072156651363
 20
-81.79110101302359
 30
0.0
 10
421.061276284756
 20
-79.72024672133821
 30
0.0
 10
421.7054551893463
 20
-78.77465641857622
 30
0.0
 10
423.1934265029155
 20
-77.27976623001547
 30
0.0
 10
424.1367634084122
 20
-76.63095202922805
 30
0.0
 10
426.2053797610803
 20
-75.77009205917143
 30
0.0
 10
427.3306931458075
 20
-75.55808155572002
 30
0.0
 10
428.3862187885179
 20
-75.55808155572002
 30
0.0
  0
CIRCLE
  5
1E5
330
70
100
AcDbEntity
  8
Visible (ISO)
100
AcDbCircle
 10
648.276218788518
 20
-83.97121244446687
 30
0.0
 40
7.5
  0
SPLINE
  5
1E6
330
70
100
AcDbEntity
  8
Visible (ISO)
100
AcDbSpline
210
0.0
220
0.0
230
1.0
 70
    11
 71
     3
 72
    39
 73
    35
 74
     0
 42
0.000000001
 43
0.0000000001
 40
2.532425490509648
 40
2.532425490509648
 40
2.532425490509648
 40
2.532425490509648
 40
2.849083183322759
 40
2.849083183322759
 40
3.165740876135869
 40
3.165740876135869
 40
3.482189555950171
 40
3.482189555950171
 40
3.798638235764473
 40
3.798638235764473
 40
4.115086915578775
 40
4.115086915578775
 40
4.431535595393077
 40
4.431535595393077
 40
4.748193288206187
 40
4.748193288206187
 40
5.064850981019297
 40
5.064850981019297
 40
5.064850981019297
 40
5.381508673832407
 40
5.381508673832407
 40
5.698166366645518
 40
5.698166366645518
 40
6.01461504645982
 40
6.01461504645982
 40
6.331063726274122
 40
6.331063726274122
 40
6.647512406088424
 40
6.647512406088424
 40
6.963961085902726
 40
6.963961085902726
 40
7.280618778715836
 40
7.280618778715836
 40
7.597276471528946
 40
7.597276471528946
 40
7.597276471528946
 40
7.597276471528946
 10
648.276218788518
 20
-75.55808155572002
 30
0.0
 10
649.3317444312283
 20
-75.55808155572002
 30
0.0
 10
650.4570578159555
 20
-75.77009205917143
 30
0.0
 10
652.5256741686237
 20
-76.63095202922805
 30
0.0
 10
653.4690110741203
 20
-77.27976623001547
 30
0.0
 10
654.9569823876896
 20
-78.77465641857622
 30
0.0
 10
655.6011612922799
 20
-79.72024672133821
 30
0.0
 10
656.4552219118996
 20
-81.79110101302359
 30
0.0
 10
656.6651036099414
 20
-82.91638351175555
 30
0.0
 10
656.6651036099414
 20
-85.02604137718423
 30
0.0
 10
656.4552219118996
 20
-86.1513238759162
 30
0.0
 10
655.6011612922799
 20
-88.22217816760161
 30
0.0
 10
654.9569823876896
 20
-89.16776847036363
 30
0.0
 10
653.4690110741203
 20
-90.66265865892441
 30
0.0
 10
652.5256741686237
 20
-91.31147285971184
 30
0.0
 10
650.4570578159555
 20
-92.17233282976851
 30
0.0
 10
649.3317444312283
 20
-92.38434333321992
 30
0.0
 10
648.276218788518
 20
-92.38434333321992
 30
0.0
 10
647.2206931458076
 20
-92.38434333321992
 30
0.0
 10
646.0953797610803
 20
-92.17233282976851
 30
0.0
 10
644.0267634084123
 20
-91.31147285971184
 30
0.0
 10
643.0834265029156
 20
-90.66265865892445
 30
0.0
 10
641.5954551893463
 20
-89.16776847036363
 30
0.0
 10
640.9512762847561
 20
-88.22217816760161
 30
0.0
 10
640.0972156651363
 20
-86.1513238759162
 30
0.0
 10
639.8873339670946
 20
-85.02604137718423
 30
0.0
 10
639.8873339670946
 20
-82.91638351175555
 30
0.0
 10
640.0972156651363
 20
-81.79110101302359
 30
0.0
 10
640.9512762847561
 20
-79.72024672133821
 30
0.0
 10
641.5954551893463
 20
-78.77465641857622
 30
0.0
 10
643.0834265029156
 20
-77.27976623001547
 30
0.0
 10
644.0267634084123
 20
-76.63095202922805
 30
0.0
 10
646.0953797610803
 20
-75.77009205917143
 30
0.0
 10
647.2206931458076
 20
-75.55808155572002
 30
0.0
 10
648.276218788518
 20
-75.55808155572002
 30
0.0
  0
LINE
  5
1E7
330
70
100
AcDbEntity
  8
Visible (ISO)
100
AcDbLine
 10
411.131218788518
 20
-207.9760124445078
 30
0.0
 11
411.131218788518
 21
40.03358755549214
 31
0.0
  0
LINE
  5
1E8
330
70
100
AcDbEntity
  8
Visible (ISO)
100
AcDbLine
 10
414.9664187885179
 20
-211.8112124445078
 30
0.0
 11
414.9664187885179
 21
43.86878755549215
 31
0.0
  0
LINE
  5
1E9
330
70
100
AcDbEntity
  8
Visible (ISO)
100
AcDbLine
 10
441.8060187885179
 20
-211.8112124445078
 30
0.0
 11
441.8060187885179
 21
43.86878755549215
 31
0.0
  0
LINE
  5
1EA
330
70
100
AcDbEntity
  8
Visible (ISO)
100
AcDbLine
 10
445.641218788518
 20
-207.9760124445078
 30
0.0
 11
445.641218788518
 21
40.03358755549214
 31
0.0
  0
LINE
  5
1EB
330
70
100
AcDbEntity
  8
Visible (ISO)
100
AcDbLine
 10
457.1445521218513
 20
-207.9760124445078
 30
0.0
 11
457.1445521218513
 21
40.03358755549214
 31
0.0
  0
LINE
  5
1EC
330
70
100
AcDbEntity
  8
Visible (ISO)
100
AcDbLine
 10
481.0912187885179
 20
-219.9712124445078
 30
0.0
 11
481.0912187885179
 21
52.02878755549221
 31
0.0
  0
LINE
  5
1ED
330
70
100
AcDbEntity
  8
Visible (ISO)
100
AcDbLine
 10
595.5712187885181
 20
-219.9712124445078
 30
0.0
 11
595.5712187885181
 21
52.02878755549221
 31
0.0
  0
LINE
  5
1EE
330
70
100
AcDbEntity
  8
Visible (ISO)
100
AcDbLine
 10
619.5178854551847
 20
-207.9760124445078
 30
0.0
 11
619.5178854551847
 21
40.03358755549214
 31
0.0
  0
LINE
  5
1EF
330
70
100
AcDbEntity
  8
Visible (ISO)
100
AcDbLine
 10
631.021218788518
 20
-207.9760124445078
 30
0.0
 11
631.021218788518
 21
40.03358755549214
 31
0.0
  0
LINE
  5
1F0
330
70
100
AcDbEntity
  8
Visible (ISO)
100
AcDbLine
 10
634.8564187885179
 20
-211.8112124445078
 30
0.0
 11
634.8564187885179
 21
43.86878755549215
 31
0.0
  0
LINE
  5
1F1
330
70
100
AcDbEntity
  8
Visible (ISO)
100
AcDbLine
 10
661.6960187885179
 20
-211.8112124445078
 30
0.0
 11
661.6960187885179
 21
43.86878755549215
 31
0.0
  0
LINE
  5
1F2
330
70
100
AcDbEntity
  8
Visible (ISO)
100
AcDbLine
 10
665.5312187885179
 20
-207.9760124445078
 30
0.0
 11
665.5312187885179
 21
40.03358755549214
 31
0.0
  0
LINE
  5
1F3
330
70
100
AcDbEntity
  8
Visible Narrow (ISO)
100
AcDbLine
 10
372.4827214781212
 20
-173.4062021951666
 30
0.0
 11
372.4827214781212
 21
5.463777306159407
 31
0.0
  0
LINE
  5
1F4
330
70
100
AcDbEntity
  8
Visible (ISO)
100
AcDbLine
 10
411.131218788518
 20
40.03358755549216
 30
0.0
 11
414.9664187885179
 21
43.8687875554922
 31
0.0
  0
LINE
  5
1F5
330
70
100
AcDbEntity
  8
Visible (ISO)
100
AcDbLine
 10
411.131218788518
 20
-207.9760124445078
 30
0.0
 11
414.9664187885179
 21
-211.8112124445079
 31
0.0
  0
LINE
  5
1F6
330
70
100
AcDbEntity
  8
Visible (ISO)
100
AcDbLine
 10
414.9664187885179
 20
43.86878755549219
 30
0.0
 11
441.8060187885179
 21
43.86878755549219
 31
0.0
  0
LINE
  5
1F7
330
70
100
AcDbEntity
  8
Visible (ISO)
100
AcDbLine
 10
414.9664187885179
 20
-211.8112124445078
 30
0.0
 11
441.8060187885179
 21
-211.8112124445078
 31
0.0
  0
LINE
  5
1F8
330
70
100
AcDbEntity
  8
Visible (ISO)
100
AcDbLine
 10
445.641218788518
 20
-207.9760124445078
 30
0.0
 11
441.8060187885179
 21
-211.8112124445079
 31
0.0
  0
LINE
  5
1F9
330
70
100
AcDbEntity
  8
Visible (ISO)
100
AcDbLine
 10
445.641218788518
 20
40.03358755549216
 30
0.0
 11
441.8060187885179
 21
43.8687875554922
 31
0.0
  0
LINE
  5
1FA
330
70
100
AcDbEntity
  8
Visible (ISO)
100
AcDbLine
 10
445.6412187885178
 20
40.03358755549218
 30
0.0
 11
457.1445521218513
 21
40.03358755549218
 31
0.0
  0
LINE
  5
1FB
330
70
100
AcDbEntity
  8
Visible (ISO)
100
AcDbLine
 10
445.6412187885178
 20
-207.9760124445078
 30
0.0
 11
457.1445521218513
 21
-207.9760124445078
 31
0.0
  0
LINE
  5
1FC
330
70
100
AcDbEntity
  8
Visible (ISO)
100
AcDbLine
 10
457.1445521218513
 20
40.03358755549218
 30
0.0
 11
481.0912187885179
 21
52.0287875554922
 31
0.0
  0
LINE
  5
1FD
330
70
100
AcDbEntity
  8
Visible (ISO)
100
AcDbLine
 10
457.1445521218513
 20
-207.9760124445078
 30
0.0
 11
481.0912187885179
 21
-219.9712124445078
 31
0.0
  0
LINE
  5
1FE
330
70
100
AcDbEntity
  8
Visible (ISO)
100
AcDbLine
 10
481.0912187885179
 20
52.0287875554922
 30
0.0
 11
595.5712187885181
 21
52.0287875554922
 31
0.0
  0
LINE
  5
1FF
330
70
100
AcDbEntity
  8
Visible (ISO)
100
AcDbLine
 10
481.0912187885179
 20
-219.9712124445078
 30
0.0
 11
595.5712187885181
 21
-219.9712124445078
 31
0.0
  0
LINE
  5
200
330
70
100
AcDbEntity
  8
Visible (ISO)
100
AcDbLine
 10
619.5178854551847
 20
-207.9760124445078
 30
0.0
 11
595.5712187885181
 21
-219.9712124445078
 31
0.0
  0
LINE
  5
201
330
70
100
AcDbEntity
  8
Visible (ISO)
100
AcDbLine
 10
619.5178854551847
 20
40.03358755549218
 30
0.0
 11
595.5712187885181
 21
52.0287875554922
 31
0.0
  0
LINE
  5
202
330
70
100
AcDbEntity
  8
Visible (ISO)
100
AcDbLine
 10
619.5178854551847
 20
40.03358755549218
 30
0.0
 11
631.021218788518
 21
40.03358755549218
 31
0.0
  0
LINE
  5
203
330
70
100
AcDbEntity
  8
Visible (ISO)
100
AcDbLine
 10
619.5178854551847
 20
-207.9760124445078
 30
0.0
 11
631.021218788518
 21
-207.9760124445078
 31
0.0
  0
LINE
  5
204
330
70
100
AcDbEntity
  8
Visible (ISO)
100
AcDbLine
 10
631.021218788518
 20
40.03358755549218
 30
0.0
 11
634.8564187885179
 21
43.8687875554922
 31
0.0
  0
LINE
  5
205
330
70
100
AcDbEntity
  8
Visible (ISO)
100
AcDbLine
 10
631.021218788518
 20
-207.9760124445078
 30
0.0
 11
634.8564187885179
 21
-211.8112124445079
 31
0.0
  0
LINE
  5
206
330
70
100
AcDbEntity
  8
Visible (ISO)
100
AcDbLine
 10
634.8564187885179
 20
43.86878755549219
 30
0.0
 11
661.6960187885179
 21
43.86878755549219
 31
0.0
  0
LINE
  5
207
330
70
100
AcDbEntity
  8
Visible (ISO)
100
AcDbLine
 10
634.8564187885179
 20
-211.8112124445078
 30
0.0
 11
661.6960187885179
 21
-211.8112124445078
 31
0.0
  0
LINE
  5
208
330
70
100
AcDbEntity
  8
Visible (ISO)
100
AcDbLine
 10
665.5312187885179
 20
-207.9760124445078
 30
0.0
 11
661.6960187885179
 21
-211.8112124445079
 31
0.0
  0
LINE
  5
209
330
70
100
AcDbEntity
  8
Visible (ISO)
100
AcDbLine
 10
665.5312187885179
 20
40.03358755549218
 30
0.0
 11
661.6960187885179
 21
43.8687875554922
 31
0.0
  0
ARC
  5
20A
330
70
100
AcDbEntity
  8
Visible (ISO)
100
AcDbCircle
 10
524.3110574981954
 20
-83.97121244450781
 30
0.0
 40
176.7798387096774
100
AcDbArc
 50
149.1883198795221
 51
210.8116801204779
  0
ARC
  5
20B
330
70
100
AcDbEntity
  8
Visible (ISO)
100
AcDbCircle
 10
411.131218788518
 20
-151.4712124445078
 30
0.0
 40
45.0
100
AcDbArc
 50
210.8116801204779
 51
270.0
  0
ARC
  5
20C
330
70
100
AcDbEntity
  8
Visible (ISO)
100
AcDbCircle
 10
411.131218788518
 20
-16.47121244450781
 30
0.0
 40
45.0
100
AcDbArc
 50
90.0
 51
149.1883198795221
  0
INSERT
  5
22D
330
70
100
AcDbEntity
  8
Section Line (ISO)
100
AcDbBlockReference
  2
2dTransSection0
 10
0.0
 20
0.0
 30
0.0
  0
ARC
  5
22E
330
70
100
AcDbEntity
  8
Visible (ISO)
100
AcDbCircle
 10
524.3110574981954
 20
1426.139649305291
 30
0.0
 40
176.7798387096774
100
AcDbArc
 50
149.1883198795221
 51
210.8116801204779
  0
ARC
  5
22F
330
70
100
AcDbEntity
  8
Visible (ISO)
100
AcDbCircle
 10
411.1312187885181
 20
1358.639649305291
 30
0.0
 40
44.99999999999999
100
AcDbArc
 50
210.8116801204779
 51
270.0
  0
LINE
  5
230
330
70
100
AcDbEntity
  8
Visible (ISO)
100
AcDbLine
 10
411.1312187885181
 20
1313.639649305291
 30
0.0
 11
411.1312187885181
 21
1302.134849305291
 31
0.0
  0
LINE
  5
231
330
70
100
AcDbEntity
  8
Visible (ISO)
100
AcDbLine
 10
411.1312187885181
 20
1302.134849305291
 30
0.0
 11
414.9664187885179
 21
1298.299649305291
 31
0.0
  0
LINE
  5
232
330
70
100
AcDbEntity
  8
Visible (ISO)
100
AcDbLine
 10
414.9664187885179
 20
1298.299649305291
 30
0.0
 11
441.806018788518
 21
1298.299649305291
 31
0.0
  0
LINE
  5
233
330
70
100
AcDbEntity
  8
Visible (ISO)
100
AcDbLine
 10
441.806018788518
 20
1298.299649305291
 30
0.0
 11
445.641218788518
 21
1302.134849305291
 31
0.0
  0
LINE
  5
234
330
70
100
AcDbEntity
  8
Visible (ISO)
100
AcDbLine
 10
445.641218788518
 20
1302.134849305291
 30
0.0
 11
457.1445521218513
 21
1302.134849305291
 31
0.0
  0
LINE
  5
235
330
70
100
AcDbEntity
  8
Visible (ISO)
100
AcDbLine
 10
457.1445521218513
 20
1302.134849305291
 30
0.0
 11
481.091218788518
 21
1290.139649305291
 31
0.0
  0
LINE
  5
236
330
70
100
AcDbEntity
  8
Visible (ISO)
100
AcDbLine
 10
481.091218788518
 20
1290.139649305291
 30
0.0
 11
595.5712187885181
 21
1290.139649305291
 31
0.0
  0
LINE
  5
237
330
70
100
AcDbEntity
  8
Visible (ISO)
100
AcDbLine
 10
595.5712187885181
 20
1290.139649305291
 30
0.0
 11
619.5178854551848
 21
1302.134849305291
 31
0.0
  0
LINE
  5
238
330
70
100
AcDbEntity
  8
Visible (ISO)
100
AcDbLine
 10
619.5178854551848
 20
1302.134849305291
 30
0.0
 11
631.021218788518
 21
1302.134849305291
 31
0.0
  0
LINE
  5
239
330
70
100
AcDbEntity
  8
Visible (ISO)
100
AcDbLine
 10
631.021218788518
 20
1302.134849305291
 30
0.0
 11
634.856418788518
 21
1298.299649305291
 31
0.0
  0
LINE
  5
23A
330
70
100
AcDbEntity
  8
Visible (ISO)
100
AcDbLine
 10
634.856418788518
 20
1298.299649305291
 30
0.0
 11
661.6960187885181
 21
1298.299649305291
 31
0.0
  0
LINE
  5
23B
330
70
100
AcDbEntity
  8
Visible (ISO)
100
AcDbLine
 10
661.6960187885181
 20
1298.299649305291
 30
0.0
 11
665.5312187885181
 21
1302.134849305291
 31
0.0
  0
LINE
  5
23C
330
70
100
AcDbEntity
  8
Visible (ISO)
100
AcDbLine
 10
665.5312187885181
 20
1302.134849305291
 30
0.0
 11
665.5312187885181
 21
1313.639649305291
 31
0.0
  0
LINE
  5
23D
330
70
100
AcDbEntity
  8
Visible (ISO)
100
AcDbLine
 10
665.5312187885181
 20
1313.639649305291
 30
0.0
 11
634.856418788518
 21
1313.639649305291
 31
0.0
  0
LINE
  5
23E
330
70
100
AcDbEntity
  8
Visible (ISO)
100
AcDbLine
 10
634.856418788518
 20
1313.639649305291
 30
0.0
 11
631.3304978361647
 21
1312.890191670938
 31
0.0
  0
LINE
  5
23F
330
70
100
AcDbEntity
  8
Visible (ISO)
100
AcDbLine
 10
631.3304978361647
 20
1312.890191670938
 30
0.0
 11
631.3304978361647
 21
1313.639649305291
 31
0.0
  0
LINE
  5
240
330
70
100
AcDbEntity
  8
Visible (ISO)
100
AcDbLine
 10
631.3304978361647
 20
1313.639649305291
 30
0.0
 11
546.5312187885181
 21
1313.639649305291
 31
0.0
  0
LINE
  5
241
330
70
100
AcDbEntity
  8
Visible (ISO)
100
AcDbLine
 10
546.5312187885181
 20
1313.639649305291
 30
0.0
 11
546.5312187885181
 21
1319.264649305291
 31
0.0
  0
LINE
  5
242
330
70
100
AcDbEntity
  8
Visible (ISO)
100
AcDbLine
 10
546.5312187885181
 20
1319.264649305291
 30
0.0
 11
530.131218788518
 21
1319.264649305291
 31
0.0
  0
LINE
  5
243
330
70
100
AcDbEntity
  8
Visible (ISO)
100
AcDbLine
 10
530.131218788518
 20
1319.264649305291
 30
0.0
 11
530.131218788518
 21
1336.139649305291
 31
0.0
  0
LINE
  5
244
330
70
100
AcDbEntity
  8
Visible (ISO)
100
AcDbLine
 10
530.131218788518
 20
1336.139649305291
 30
0.0
 11
411.1312187885181
 21
1336.139649305291
 31
0.0
  0
ARC
  5
245
330
70
100
AcDbEntity
  8
Visible (ISO)
100
AcDbCircle
 10
411.1312187885181
 20
1358.639649305291
 30
0.0
 40
22.50000000000011
100
AcDbArc
 50
210.8116801204777
 51
269.9999999999998
  0
ARC
  5
246
330
70
100
AcDbEntity
  8
Visible (ISO)
100
AcDbCircle
 10
524.3110574981954
 20
1426.139649305291
 30
0.0
 40
154.2798387096773
100
AcDbArc
 50
149.1883198795222
 51
210.8116801204779
  0
ARC
  5
247
330
70
100
AcDbEntity
  8
Visible (ISO)
100
AcDbCircle
 10
411.1312187885181
 20
1493.639649305291
 30
0.0
 40
22.50000000000006
100
AcDbArc
 50
90.00000000000019
 51
149.1883198795222
  0
LINE
  5
248
330
70
100
AcDbEntity
  8
Visible (ISO)
100
AcDbLine
 10
411.131218788518
 20
1516.139649305291
 30
0.0
 11
530.131218788518
 21
1516.139649305291
 31
0.0
  0
LINE
  5
249
330
70
100
AcDbEntity
  8
Visible (ISO)
100
AcDbLine
 10
530.131218788518
 20
1516.139649305291
 30
0.0
 11
530.131218788518
 21
1533.014649305291
 31
0.0
  0
LINE
  5
24A
330
70
100
AcDbEntity
  8
Visible (ISO)
100
AcDbLine
 10
530.131218788518
 20
1533.014649305291
 30
0.0
 11
546.5312187885181
 21
1533.014649305291
 31
0.0
  0
LINE
  5
24B
330
70
100
AcDbEntity
  8
Visible (ISO)
100
AcDbLine
 10
546.5312187885181
 20
1533.014649305291
 30
0.0
 11
546.5312187885181
 21
1538.639649305291
 31
0.0
  0
LINE
  5
24C
330
70
100
AcDbEntity
  8
Visible (ISO)
100
AcDbLine
 10
546.5312187885181
 20
1538.639649305291
 30
0.0
 11
631.3304978361647
 21
1538.639649305291
 31
0.0
  0
LINE
  5
24D
330
70
100
AcDbEntity
  8
Visible (ISO)
100
AcDbLine
 10
631.3304978361647
 20
1538.639649305291
 30
0.0
 11
631.3304978361647
 21
1539.389106939643
 31
0.0
  0
LINE
  5
24E
330
70
100
AcDbEntity
  8
Visible (ISO)
100
AcDbLine
 10
631.3304978361647
 20
1539.389106939643
 30
0.0
 11
634.856418788518
 21
1538.639649305291
 31
0.0
  0
LINE
  5
24F
330
70
100
AcDbEntity
  8
Visible (ISO)
100
AcDbLine
 10
634.856418788518
 20
1538.639649305291
 30
0.0
 11
665.5312187885181
 21
1538.639649305291
 31
0.0
  0
LINE
  5
250
330
70
100
AcDbEntity
  8
Visible (ISO)
100
AcDbLine
 10
665.5312187885181
 20
1538.639649305291
 30
0.0
 11
665.5312187885181
 21
1550.144449305291
 31
0.0
  0
LINE
  5
251
330
70
100
AcDbEntity
  8
Visible (ISO)
100
AcDbLine
 10
665.5312187885181
 20
1550.144449305291
 30
0.0
 11
661.6960187885181
 21
1553.979649305291
 31
0.0
  0
LINE
  5
252
330
70
100
AcDbEntity
  8
Visible (ISO)
100
AcDbLine
 10
661.6960187885181
 20
1553.979649305291
 30
0.0
 11
656.6651036099414
 21
1553.979649305291
 31
0.0
  0
LINE
  5
253
330
70
100
AcDbEntity
  8
Visible (ISO)
100
AcDbLine
 10
656.6651036099414
 20
1553.979649305291
 30
0.0
 11
655.776218788518
 21
1564.139649305291
 31
0.0
  0
LINE
  5
254
330
70
100
AcDbEntity
  8
Visible (ISO)
100
AcDbLine
 10
655.776218788518
 20
1564.139649305291
 30
0.0
 11
653.276218788518
 21
1564.139649305291
 31
0.0
  0
LINE
  5
255
330
70
100
AcDbEntity
  8
Visible (ISO)
100
AcDbLine
 10
653.276218788518
 20
1564.139649305291
 30
0.0
 11
653.276218788518
 21
1550.139649305291
 31
0.0
  0
LINE
  5
256
330
70
100
AcDbEntity
  8
Visible (ISO)
100
AcDbLine
 10
653.276218788518
 20
1550.139649305291
 30
0.0
 11
650.276218788518
 21
1550.139649305291
 31
0.0
  0
LINE
  5
257
330
70
100
AcDbEntity
  8
Visible (ISO)
100
AcDbLine
 10
650.276218788518
 20
1550.139649305291
 30
0.0
 11
650.276218788518
 21
1561.139649305291
 31
0.0
  0
LINE
  5
258
330
70
100
AcDbEntity
  8
Visible (ISO)
100
AcDbLine
 10
650.276218788518
 20
1561.139649305291
 30
0.0
 11
646.2762187885181
 21
1561.139649305291
 31
0.0
  0
LINE
  5
259
330
70
100
AcDbEntity
  8
Visible (ISO)
100
AcDbLine
 10
646.2762187885181
 20
1561.139649305291
 30
0.0
 11
646.2762187885181
 21
1550.139649305291
 31
0.0
  0
LINE
  5
25A
330
70
100
AcDbEntity
  8
Visible (ISO)
100
AcDbLine
 10
646.2762187885181
 20
1550.139649305291
 30
0.0
 11
643.276218788518
 21
1550.139649305291
 31
0.0
  0
LINE
  5
25B
330
70
100
AcDbEntity
  8
Visible (ISO)
100
AcDbLine
 10
643.276218788518
 20
1550.139649305291
 30
0.0
 11
643.276218788518
 21
1564.139649305291
 31
0.0
  0
LINE
  5
25C
330
70
100
AcDbEntity
  8
Visible (ISO)
100
AcDbLine
 10
643.276218788518
 20
1564.139649305291
 30
0.0
 11
640.776218788518
 21
1564.139649305291
 31
0.0
  0
LINE
  5
25D
330
70
100
AcDbEntity
  8
Visible (ISO)
100
AcDbLine
 10
640.776218788518
 20
1564.139649305291
 30
0.0
 11
639.8873339670947
 21
1553.979649305291
 31
0.0
  0
LINE
  5
25E
330
70
100
AcDbEntity
  8
Visible (ISO)
100
AcDbLine
 10
639.8873339670947
 20
1553.979649305291
 30
0.0
 11
634.856418788518
 21
1553.979649305291
 31
0.0
  0
LINE
  5
25F
330
70
100
AcDbEntity
  8
Visible (ISO)
100
AcDbLine
 10
634.856418788518
 20
1553.979649305291
 30
0.0
 11
631.021218788518
 21
1550.144449305291
 31
0.0
  0
LINE
  5
260
330
70
100
AcDbEntity
  8
Visible (ISO)
100
AcDbLine
 10
631.021218788518
 20
1550.144449305291
 30
0.0
 11
619.5178854551847
 21
1550.144449305291
 31
0.0
  0
LINE
  5
261
330
70
100
AcDbEntity
  8
Visible (ISO)
100
AcDbLine
 10
619.5178854551847
 20
1550.144449305291
 30
0.0
 11
595.5712187885181
 21
1562.139649305291
 31
0.0
  0
LINE
  5
262
330
70
100
AcDbEntity
  8
Visible (ISO)
100
AcDbLine
 10
595.5712187885181
 20
1562.139649305291
 30
0.0
 11
481.091218788518
 21
1562.139649305291
 31
0.0
  0
LINE
  5
263
330
70
100
AcDbEntity
  8
Visible (ISO)
100
AcDbLine
 10
481.091218788518
 20
1562.139649305291
 30
0.0
 11
457.1445521218514
 21
1550.144449305291
 31
0.0
  0
LINE
  5
264
330
70
100
AcDbEntity
  8
Visible (ISO)
100
AcDbLine
 10
457.1445521218514
 20
1550.144449305291
 30
0.0
 11
445.641218788518
 21
1550.144449305291
 31
0.0
  0
LINE
  5
265
330
70
100
AcDbEntity
  8
Visible (ISO)
100
AcDbLine
 10
445.641218788518
 20
1550.144449305291
 30
0.0
 11
441.806018788518
 21
1553.979649305291
 31
0.0
  0
LINE
  5
266
330
70
100
AcDbEntity
  8
Visible (ISO)
100
AcDbLine
 10
441.806018788518
 20
1553.979649305291
 30
0.0
 11
436.7751036099414
 21
1553.979649305291
 31
0.0
  0
LINE
  5
267
330
70
100
AcDbEntity
  8
Visible (ISO)
100
AcDbLine
 10
436.7751036099414
 20
1553.979649305291
 30
0.0
 11
435.886218788518
 21
1564.139649305291
 31
0.0
  0
LINE
  5
268
330
70
100
AcDbEntity
  8
Visible (ISO)
100
AcDbLine
 10
435.886218788518
 20
1564.139649305291
 30
0.0
 11
433.386218788518
 21
1564.139649305291
 31
0.0
  0
LINE
  5
269
330
70
100
AcDbEntity
  8
Visible (ISO)
100
AcDbLine
 10
433.386218788518
 20
1564.139649305291
 30
0.0
 11
433.386218788518
 21
1550.139649305291
 31
0.0
  0
LINE
  5
26A
330
70
100
AcDbEntity
  8
Visible (ISO)
100
AcDbLine
 10
433.386218788518
 20
1550.139649305291
 30
0.0
 11
430.386218788518
 21
1550.139649305291
 31
0.0
  0
LINE
  5
26B
330
70
100
AcDbEntity
  8
Visible (ISO)
100
AcDbLine
 10
430.386218788518
 20
1550.139649305291
 30
0.0
 11
430.386218788518
 21
1561.139649305291
 31
0.0
  0
LINE
  5
26C
330
70
100
AcDbEntity
  8
Visible (ISO)
100
AcDbLine
 10
430.386218788518
 20
1561.139649305291
 30
0.0
 11
426.386218788518
 21
1561.139649305291
 31
0.0
  0
LINE
  5
26D
330
70
100
AcDbEntity
  8
Visible (ISO)
100
AcDbLine
 10
426.386218788518
 20
1561.139649305291
 30
0.0
 11
426.386218788518
 21
1550.139649305291
 31
0.0
  0
LINE
  5
26E
330
70
100
AcDbEntity
  8
Visible (ISO)
100
AcDbLine
 10
426.386218788518
 20
1550.139649305291
 30
0.0
 11
423.386218788518
 21
1550.139649305291
 31
0.0
  0
LINE
  5
26F
330
70
100
AcDbEntity
  8
Visible (ISO)
100
AcDbLine
 10
423.386218788518
 20
1550.139649305291
 30
0.0
 11
423.386218788518
 21
1564.139649305291
 31
0.0
  0
LINE
  5
270
330
70
100
AcDbEntity
  8
Visible (ISO)
100
AcDbLine
 10
423.386218788518
 20
1564.139649305291
 30
0.0
 11
420.886218788518
 21
1564.139649305291
 31
0.0
  0
LINE
  5
271
330
70
100
AcDbEntity
  8
Visible (ISO)
100
AcDbLine
 10
420.886218788518
 20
1564.139649305291
 30
0.0
 11
419.9973339670946
 21
1553.979649305291
 31
0.0
  0
LINE
  5
272
330
70
100
AcDbEntity
  8
Visible (ISO)
100
AcDbLine
 10
419.9973339670946
 20
1553.979649305291
 30
0.0
 11
414.9664187885179
 21
1553.979649305291
 31
0.0
  0
LINE
  5
273
330
70
100
AcDbEntity
  8
Visible (ISO)
100
AcDbLine
 10
414.9664187885179
 20
1553.979649305291
 30
0.0
 11
411.1312187885181
 21
1550.144449305291
 31
0.0
  0
LINE
  5
274
330
70
100
AcDbEntity
  8
Visible (ISO)
100
AcDbLine
 10
411.1312187885181
 20
1550.144449305291
 30
0.0
 11
411.1312187885181
 21
1538.639649305291
 31
0.0
  0
ARC
  5
275
330
70
100
AcDbEntity
  8
Visible (ISO)
100
AcDbCircle
 10
411.1312187885181
 20
1493.639649305291
 30
0.0
 40
45.00000000000008
100
AcDbArc
 50
90.00000000000019
 51
149.1883198795221
  0
LINE
  5
276
330
70
100
AcDbEntity
  8
Visible (ISO)
100
AcDbLine
 10
445.3319397408714
 20
1538.639649305291
 30
0.0
 11
441.806018788518
 21
1538.639649305291
 31
0.0
  0
LINE
  5
277
330
70
100
AcDbEntity
  8
Visible (ISO)
100
AcDbLine
 10
441.806018788518
 20
1538.639649305291
 30
0.0
 11
445.3319397408714
 21
1539.389106939643
 31
0.0
  0
LINE
  5
278
330
70
100
AcDbEntity
  8
Visible (ISO)
100
AcDbLine
 10
445.3319397408714
 20
1539.389106939643
 30
0.0
 11
445.3319397408714
 21
1538.639649305291
 31
0.0
  0
LINE
  5
279
330
70
100
AcDbEntity
  8
Visible (ISO)
100
AcDbLine
 10
441.806018788518
 20
1313.639649305291
 30
0.0
 11
445.3319397408714
 21
1313.639649305291
 31
0.0
  0
LINE
  5
27A
330
70
100
AcDbEntity
  8
Visible (ISO)
100
AcDbLine
 10
445.3319397408714
 20
1313.639649305291
 30
0.0
 11
445.3319397408714
 21
1312.890191670938
 31
0.0
  0
LINE
  5
27B
330
70
100
AcDbEntity
  8
Visible (ISO)
100
AcDbLine
 10
445.3319397408714
 20
1312.890191670938
 30
0.0
 11
441.806018788518
 21
1313.639649305291
 31
0.0
  0
LINE
  5
27C
330
70
100
AcDbEntity
  8
Visible (ISO)
100
AcDbLine
 10
530.131218788518
 20
1336.139649305291
 30
0.0
 11
530.131218788518
 21
1516.139649305291
 31
0.0
  0
LINE
  5
27D
330
70
100
AcDbEntity
  8
Visible (ISO)
100
AcDbLine
 10
546.5312187885181
 20
1319.264649305291
 30
0.0
 11
546.5312187885181
 21
1533.014649305291
 31
0.0
  0
LINE
  5
27E
330
70
100
AcDbEntity
  8
Visible (ISO)
100
AcDbLine
 10
631.3304978361647
 20
1313.639649305291
 30
0.0
 11
631.3304978361647
 21
1538.639649305291
 31
0.0
  0
LINE
  5
27F
330
70
100
AcDbEntity
  8
Visible (ISO)
100
AcDbLine
 10
634.856418788518
 20
1313.639649305291
 30
0.0
 11
634.856418788518
 21
1538.639649305291
 31
0.0
  0
LINE
  5
280
330
70
100
AcDbEntity
  8
Visible (ISO)
100
AcDbLine
 10
665.5312187885181
 20
1313.639649305291
 30
0.0
 11
665.5312187885181
 21
1538.639649305291
 31
0.0
  0
LINE
  5
281
330
70
100
AcDbEntity
  8
Visible (ISO)
100
AcDbLine
 10
643.276218788518
 20
1564.139649305291
 30
0.0
 11
653.276218788518
 21
1564.139649305291
 31
0.0
  0
LINE
  5
282
330
70
100
AcDbEntity
  8
Visible (ISO)
100
AcDbLine
 10
423.386218788518
 20
1564.139649305291
 30
0.0
 11
433.386218788518
 21
1564.139649305291
 31
0.0
  0
MTEXT
  5
283
330
70
100
AcDbEntity
  8
Symbol (ISO)
100
AcDbMText
 10
494.092321925798
 20
1627.1396493053
 30
0.0
 40
3.499999940395355
 41
0.0
 46
0.0
 71
     7
 72
     1
  1
B-B ( 1 : 1 )
  7
Label Text (ISO)
 73
     1
 44
1.0
  0
HATCH
  5
2D2
330
70
100
AcDbEntity
  8
Hatch (ISO)
100
AcDbHatch
 10
0.0
 20
0.0
 30
0.0
210
0.0
220
0.0
230
1.0
  2
ANSI31
 70
     0
 71
     0
 91
        3
 92
        1
 93
       72
 72
     3
 10
524.3110574981954
 20
1426.139649305291
 11
-151.8283360200741
 21
90.54980814775376
 40
1.0
 50
0.0
 51
61.62336024095574
 73
     1
 72
     3
 10
411.1312187885181
 20
1358.639649305291
 11
-38.64849731039675
 21
-23.04980814775374
 40
1.0
 50
0.0000000000000368
 51
59.18831987952216
 73
     1
 72
     1
 10
411.1312187885181
 20
1313.639649305291
 11
411.1312187885181
 21
1302.134849305291
 72
     1
 10
411.1312187885181
 20
1302.134849305291
 11
414.966418788518
 21
1298.299649305291
 72
     1
 10
414.9664187885179
 20
1298.299649305291
 11
441.806018788518
 21
1298.299649305291
 72
     1
 10
441.806018788518
 20
1298.299649305291
 11
445.641218788518
 21
1302.134849305291
 72
     1
 10
445.641218788518
 20
1302.134849305291
 11
457.1445521218514
 21
1302.134849305291
 72
     1
 10
457.1445521218513
 20
1302.134849305291
 11
481.091218788518
 21
1290.139649305291
 72
     1
 10
481.091218788518
 20
1290.139649305291
 11
595.5712187885181
 21
1290.139649305291
 72
     1
 10
595.5712187885181
 20
1290.139649305291
 11
619.5178854551848
 21
1302.134849305291
 72
     1
 10
619.5178854551848
 20
1302.134849305291
 11
631.0212187885181
 21
1302.134849305291
 72
     1
 10
631.021218788518
 20
1302.134849305291
 11
634.856418788518
 21
1298.299649305291
 72
     1
 10
634.856418788518
 20
1298.299649305291
 11
661.6960187885181
 21
1298.299649305291
 72
     1
 10
661.6960187885181
 20
1298.299649305291
 11
665.5312187885181
 21
1302.134849305291
 72
     1
 10
665.5312187885181
 20
1302.134849305291
 11
665.5312187885181
 21
1313.639649305291
 72
     1
 10
665.5312187885181
 20
1313.639649305291
 11
634.856418788518
 21
1313.639649305291
 72
     1
 10
634.856418788518
 20
1313.639649305291
 11
631.3304978361648
 21
1312.890191670939
 72
     1
 10
631.3304978361647
 20
1312.890191670938
 11
631.3304978361647
 21
1313.639649305291
 72
     1
 10
631.3304978361647
 20
1313.639649305291
 11
546.531218788518
 21
1313.639649305291
 72
     1
 10
546.5312187885181
 20
1313.639649305291
 11
546.5312187885181
 21
1319.264649305291
 72
     1
 10
546.5312187885181
 20
1319.264649305291
 11
530.1312187885181
 21
1319.264649305291
 72
     1
 10
530.131218788518
 20
1319.264649305291
 11
530.131218788518
 21
1336.139649305291
 72
     1
 10
530.131218788518
 20
1336.139649305291
 11
411.131218788518
 21
1336.139649305291
 72
     3
 10
411.1312187885181
 20
1358.639649305291
 11
-0.0000000000000355
 21
-22.50000000000011
 40
1.0
 50
0.0
 51
59.18831987952192
 73
     0
 72
     3
 10
524.3110574981954
 20
1426.139649305291
 11
-132.5040873648756
 21
-79.02490407387688
 40
1.0
 50
0.0
 51
61.62336024095576
 73
     0
 72
     3
 10
411.1312187885181
 20
1493.639649305291
 11
-19.32424865519841
 21
11.52490407387692
 40
1.0
 50
-0.0000000000000509
 51
59.18831987952197
 73
     0
 72
     1
 10
411.131218788518
 20
1516.139649305291
 11
530.131218788518
 21
1516.139649305291
 72
     1
 10
530.131218788518
 20
1516.139649305291
 11
530.131218788518
 21
1533.014649305291
 72
     1
 10
530.131218788518
 20
1533.014649305291
 11
546.531218788518
 21
1533.014649305291
 72
     1
 10
546.5312187885181
 20
1533.014649305291
 11
546.5312187885181
 21
1538.639649305291
 72
     1
 10
546.5312187885181
 20
1538.639649305291
 11
631.3304978361648
 21
1538.639649305291
 72
     1
 10
631.3304978361647
 20
1538.639649305291
 11
631.3304978361647
 21
1539.389106939643
 72
     1
 10
631.3304978361647
 20
1539.389106939643
 11
634.856418788518
 21
1538.639649305291
 72
     1
 10
634.856418788518
 20
1538.639649305291
 11
665.5312187885181
 21
1538.639649305291
 72
     1
 10
665.5312187885181
 20
1538.639649305291
 11
665.5312187885181
 21
1550.144449305291
 72
     1
 10
665.5312187885181
 20
1550.144449305291
 11
661.6960187885181
 21
1553.979649305291
 72
     1
 10
661.6960187885181
 20
1553.979649305291
 11
656.6651036099415
 21
1553.979649305291
 72
     1
 10
656.6651036099414
 20
1553.979649305291
 11
655.776218788518
 21
1564.139649305291
 72
     1
 10
655.776218788518
 20
1564.139649305291
 11
653.276218788518
 21
1564.139649305291
 72
     1
 10
653.276218788518
 20
1564.139649305291
 11
653.276218788518
 21
1550.139649305291
 72
     1
 10
653.276218788518
 20
1550.139649305291
 11
650.276218788518
 21
1550.139649305291
 72
     1
 10
650.276218788518
 20
1550.139649305291
 11
650.276218788518
 21
1561.139649305291
 72
     1
 10
650.276218788518
 20
1561.139649305291
 11
646.2762187885179
 21
1561.139649305291
 72
     1
 10
646.2762187885181
 20
1561.139649305291
 11
646.2762187885181
 21
1550.139649305291
 72
     1
 10
646.2762187885181
 20
1550.139649305291
 11
643.2762187885181
 21
1550.139649305291
 72
     1
 10
643.276218788518
 20
1550.139649305291
 11
643.276218788518
 21
1564.139649305291
 72
     1
 10
643.276218788518
 20
1564.139649305291
 11
640.776218788518
 21
1564.139649305291
 72
     1
 10
640.776218788518
 20
1564.139649305291
 11
639.8873339670946
 21
1553.979649305291
 72
     1
 10
639.8873339670947
 20
1553.979649305291
 11
634.856418788518
 21
1553.979649305291
 72
     1
 10
634.856418788518
 20
1553.979649305291
 11
631.0212187885181
 21
1550.144449305291
 72
     1
 10
631.021218788518
 20
1550.144449305291
 11
619.5178854551847
 21
1550.144449305291
 72
     1
 10
619.5178854551847
 20
1550.144449305291
 11
595.5712187885181
 21
1562.139649305291
 72
     1
 10
595.5712187885181
 20
1562.139649305291
 11
481.091218788518
 21
1562.139649305291
 72
     1
 10
481.091218788518
 20
1562.139649305291
 11
457.1445521218514
 21
1550.144449305291
 72
     1
 10
457.1445521218514
 20
1550.144449305291
 11
445.6412187885181
 21
1550.144449305291
 72
     1
 10
445.641218788518
 20
1550.144449305291
 11
441.806018788518
 21
1553.979649305291
 72
     1
 10
441.806018788518
 20
1553.979649305291
 11
436.7751036099414
 21
1553.979649305291
 72
     1
 10
436.7751036099414
 20
1553.979649305291
 11
435.886218788518
 21
1564.139649305291
 72
     1
 10
435.886218788518
 20
1564.139649305291
 11
433.386218788518
 21
1564.139649305291
 72
     1
 10
433.386218788518
 20
1564.139649305291
 11
433.386218788518
 21
1550.139649305291
 72
     1
 10
433.386218788518
 20
1550.139649305291
 11
430.3862187885179
 21
1550.139649305291
 72
     1
 10
430.386218788518
 20
1550.139649305291
 11
430.386218788518
 21
1561.139649305291
 72
     1
 10
430.386218788518
 20
1561.139649305291
 11
426.386218788518
 21
1561.139649305291
 72
     1
 10
426.386218788518
 20
1561.139649305291
 11
426.386218788518
 21
1550.139649305291
 72
     1
 10
426.386218788518
 20
1550.139649305291
 11
423.386218788518
 21
1550.139649305291
 72
     1
 10
423.386218788518
 20
1550.139649305291
 11
423.386218788518
 21
1564.139649305291
 72
     1
 10
423.386218788518
 20
1564.139649305291
 11
420.886218788518
 21
1564.139649305291
 72
     1
 10
420.886218788518
 20
1564.139649305291
 11
419.9973339670946
 21
1553.979649305291
 72
     1
 10
419.9973339670946
 20
1553.979649305291
 11
414.966418788518
 21
1553.979649305291
 72
     1
 10
414.9664187885179
 20
1553.979649305291
 11
411.131218788518
 21
1550.144449305291
 72
     1
 10
411.1312187885181
 20
1550.144449305291
 11
411.1312187885181
 21
1538.639649305291
 72
     3
 10
411.1312187885181
 20
1493.639649305291
 11
-0.0000000000000355
 21
45.00000000000008
 40
1.0
 50
0.0
 51
59.18831987952202
 73
     1
 97
        0
 92
        0
 93
        3
 72
     1
 10
441.806018788518
 20
1313.639649305291
 11
445.3319397408714
 21
1313.639649305291
 72
     1
 10
445.3319397408714
 20
1313.639649305291
 11
445.3319397408714
 21
1312.890191670939
 72
     1
 10
445.3319397408714
 20
1312.890191670938
 11
441.806018788518
 21
1313.639649305291
 97
        0
 92
        0
 93
        3
 72
     1
 10
445.3319397408714
 20
1538.639649305291
 11
441.806018788518
 21
1538.639649305291
 72
     1
 10
441.806018788518
 20
1538.639649305291
 11
445.3319397408714
 21
1539.389106939643
 72
     1
 10
445.3319397408714
 20
1539.389106939643
 11
445.3319397408714
 21
1538.639649305291
 97
        0
 75
     0
 76
     1
 52
0.0
 41
25.4
 77
     0
 78
     1
 53
45.0
 43
0.0
 44
0.0
 45
-2.245064030267288
 46
2.245064030267288
 79
     0
 98
        1
 10
506.531218788518
 20
1427.139649305271
  0
ELLIPSE
  5
2D3
330
70
100
AcDbEntity
  8
Visible (ISO)
100
AcDbEllipse
 10
1259.907259881047
 20
1204.546810279305
 30
0.0
 11
-1.999999999999993
 21
0.0000000000000003
 31
0.0
210
0.0
220
0.0
230
1.0
 40
0.5758617009853122
 41
2.972903479732206
 42
6.451874481037295
  0
ELLIPSE
  5
2D4
330
70
100
AcDbEntity
  8
Visible (ISO)
100
AcDbEllipse
 10
1104.421549765914
 20
1115.008544773522
 30
0.0
 11
-1.999999999999994
 21
0.0000000000000004
 31
0.0
210
0.0
220
0.0
230
1.0
 40
0.5758617009853121
 41
2.972903479732206
 42
6.451874481037295
  0
ELLIPSE
  5
2D5
330
70
100
AcDbEntity
  8
Visible (ISO)
100
AcDbEllipse
 10
1259.907259881047
 20
1206.999451653833
 30
0.0
 11
5.0
 21
-0.0000000000000003
 31
0.0
210
0.0
220
0.0
230
1.0
 40
0.5758617009853121
 41
0.0
 42
6.283185307179586
  0
LINE
  5
2D6
330
70
100
AcDbEntity
  8
Visible (ISO)
100
AcDbLine
 10
1257.907259881047
 20
1204.360521819241
 30
0.0
 11
1257.907259881047
 21
1204.546810279305
 31
0.0
  0
LINE
  5
2D7
330
70
100
AcDbEntity
  8
Visible (ISO)
100
AcDbLine
 10
1261.907259881047
 20
1204.360521819241
 30
0.0
 11
1261.907259881047
 21
1204.546810279305
 31
0.0
  0
ELLIPSE
  5
2D8
330
70
100
AcDbEntity
  8
Visible (ISO)
100
AcDbEllipse
 10
1104.421549765914
 20
1117.46118614805
 30
0.0
 11
5.0
 21
-0.0000000000000003
 31
0.0
210
0.0
220
0.0
230
1.0
 40
0.5758617009853121
 41
0.0
 42
6.283185307179586
  0
LINE
  5
2D9
330
70
100
AcDbEntity
  8
Visible (ISO)
100
AcDbLine
 10
1106.421549765914
 20
1115.008544773522
 30
0.0
 11
1106.421549765914
 21
1114.822256313458
 31
0.0
  0
LINE
  5
2DA
330
70
100
AcDbEntity
  8
Visible (ISO)
100
AcDbLine
 10
1102.421549765914
 20
1115.008544773522
 30
0.0
 11
1102.421549765914
 21
1114.822256313458
 31
0.0
  0
ELLIPSE
  5
2DB
330
70
100
AcDbEntity
  8
Visible (ISO)
100
AcDbEllipse
 10
1104.421549765914
 20
1117.46118614805
 30
0.0
 11
7.5
 21
-0.0000000000000014
 31
0.0
210
0.0
220
0.0
230
1.0
 40
0.5758617009853121
 41
0.0
 42
6.283185307179586
  0
SPLINE
  5
2DC
330
70
100
AcDbEntity
  8
Visible (ISO)
100
AcDbSpline
210
0.0
220
0.0
230
1.0
 70
     8
 71
     3
 72
    26
 73
    22
 74
     0
 42
0.000000001
 43
0.0000000001
 40
1.847339677119577
 40
1.847339677119577
 40
1.847339677119577
 40
1.847339677119577
 40
1.899110104883428
 40
1.899110104883428
 40
2.215767797696538
 40
2.215767797696538
 40
2.532425490509648
 40
2.532425490509648
 40
2.849083183322759
 40
2.849083183322759
 40
3.165740876135869
 40
3.165740876135869
 40
3.482189555950171
 40
3.482189555950171
 40
3.798638235764473
 40
3.798638235764473
 40
4.115086915578775
 40
4.115086915578775
 40
4.431535595393077
 40
4.431535595393077
 40
4.482382044910679
 40
4.482382044910679
 40
4.482382044910679
 40
4.482382044910679
 10
1112.804383729862
 20
1109.353984908272
 30
0.0
 10
1112.816089437515
 20
1109.248212291826
 30
0.0
 10
1112.822128338856
 20
1109.143114639221
 30
0.0
 10
1112.824975398542
 20
1108.403186268165
 30
0.0
 10
1112.616716396829
 20
1107.724516523047
 30
0.0
 10
1111.762703668662
 20
1106.488787332392
 30
0.0
 10
1111.116901008035
 20
1105.932352083845
 30
0.0
 10
1109.624162328681
 20
1105.072741048826
 30
0.0
 10
1108.678531538707
 20
1104.712730723504
 30
0.0
 10
1106.607078965583
 20
1104.263796489586
 30
0.0
 10
1105.481258121656
 20
1104.174220745543
 30
0.0
 10
1103.372056526159
 20
1104.233921552308
 30
0.0
 10
1102.247919939119
 20
1104.386881466497
 30
0.0
 10
1100.179692770941
 20
1104.924952390366
 30
0.0
 10
1099.235589113406
 20
1105.309467596683
 30
0.0
 10
1097.743835730778
 20
1106.168511237054
 30
0.0
 10
1097.096549617106
 20
1106.700416451316
 30
0.0
 10
1096.236146560284
 20
1107.848831510372
 30
0.0
 10
1096.02301651671
 20
1108.46595223276
 30
0.0
 10
1096.020178212311
 20
1109.137603558483
 30
0.0
 10
1096.025218021565
 20
1109.231586772488
 30
0.0
 10
1096.035723852454
 20
1109.326234294106
 30
0.0
  0
LINE
  5
2DD
330
70
100
AcDbEntity
  8
Visible (ISO)
100
AcDbLine
 10
1111.9072950507
 20
1117.727342381316
 30
0.0
 11
1112.805061055058
 21
1109.354017321245
 31
0.0
  0
LINE
  5
2DE
330
70
100
AcDbEntity
  8
Visible (ISO)
100
AcDbLine
 10
1096.935804481128
 20
1117.727342381316
 30
0.0
 11
1096.035061542006
 21
1109.326251909836
 31
0.0
  0
ELLIPSE
  5
2DF
330
70
100
AcDbEntity
  8
Visible (ISO)
100
AcDbEllipse
 10
1259.907259881047
 20
1206.999451653833
 30
0.0
 11
7.5
 21
0.0000000000004444
 31
0.0
210
0.0
220
0.0
230
1.0
 40
0.5758617009853121
 41
0.0
 42
6.283185307179586
  0
SPLINE
  5
2E0
330
70
100
AcDbEntity
  8
Visible (ISO)
100
AcDbSpline
210
0.0
220
0.0
230
1.0
 70
     8
 71
     3
 72
    27
 73
    23
 74
     0
 42
0.000000001
 43
0.0000000001
 40
4.379765167629226
 40
4.379765167629226
 40
4.379765167629226
 40
4.379765167629226
 40
4.431535595393077
 40
4.431535595393077
 40
4.748193288206187
 40
4.748193288206187
 40
5.064850981019297
 40
5.064850981019297
 40
5.064850981019297
 40
5.381508673832407
 40
5.381508673832407
 40
5.698166366645518
 40
5.698166366645518
 40
6.01461504645982
 40
6.01461504645982
 40
6.331063726274122
 40
6.331063726274122
 40
6.647512406088424
 40
6.647512406088424
 40
6.963961085902726
 40
6.963961085902726
 40
7.014807535420329
 40
7.014807535420329
 40
7.014807535420329
 40
7.014807535420329
 10
1268.290093844995
 20
1198.892250414055
 30
0.0
 10
1268.301799552648
 20
1198.786477797609
 30
0.0
 10
1268.30783845399
 20
1198.681380145004
 30
0.0
 10
1268.310685513675
 20
1197.941451773948
 30
0.0
 10
1268.102426511962
 20
1197.262782028831
 30
0.0
 10
1267.248413783796
 20
1196.027052838175
 30
0.0
 10
1266.602611123168
 20
1195.470617589628
 30
0.0
 10
1265.856241783491
 20
1195.040812072119
 30
0.0
 10
1265.109872443814
 20
1194.61100655461
 30
0.0
 10
1264.16424165384
 20
1194.250996229288
 30
0.0
 10
1262.092789080716
 20
1193.802061995369
 30
0.0
 10
1260.966968236789
 20
1193.712486251326
 30
0.0
 10
1258.857766641292
 20
1193.772187058091
 30
0.0
 10
1257.733630054252
 20
1193.92514697228
 30
0.0
 10
1255.665402886074
 20
1194.463217896149
 30
0.0
 10
1254.721299228539
 20
1194.847733102466
 30
0.0
 10
1253.229545845911
 20
1195.706776742837
 30
0.0
 10
1252.582259732239
 20
1196.238681957099
 30
0.0
 10
1251.721856675417
 20
1197.387097016155
 30
0.0
 10
1251.508726631843
 20
1198.004217738543
 30
0.0
 10
1251.505888327444
 20
1198.675869064266
 30
0.0
 10
1251.510928136698
 20
1198.769852278271
 30
0.0
 10
1251.521433967588
 20
1198.864499799888
 30
0.0
  0
LINE
  5
2E1
330
70
100
AcDbEntity
  8
Visible (ISO)
100
AcDbLine
 10
1267.393005165833
 20
1207.265607887099
 30
0.0
 11
1268.290771170191
 21
1198.892282827028
 31
0.0
  0
LINE
  5
2E2
330
70
100
AcDbEntity
  8
Visible (ISO)
100
AcDbLine
 10
1252.42151459626
 20
1207.265607887099
 30
0.0
 11
1251.520771657139
 21
1198.864517415619
 31
0.0
  0
ELLIPSE
  5
2E3
330
70
100
AcDbEntity
  8
Visible (ISO)
100
AcDbEllipse
 10
1092.220422256538
 20
997.6135208782935
 30
0.0
 11
-56.14112380322057
 21
97.49063656634653
 31
0.0
210
0.0
220
0.0
230
1.0
 40
0.578093115915639
 41
3.141592653589792
 42
6.283185307179585
  0
ELLIPSE
  5
2E4
330
70
100
AcDbEntity
  8
Visible (ISO)
100
AcDbEllipse
 10
1092.220422256538
 20
997.6135208782935
 30
0.0
 11
-61.88238959105426
 21
107.460505682511
 31
0.0
210
0.0
220
0.0
230
1.0
 40
0.578093115915639
 41
2.446675362834869
 42
6.978102597934509
  0
ELLIPSE
  5
2E5
330
70
100
AcDbEntity
  8
Visible (ISO)
100
AcDbEllipse
 10
1094.932318183745
 20
999.1751978798294
 30
0.0
 11
-63.79627792892192
 21
110.7840264768155
 31
0.0
210
0.0
220
0.0
230
1.0
 40
0.578093115915639
 41
2.405774692956816
 42
7.01900326781256
  0
ELLIPSE
  5
2E6
330
70
100
AcDbEntity
  8
Visible (ISO)
100
AcDbEllipse
 10
1113.910781348083
 20
1010.104167959728
 30
0.0
 11
-63.79627792892203
 21
110.7840264768154
 31
0.0
210
0.0
220
0.0
230
1.0
 40
0.578093115915639
 41
5.647988107624673
 42
6.28318530717958
  0
ELLIPSE
  5
2E7
330
70
100
AcDbEntity
  8
Visible (ISO)
100
AcDbEllipse
 10
1113.910781348082
 20
1010.104167959728
 30
0.0
 11
63.7962779289153
 21
-110.7840264768193
 31
0.0
210
0.0
220
0.0
230
1.0
 40
0.578093115915639
 41
0.0
 42
2.37779683676657
  0
ELLIPSE
  5
2E8
330
70
100
AcDbEntity
  8
Visible (ISO)
100
AcDbEllipse
 10
1116.62267727529
 20
1011.665844961265
 30
0.0
 11
61.88238959104781
 21
-107.4605056825147
 31
0.0
210
0.0
220
0.0
230
1.0
 40
0.578093115915639
 41
0.787331871820423
 42
2.354260781769848
  0
ELLIPSE
  5
2E9
330
70
100
AcDbEntity
  8
Visible (ISO)
100
AcDbEllipse
 10
1124.75676228154
 20
1016.349952988922
 30
0.0
 11
-61.88238959105426
 21
107.460505682511
 31
0.0
210
0.0
220
0.0
230
1.0
 40
0.5780931159156392
 41
3.234313610224701
 42
6.190464350544681
  0
ELLIPSE
  5
2EA
330
70
100
AcDbEntity
  8
Visible (ISO)
100
AcDbEllipse
 10
1141.689612668356
 20
1026.100933015201
 30
0.0
 11
-67.86838077544881
 21
117.8553473157611
 31
0.0
210
0.0
220
0.0
230
1.0
 40
0.578093115915639
 41
2.787642588791474
 42
6.637135371977903
  0
ELLIPSE
  5
2EB
330
70
100
AcDbEntity
  8
Visible (ISO)
100
AcDbEllipse
 10
1222.639196978605
 20
1072.71669833014
 30
0.0
 11
-67.86838077544889
 21
117.8553473157611
 31
0.0
210
0.0
220
0.0
230
1.0
 40
0.5780931159156393
 41
3.141592653589793
 42
6.283185307179585
  0
ELLIPSE
  5
2EC
330
70
100
AcDbEntity
  8
Visible (ISO)
100
AcDbEllipse
 10
1239.572047365421
 20
1082.46767835642
 30
0.0
 11
-61.88238959105424
 21
107.460505682511
 31
0.0
210
0.0
220
0.0
230
1.0
 40
0.5780931159156393
 41
3.504381928858561
 42
5.920396031910819
  0
ELLIPSE
  5
2ED
330
70
100
AcDbEntity
  8
Visible (ISO)
100
AcDbEllipse
 10
1247.706132371671
 20
1087.151786384076
 30
0.0
 11
-61.88238959105426
 21
107.460505682511
 31
0.0
210
0.0
220
0.0
230
1.0
 40
0.578093115915639
 41
3.198337107230887
 42
6.226440853538488
  0
ELLIPSE
  5
2EE
330
70
100
AcDbEntity
  8
Visible (ISO)
100
AcDbEllipse
 10
1250.418028298878
 20
1088.713463385612
 30
0.0
 11
-63.79627792892191
 21
110.7840264768155
 31
0.0
210
0.0
220
0.0
230
1.0
 40
0.578093115915639
 41
3.076526687158596
 42
6.348251273610785
  0
ELLIPSE
  5
2EF
330
70
100
AcDbEntity
  8
Visible (ISO)
100
AcDbEllipse
 10
1269.396491463215
 20
1099.642433465511
 30
0.0
 11
-63.79627792892203
 21
110.7840264768154
 31
0.0
210
0.0
220
0.0
230
1.0
 40
0.578093115915639
 41
5.647988107624673
 42
6.28318530717958
  0
ELLIPSE
  5
2F0
330
70
100
AcDbEntity
  8
Visible (ISO)
100
AcDbEllipse
 10
1269.396491463215
 20
1099.642433465512
 30
0.0
 11
63.7962779289153
 21
-110.7840264768193
 31
0.0
210
0.0
220
0.0
230
1.0
 40
0.578093115915639
 41
0.0
 42
2.37779683676657
  0
ELLIPSE
  5
2F1
330
70
100
AcDbEntity
  8
Visible (ISO)
100
AcDbEllipse
 10
1272.108387390423
 20
1101.204110467048
 30
0.0
 11
61.88238959104781
 21
-107.4605056825147
 31
0.0
210
0.0
220
0.0
230
1.0
 40
0.578093115915639
 41
0.7873318718204239
 42
2.354260781769848
  0
ELLIPSE
  5
2F2
330
70
100
AcDbEntity
  8
Visible Narrow (ISO)
100
AcDbEllipse
 10
1064.891807725683
 20
981.8760184289876
 30
0.0
 11
45.18727101849232
 21
-78.46896388698112
 31
0.0
210
0.0
220
0.0
230
0.9999999999999998
 40
0.578093115915639
 41
0.0
 42
6.283185307179586
  0
LINE
  5
2F3
330
70
100
AcDbEntity
  8
Visible (ISO)
100
AcDbLine
 10
1031.136040254823
 20
1109.959224356645
 30
0.0
 11
1050.114503419161
 21
1120.888194436544
 31
0.0
  0
LINE
  5
2F4
330
70
100
AcDbEntity
  8
Visible (ISO)
100
AcDbLine
 10
1158.728596112667
 20
888.3911714030141
 30
0.0
 11
1177.707059277004
 21
899.3201414829133
 31
0.0
  0
LINE
  5
2F5
330
70
100
AcDbEntity
  8
Visible (ISO)
100
AcDbLine
 10
1204.307312254958
 20
961.1716219115516
 30
0.0
 11
1204.307312254957
 21
958.0482679084777
 31
0.0
  0
LINE
  5
2F6
330
70
100
AcDbEntity
  8
Visible (ISO)
100
AcDbLine
 10
1116.961789464378
 20
1112.849572782665
 30
0.0
 11
1114.260381543019
 21
1114.417289425089
 31
0.0
  0
LINE
  5
2F7
330
70
100
AcDbEntity
  8
Visible (ISO)
100
AcDbLine
 10
1073.821231892908
 20
1143.956280330962
 30
0.0
 11
1154.770816203155
 21
1190.572045645901
 31
0.0
  0
LINE
  5
2F8
330
70
100
AcDbEntity
  8
Visible (ISO)
100
AcDbLine
 10
1209.557993443805
 20
908.2455856994398
 30
0.0
 11
1290.507577754053
 21
954.8613510143793
 31
0.0
  0
LINE
  5
2F9
330
70
100
AcDbEntity
  8
Visible (ISO)
100
AcDbLine
 10
1319.472674814154
 20
994.6972326133998
 30
0.0
 11
1310.268751100927
 21
976.4560647010336
 31
0.0
  0
LINE
  5
2FA
330
70
100
AcDbEntity
  8
Visible (ISO)
100
AcDbLine
 10
1203.763671533002
 20
1195.629163115475
 30
0.0
 11
1183.367014666234
 21
1196.824490344897
 31
0.0
  0
LINE
  5
2FB
330
70
100
AcDbEntity
  8
Visible (ISO)
100
AcDbLine
 10
1186.621750369956
 20
1199.497489862428
 30
0.0
 11
1205.600213534294
 21
1210.426459942327
 31
0.0
  0
LINE
  5
2FC
330
70
100
AcDbEntity
  8
Visible (ISO)
100
AcDbLine
 10
1314.2143062278
 20
977.9294369087972
 30
0.0
 11
1333.192769392137
 21
988.8584069886963
 31
0.0
  0
LINE
  5
2FD
330
70
100
AcDbEntity
  8
Visible (ISO)
100
AcDbLine
 10
1359.793022370091
 20
1050.709887417334
 30
0.0
 11
1359.79302237009
 21
1047.586533414261
 31
0.0
  0
LINE
  5
2FE
330
70
100
AcDbEntity
  8
Visible (ISO)
100
AcDbLine
 10
1272.447499579511
 20
1202.387838288448
 30
0.0
 11
1269.746091658152
 21
1203.955554930872
 31
0.0
  0
SPLINE
  5
2FF
330
70
100
AcDbEntity
  8
Visible (ISO)
100
AcDbSpline
210
0.0
220
0.0
230
1.0
 70
     8
 71
     3
 72
    26
 73
    22
 74
     0
 42
0.000000001
 43
0.0000000001
 40
2.358128198615377
 40
2.358128198615377
 40
2.358128198615377
 40
2.358128198615377
 40
2.56263407360675
 40
2.56263407360675
 40
2.784494950598117
 40
2.784494950598117
 40
3.06015438917292
 40
3.06015438917292
 40
3.416271743598506
 40
3.416271743598506
 40
3.808989567575764
 40
3.808989567575764
 40
4.197311911131896
 40
4.197311911131896
 40
4.587654394000145
 40
4.587654394000145
 40
4.974996273406031
 40
4.974996273406031
 40
5.28118350886542
 40
5.28118350886542
 40
5.49972085220517
 40
5.49972085220517
 40
5.49972085220517
 40
5.49972085220517
 10
1148.361546059759
 20
900.1228843119468
 30
0.0
 10
1141.457979832121
 20
896.1473849212358
 30
0.0
 10
1133.853527896812
 20
893.4528127378566
 30
0.0
 10
1118.114011878006
 20
890.6210331163075
 30
0.0
 10
1110.025742162087
 20
890.6732236848201
 30
0.0
 10
1093.080144197672
 20
893.1218075197355
 30
0.0
 10
1084.472197893602
 20
896.031637649885
 30
0.0
 10
1066.386558488119
 20
904.7397860265991
 30
0.0
 10
1057.324160566782
 20
911.1531206797337
 30
0.0
 10
1040.114562521089
 20
926.6706282447756
 30
0.0
 10
1032.163347122562
 20
936.0191611355412
 30
0.0
 10
1018.587412162087
 20
956.2061206794407
 30
0.0
 10
1012.948589262095
 20
967.0251928283491
 30
0.0
 10
1004.318695150768
 20
989.6220278804662
 30
0.0
 10
1001.324739602352
 20
1001.394587413187
 30
0.0
 10
998.8730179579119
 20
1025.413885659502
 30
0.0
 10
999.3288339781065
 20
1037.718958220008
 30
0.0
 10
1005.303563784519
 20
1059.975912386786
 30
0.0
 10
1009.858002557896
 20
1069.967980123685
 30
0.0
 10
1022.197469136038
 20
1085.179391782576
 30
0.0
 10
1028.702067735512
 20
1090.855892814925
 30
0.0
 10
1036.079298453318
 20
1095.10415744464
 30
0.0
  0
DIMENSION
  5
300
330
70
100
AcDbEntity
  8
Dimension (ISO)
100
AcDbDimension
280
     0
  2
*D7
 10
546.5312187885181
 20
1182.514649305291
 30
0.0
 11
596.0312187885181
 21
1182.514649305291
 31
0.0
 70
   160
  1
<>
 42
119.0
 73
     0
 74
     0
 75
     0
  3
Default (ISO)
100
AcDbAlignedDimension
 13
665.5312187885181
 23
1313.639649305291
 33
0.0
 14
546.5312187885181
 24
1319.264649305291
 34
0.0
 50
180.0
100
AcDbRotatedDimension
1001
ACAD
1000
DSTYLE
1002
{
1070
   172
1070
     0
1070
   289
1070
     1
1070
   271
1070
     2
1070
   272
1070
     2
1070
    48
1040
0.0
1070
    47
1040
0.0
1002
}
  0
DIMENSION
  5
3D7
330
70
100
AcDbEntity
  8
Dimension (ISO)
100
AcDbDimension
280
     0
  2
*D8
 10
694.6227194838074
 20
1313.639649305291
 30
0.0
 11
694.6227194838071
 21
1381.139649305291
 31
0.0
 70
   160
  1
\fAIGDT|b0|i0;\H2.5000;\ln\fTahoma|b0|i0;\H2.5000;<>
 42
225.0
 73
     0
 74
     0
 75
     0
  3
Default (ISO)
100
AcDbAlignedDimension
 13
665.5312187885181
 23
1538.639649305291
 33
0.0
 14
665.5312187885181
 24
1313.639649305291
 34
0.0
 50
90.0
100
AcDbRotatedDimension
1001
ACAD
1000
DSTYLE
1002
{
1070
   172
1070
     0
1070
   289
1070
     1
1070
   271
1070
     2
1070
   272
1070
     2
1070
    48
1040
0.0
1070
    47
1040
0.0
1002
}
  0
DIMENSION
  5
4AE
330
70
100
AcDbEntity
  8
Dimension (ISO)
100
AcDbDimension
280
     0
  2
*D9
 10
767.571218788518
 20
1290.139649305291
 30
0.0
 11
767.5712187885177
 21
1368.639649305291
 31
0.0
 70
   160
  1
<>
 42
272.0000000000002
 73
     0
 74
     0
 75
     0
  3
Default (ISO)
100
AcDbAlignedDimension
 13
595.5712187885181
 23
1562.139649305291
 33
0.0
 14
595.5712187885181
 24
1290.139649305291
 34
0.0
 50
90.0
100
AcDbRotatedDimension
1001
ACAD
1000
DSTYLE
1002
{
1070
   172
1070
     0
1070
   289
1070
     1
1070
   271
1070
     2
1070
   272
1070
     2
1070
    48
1040
0.0
1070
    47
1040
0.0
1002
}
  0
DIMENSION
  5
584
330
70
100
AcDbEntity
  8
Dimension (ISO)
100
AcDbDimension
280
     0
  2
*D10
 10
684.4312187885182
 20
1426.139649305291
 30
0.0
 11
684.4312187885179
 21
1472.139649305291
 31
0.0
 70
   160
  1
<>
 42
137.9999999999997
 73
     0
 74
     0
 75
     0
  3
Default (ISO)
100
AcDbAlignedDimension
 13
653.276218788518
 23
1564.139649305291
 33
0.0
 14
665.5312187885181
 24
1426.139649305291
 34
0.0
 50
90.0
100
AcDbRotatedDimension
1001
ACAD
1000
DSTYLE
1002
{
1070
   172
1070
     0
1070
   289
1070
     1
1070
   271
1070
     2
1070
   272
1070
     2
1070
    48
1040
0.0
1070
    47
1040
0.0
1002
}
  0
DIMENSION
  5
65A
330
70
100
AcDbEntity
  8
Dimension (ISO)
100
AcDbDimension
280
     0
  2
*D11
 10
347.531218788518
 20
1164.139649305291
 30
0.0
 11
463.0312187885181
 21
1164.139649305291
 31
0.0
 70
   160
  1
<>
 42
318.0000000000001
 73
     0
 74
     0
 75
     0
  3
Default (ISO)
100
AcDbAlignedDimension
 13
665.5312187885181
 23
1313.639649305291
 33
0.0
 14
347.531218788518
 24
1426.139649305291
 34
0.0
 50
180.0
100
AcDbRotatedDimension
1001
ACAD
1000
DSTYLE
1002
{
1070
   172
1070
     0
1070
   289
1070
     1
1070
   271
1070
     2
1070
   272
1070
     2
1070
    48
1040
0.0
1070
    47
1040
0.0
1002
}
  0
ENDSEC
  0
SECTION
  2
OBJECTS
  0
DICTIONARY
  5
C
330
0
100
AcDbDictionary
281
     1
  3
ACAD_CIP_PREVIOUS_PRODUCT_INFO
350
730
  3
ACAD_COLOR
350
63
  3
ACAD_DETAILVIEWSTYLE
350
6A
  3
ACAD_GROUP
350
D
  3
ACAD_LAYOUT
350
62
  3
ACAD_MATERIAL
350
10
  3
ACAD_MLEADERSTYLE
350
66
  3
ACAD_MLINESTYLE
350
5F
  3
ACAD_PLOTSETTINGS
350
61
  3
ACAD_PLOTSTYLENAME
350
E
  3
ACAD_SCALELIST
350
42
  3
ACAD_SECTIONVIEWSTYLE
350
68
  3
ACAD_TABLESTYLE
350
64
  3
ACAD_VISUALSTYLE
350
29
  3
ACDB_RECOMPOSE_DATA
350
745
  3
AcDbVariableDictionary
350
731
  0
DICTIONARY
  5
739
330
16F
100
AcDbDictionary
280
     1
281
     1
  3
ACAD_MLATT
360
73B
  3
ACAD_XREC_ROUNDTRIP
360
73A
  0
DICTIONARY
  5
73C
330
172
100
AcDbDictionary
280
     1
281
     1
  3
ACAD_MLATT
360
73E
  3
ACAD_XREC_ROUNDTRIP
360
73D
  0
DICTIONARY
  5
73F
330
175
100
AcDbDictionary
280
     1
281
     1
  3
ACAD_MLATT
360
741
  3
ACAD_XREC_ROUNDTRIP
360
740
  0
DICTIONARY
  5
742
330
176
100
AcDbDictionary
280
     1
281
     1
  3
ACAD_MLATT
360
744
  3
ACAD_XREC_ROUNDTRIP
360
743
  0
XRECORD
  5
730
102
{ACAD_REACTORS
330
C
102
}
330
C
100
AcDbXrecord
280
     1
300
INVPROSA
300
2015
300
INVPROSA_F_S
  0
DICTIONARY
  5
63
102
{ACAD_REACTORS
330
C
102
}
330
C
100
AcDbDictionary
281
     1
  0
DICTIONARY
  5
6A
102
{ACAD_REACTORS
330
C
102
}
330
C
100
AcDbDictionary
281
     1
  3
Imperial24
350
6B
  0
DICTIONARY
  5
D
102
{ACAD_REACTORS
330
C
102
}
330
C
100
AcDbDictionary
281
     1
  0
DICTIONARY
  5
62
102
{ACAD_REACTORS
330
C
102
}
330
C
100
AcDbDictionary
281
     1
  3
Layout1
350
6F
  3
Layout2
350
77
  3
Model
350
73
  0
DICTIONARY
  5
10
102
{ACAD_REACTORS
330
C
102
}
330
C
100
AcDbDictionary
281
     1
  3
ByBlock
350
19
  3
ByLayer
350
11
  3
Global
350
21
  0
DICTIONARY
  5
66
102
{ACAD_REACTORS
330
C
102
}
330
C
100
AcDbDictionary
281
     1
  3
Standard
350
67
  0
DICTIONARY
  5
5F
102
{ACAD_REACTORS
330
C
102
}
330
C
100
AcDbDictionary
281
     1
  3
Standard
350
60
  0
DICTIONARY
  5
61
102
{ACAD_REACTORS
330
C
102
}
330
C
100
AcDbDictionary
281
     1
  0
ACDBDICTIONARYWDFLT
  5
E
102
{ACAD_REACTORS
330
C
102
}
330
C
100
AcDbDictionary
281
     1
  3
Normal
350
F
100
AcDbDictionaryWithDefault
340
F
  0
DICTIONARY
  5
42
102
{ACAD_REACTORS
330
C
102
}
330
C
100
AcDbDictionary
281
     1
  3
A0
350
43
  3
A1
350
44
  3
A2
350
45
  3
A3
350
46
  3
A4
350
47
  3
A5
350
48
  3
A6
350
49
  3
A7
350
4A
  3
A8
350
4B
  3
A9
350
4C
  3
B0
350
4D
  3
B1
350
4E
  3
B2
350
4F
  3
B3
350
50
  3
B4
350
51
  3
B5
350
52
  3
B6
350
53
  0
DICTIONARY
  5
68
102
{ACAD_REACTORS
330
C
102
}
330
C
100
AcDbDictionary
281
     1
  3
Imperial24
350
69
  0
DICTIONARY
  5
64
102
{ACAD_REACTORS
330
C
102
}
330
C
100
AcDbDictionary
281
     1
  3
Standard
350
65
  0
DICTIONARY
  5
29
102
{ACAD_REACTORS
330
C
102
}
330
C
100
AcDbDictionary
281
     1
  3
2dWireframe
350
2F
  3
Basic
350
2E
  3
Brighten
350
35
  3
ColorChange
350
39
  3
Conceptual
350
32
  3
Dim
350
34
  3
EdgeColorOff
350
41
  3
Facepattern
350
38
  3
Flat
350
2A
  3
FlatWithEdges
350
2B
  3
Gouraud
350
2C
  3
GouraudWithEdges
350
2D
  3
Hidden
350
31
  3
JitterOff
350
3F
  3
Linepattern
350
37
  3
OverhangOff
350
40
  3
Realistic
350
33
  3
Shaded
350
3E
  3
Shaded with edges
350
3D
  3
Shades of Gray
350
3A
  3
Sketchy
350
3B
  3
Thicken
350
36
  3
Wireframe
350
30
  3
X-Ray
350
3C
  0
XRECORD
  5
745
102
{ACAD_REACTORS
330
C
102
}
330
C
100
AcDbXrecord
280
     1
 90
        1
330
65
330
16F
330
172
330
175
330
176
  0
DICTIONARY
  5
731
102
{ACAD_REACTORS
330
C
102
}
330
C
100
AcDbDictionary
281
     1
  3
CANNOSCALE
350
736
  3
CMLEADERSTYLE
350
733
  3
CTABLESTYLE
350
732
  3
CVIEWDETAILSTYLE
350
734
  3
CVIEWSECTIONSTYLE
350
735
  0
XRECORD
  5
73B
102
{ACAD_REACTORS
330
739
102
}
330
739
100
AcDbXrecord
280
     1
 70
     4
 70
     0
 70
     0
 40
1.0
  2
PART_NUMBER
  1
Embedded Object
 10
34.22301799019188
 20
75.68699284482417
 30
0.0
 40
2.5
 41
181.6575261045072
 46
0.0
 71
     1
 72
     5
  1
491204225
  7
Note Text (ISO)
 73
     1
 44
1.0
  0
XRECORD
  5
73A
102
{ACAD_REACTORS
330
739
102
}
330
739
100
AcDbXrecord
280
     1
102
ACAD_MATT_HEIGHT
140
2.5
  0
XRECORD
  5
73E
102
{ACAD_REACTORS
330
73C
102
}
330
73C
100
AcDbXrecord
280
     1
 70
     4
 70
     0
 70
     0
 40
1.0
  2
DESCRIPTION
  1
Embedded Object
 10
34.09040614630361
 20
65.94981469493413
 30
0.0
 40
2.5
 41
50.87075514884978
 46
0.0
 71
     1
 72
     5
  1
PLASSON END CAP 225
  7
Note Text (ISO)
 73
     1
 44
1.0
  0
XRECORD
  5
73D
102
{ACAD_REACTORS
330
73C
102
}
330
73C
100
AcDbXrecord
280
     1
102
ACAD_MATT_HEIGHT
140
2.5
  0
XRECORD
  5
741
102
{ACAD_REACTORS
330
73F
102
}
330
73F
100
AcDbXrecord
280
     1
 70
     2
 70
     0
 70
     0
 40
1.0
  2
PART_NUMBER
  1
Embedded Object
 10
855.2230179901917
 20
95.68699284482418
 30
0.0
 40
2.5
 41
181.6575261045072
 46
0.0
 71
     1
 72
     5
  1
491204225
  7
Note Text (ISO)
 73
     1
 44
1.0
  0
XRECORD
  5
740
102
{ACAD_REACTORS
330
73F
102
}
330
73F
100
AcDbXrecord
280
     1
102
ACAD_MATT_HEIGHT
140
2.5
  0
XRECORD
  5
744
102
{ACAD_REACTORS
330
742
102
}
330
742
100
AcDbXrecord
280
     1
 70
     2
 70
     0
 70
     0
 40
1.0
  2
DESCRIPTION
  1
Embedded Object
 10
855.0904061463034
 20
85.94981469493413
 30
0.0
 40
2.5
 41
50.87075514884978
 46
0.0
 71
     1
 72
     5
  1
PLASSON END CAP 225
  7
Note Text (ISO)
 73
     1
 44
1.0
  0
XRECORD
  5
743
102
{ACAD_REACTORS
330
742
102
}
330
742
100
AcDbXrecord
280
     1
102
ACAD_MATT_HEIGHT
140
2.5
  0
ACDBDETAILVIEWSTYLE
  5
6B
102
{ACAD_XDICTIONARY
360
77A
102
}
102
{ACAD_REACTORS
330
6A
102
}
330
6A
100
AcDbModelDocViewStyle
 70
     0
  3
Imperial24
290
     0
100
AcDbDetailViewStyle
 70
     0
 71
     0
 90
        3
 71
     1
340
55
 62
   256
 40
0.24
340
0
 62
   256
 40
0.24
300

 40
0.36
280
     3
 71
     2
340
5D
 90
       25
 62
   256
 71
     3
340
55
 62
   256
 40
0.24
 90
        1
 40
0.75
 90
        1
300
%<\AcVar ViewType \f "%tc1">% %<\AcVar ViewDetailId>%\PSCALE %<\AcVar ViewScale \f "%sn">%
 71
     4
340
5D
 90
       25
 62
   256
340
5D
 90
       25
 62
   256
280
     0
  0
LAYOUT
  5
6F
102
{ACAD_REACTORS
330
62
102
}
330
62
100
AcDbPlotSettings
  1

  2

  4

  6

 40
0.0
 41
0.0
 42
0.0
 43
0.0
 44
0.0
 45
0.0
 46
0.0
 47
0.0
 48
0.0
 49
0.0
140
0.0
141
0.0
142
1.0
143
1.0
 70
   688
 72
     0
 73
     0
 74
     5
  7

 75
    16
147
1.0
 76
     0
 77
     2
 78
   300
148
0.0
149
0.0
100
AcDbLayout
  1
Layout1
 70
     1
 71
     1
 10
0.0
 20
0.0
 11
12.0
 21
9.0
 12
0.0
 22
0.0
 32
0.0
 14
0.0
 24
0.0
 34
0.0
 15
0.0
 25
0.0
 35
0.0
146
0.0
 13
0.0
 23
0.0
 33
0.0
 16
1.0
 26
0.0
 36
0.0
 17
0.0
 27
1.0
 37
0.0
 76
     0
330
6C
  0
LAYOUT
  5
77
102
{ACAD_REACTORS
330
62
102
}
330
62
100
AcDbPlotSettings
  1

  2

  4

  6

 40
0.0
 41
0.0
 42
0.0
 43
0.0
 44
0.0
 45
0.0
 46
0.0
 47
0.0
 48
0.0
 49
0.0
140
0.0
141
0.0
142
1.0
143
1.0
 70
   688
 72
     0
 73
     0
 74
     5
  7

 75
    16
147
1.0
 76
     0
 77
     2
 78
   300
148
0.0
149
0.0
100
AcDbLayout
  1
Layout2
 70
     1
 71
     2
 10
0.0
 20
0.0
 11
12.0
 21
9.0
 12
0.0
 22
0.0
 32
0.0
 14
0.0
 24
0.0
 34
0.0
 15
0.0
 25
0.0
 35
0.0
146
0.0
 13
0.0
 23
0.0
 33
0.0
 16
1.0
 26
0.0
 36
0.0
 17
0.0
 27
1.0
 37
0.0
 76
     0
330
74
  0
LAYOUT
  5
73
102
{ACAD_REACTORS
330
62
102
}
330
62
100
AcDbPlotSettings
  1

  2

  4

  6

 40
0.0
 41
0.0
 42
0.0
 43
0.0
 44
0.0
 45
0.0
 46
0.0
 47
0.0
 48
0.0
 49
0.0
140
0.0
141
0.0
142
1.0
143
1.0
 70
  1712
 72
     0
 73
     0
 74
     0
  7

 75
     0
147
1.0
 76
     0
 77
     2
 78
   300
148
0.0
149
0.0
100
AcDbLayout
  1
Model
 70
     1
 71
     0
 10
0.0
 20
0.0
 11
12.0
 21
9.0
 12
0.0
 22
0.0
 32
0.0
 14
0.0
 24
0.0
 34
0.0
 15
0.0
 25
0.0
 35
0.0
146
0.0
 13
0.0
 23
0.0
 33
0.0
 16
1.0
 26
0.0
 36
0.0
 17
0.0
 27
1.0
 37
0.0
 76
     0
330
70
  0
MATERIAL
  5
19
102
{ACAD_XDICTIONARY
360
1A
102
}
102
{ACAD_REACTORS
330
10
102
}
330
10
100
AcDbMaterial
  1
ByBlock
 72
     0
 43
0.0208333333333333
 43
0.0
 43
0.0
 43
0.0
 43
0.0
 43
0.0208333333333333
 43
0.0
 43
0.0
 43
0.0
 43
0.0
 43
1.0
 43
0.0
 43
0.0
 43
0.0
 43
0.0
 43
1.0
 77
     0
 47
0.0208333333333333
 47
0.0
 47
0.0
 47
0.0
 47
0.0
 47
0.0208333333333333
 47
0.0
 47
0.0
 47
0.0
 47
0.0
 47
1.0
 47
0.0
 47
0.0
 47
0.0
 47
0.0
 47
1.0
171
     0
 49
0.0208333333333333
 49
0.0
 49
0.0
 49
0.0
 49
0.0
 49
0.0208333333333333
 49
0.0
 49
0.0
 49
0.0
 49
0.0
 49
1.0
 49
0.0
 49
0.0
 49
0.0
 49
0.0
 49
1.0
175
     0
142
0.0208333333333333
142
0.0
142
0.0
142
0.0
142
0.0
142
0.0208333333333333
142
0.0
142
0.0
142
0.0
142
0.0
142
1.0
142
0.0
142
0.0
142
0.0
142
0.0
142
1.0
179
     0
144
0.0208333333333333
144
0.0
144
0.0
144
0.0
144
0.0
144
0.0208333333333333
144
0.0
144
0.0
144
0.0
144
0.0
144
1.0
144
0.0
144
0.0
144
0.0
144
0.0
144
1.0
147
0.0208333333333333
147
0.0
147
0.0
147
0.0
147
0.0
147
0.0208333333333333
147
0.0
147
0.0
147
0.0
147
0.0
147
1.0
147
0.0
147
0.0
147
0.0
147
0.0
147
1.0
  0
MATERIAL
  5
11
102
{ACAD_XDICTIONARY
360
12
102
}
102
{ACAD_REACTORS
330
10
102
}
330
10
100
AcDbMaterial
  1
ByLayer
 72
     0
 43
0.0208333333333333
 43
0.0
 43
0.0
 43
0.0
 43
0.0
 43
0.0208333333333333
 43
0.0
 43
0.0
 43
0.0
 43
0.0
 43
1.0
 43
0.0
 43
0.0
 43
0.0
 43
0.0
 43
1.0
 77
     0
 47
0.0208333333333333
 47
0.0
 47
0.0
 47
0.0
 47
0.0
 47
0.0208333333333333
 47
0.0
 47
0.0
 47
0.0
 47
0.0
 47
1.0
 47
0.0
 47
0.0
 47
0.0
 47
0.0
 47
1.0
171
     0
 49
0.0208333333333333
 49
0.0
 49
0.0
 49
0.0
 49
0.0
 49
0.0208333333333333
 49
0.0
 49
0.0
 49
0.0
 49
0.0
 49
1.0
 49
0.0
 49
0.0
 49
0.0
 49
0.0
 49
1.0
175
     0
142
0.0208333333333333
142
0.0
142
0.0
142
0.0
142
0.0
142
0.0208333333333333
142
0.0
142
0.0
142
0.0
142
0.0
142
1.0
142
0.0
142
0.0
142
0.0
142
0.0
142
1.0
179
     0
144
0.0208333333333333
144
0.0
144
0.0
144
0.0
144
0.0
144
0.0208333333333333
144
0.0
144
0.0
144
0.0
144
0.0
144
1.0
144
0.0
144
0.0
144
0.0
144
0.0
144
1.0
147
0.0208333333333333
147
0.0
147
0.0
147
0.0
147
0.0
147
0.0208333333333333
147
0.0
147
0.0
147
0.0
147
0.0
147
1.0
147
0.0
147
0.0
147
0.0
147
0.0
147
1.0
  0
MATERIAL
  5
21
102
{ACAD_XDICTIONARY
360
22
102
}
102
{ACAD_REACTORS
330
10
102
}
330
10
100
AcDbMaterial
  1
Global
 72
     0
 43
0.0208333333333333
 43
0.0
 43
0.0
 43
0.0
 43
0.0
 43
0.0208333333333333
 43
0.0
 43
0.0
 43
0.0
 43
0.0
 43
1.0
 43
0.0
 43
0.0
 43
0.0
 43
0.0
 43
1.0
 77
     0
 47
0.0208333333333333
 47
0.0
 47
0.0
 47
0.0
 47
0.0
 47
0.0208333333333333
 47
0.0
 47
0.0
 47
0.0
 47
0.0
 47
1.0
 47
0.0
 47
0.0
 47
0.0
 47
0.0
 47
1.0
171
     0
 49
0.0208333333333333
 49
0.0
 49
0.0
 49
0.0
 49
0.0
 49
0.0208333333333333
 49
0.0
 49
0.0
 49
0.0
 49
0.0
 49
1.0
 49
0.0
 49
0.0
 49
0.0
 49
0.0
 49
1.0
175
     0
142
0.0208333333333333
142
0.0
142
0.0
142
0.0
142
0.0
142
0.0208333333333333
142
0.0
142
0.0
142
0.0
142
0.0
142
1.0
142
0.0
142
0.0
142
0.0
142
0.0
142
1.0
179
     0
144
0.0208333333333333
144
0.0
144
0.0
144
0.0
144
0.0
144
0.0208333333333333
144
0.0
144
0.0
144
0.0
144
0.0
144
1.0
144
0.0
144
0.0
144
0.0
144
0.0
144
1.0
147
0.0208333333333333
147
0.0
147
0.0
147
0.0
147
0.0
147
0.0208333333333333
147
0.0
147
0.0
147
0.0
147
0.0
147
1.0
147
0.0
147
0.0
147
0.0
147
0.0
147
1.0
  0
MLEADERSTYLE
  5
67
102
{ACAD_XDICTIONARY
360
776
102
}
102
{ACAD_REACTORS
330
66
102
}
330
66
100
AcDbMLeaderStyle
179
     2
170
     2
171
     1
172
     0
 90
        2
 40
0.0
 41
0.0
173
     1
 91
-1056964608
340
5B
 92
       -2
290
     1
 42
0.09
291
     1
 43
0.36
  3
Standard
 44
0.18
300

342
55
174
     1
178
     6
175
     1
176
     0
 93
-1056964608
 45
0.18
292
     0
297
     0
 46
0.18
 94
-1056964608
 47
1.0
 49
1.0
140
1.0
293
     1
141
0.0
294
     1
177
     0
142
1.0
295
     0
296
     0
143
0.125
271
     0
272
     9
273
     9
  0
MLINESTYLE
  5
60
102
{ACAD_REACTORS
330
5F
102
}
330
5F
100
AcDbMlineStyle
  2
STANDARD
 70
     0
  3

 62
   256
 51
90.0
 52
90.0
 71
     2
 49
0.5
 62
   256
  6
BYLAYER
 49
-0.5
 62
   256
  6
BYLAYER
  0
ACDBPLACEHOLDER
  5
F
102
{ACAD_REACTORS
330
E
102
}
330
E
  0
SCALE
  5
43
102
{ACAD_REACTORS
330
42
102
}
330
42
100
AcDbScale
 70
     0
300
1:1
140
1.0
141
1.0
290
     1
  0
SCALE
  5
44
102
{ACAD_REACTORS
330
42
102
}
330
42
100
AcDbScale
 70
     0
300
1/128" = 1'-0"
140
0.0078125
141
12.0
290
     0
  0
SCALE
  5
45
102
{ACAD_REACTORS
330
42
102
}
330
42
100
AcDbScale
 70
     0
300
1/64" = 1'-0"
140
0.015625
141
12.0
290
     0
  0
SCALE
  5
46
102
{ACAD_REACTORS
330
42
102
}
330
42
100
AcDbScale
 70
     0
300
1/32" = 1'-0"
140
0.03125
141
12.0
290
     0
  0
SCALE
  5
47
102
{ACAD_REACTORS
330
42
102
}
330
42
100
AcDbScale
 70
     0
300
1/16" = 1'-0"
140
0.0625
141
12.0
290
     0
  0
SCALE
  5
48
102
{ACAD_REACTORS
330
42
102
}
330
42
100
AcDbScale
 70
     0
300
3/32" = 1'-0"
140
0.09375
141
12.0
290
     0
  0
SCALE
  5
49
102
{ACAD_REACTORS
330
42
102
}
330
42
100
AcDbScale
 70
     0
300
1/8" = 1'-0"
140
0.125
141
12.0
290
     0
  0
SCALE
  5
4A
102
{ACAD_REACTORS
330
42
102
}
330
42
100
AcDbScale
 70
     0
300
3/16" = 1'-0"
140
0.1875
141
12.0
290
     0
  0
SCALE
  5
4B
102
{ACAD_REACTORS
330
42
102
}
330
42
100
AcDbScale
 70
     0
300
1/4" = 1'-0"
140
0.25
141
12.0
290
     0
  0
SCALE
  5
4C
102
{ACAD_REACTORS
330
42
102
}
330
42
100
AcDbScale
 70
     0
300
3/8" = 1'-0"
140
0.375
141
12.0
290
     0
  0
SCALE
  5
4D
102
{ACAD_REACTORS
330
42
102
}
330
42
100
AcDbScale
 70
     0
300
1/2" = 1'-0"
140
0.5
141
12.0
290
     0
  0
SCALE
  5
4E
102
{ACAD_REACTORS
330
42
102
}
330
42
100
AcDbScale
 70
     0
300
3/4" = 1'-0"
140
0.75
141
12.0
290
     0
  0
SCALE
  5
4F
102
{ACAD_REACTORS
330
42
102
}
330
42
100
AcDbScale
 70
     0
300
1" = 1'-0"
140
1.0
141
12.0
290
     0
  0
SCALE
  5
50
102
{ACAD_REACTORS
330
42
102
}
330
42
100
AcDbScale
 70
     0
300
1-1/2" = 1'-0"
140
1.5
141
12.0
290
     0
  0
SCALE
  5
51
102
{ACAD_REACTORS
330
42
102
}
330
42
100
AcDbScale
 70
     0
300
3" = 1'-0"
140
3.0
141
12.0
290
     0
  0
SCALE
  5
52
102
{ACAD_REACTORS
330
42
102
}
330
42
100
AcDbScale
 70
     0
300
6" = 1'-0"
140
6.0
141
12.0
290
     0
  0
SCALE
  5
53
102
{ACAD_REACTORS
330
42
102
}
330
42
100
AcDbScale
 70
     0
300
1'-0" = 1'-0"
140
12.0
141
12.0
290
     0
  0
ACDBSECTIONVIEWSTYLE
  5
69
102
{ACAD_XDICTIONARY
360
778
102
}
102
{ACAD_REACTORS
330
68
102
}
330
68
100
AcDbModelDocViewStyle
 70
     0
  3
Imperial24
290
     0
100
AcDbSectionViewStyle
 70
     0
 71
     0
 90
       78
 71
     1
340
55
 62
   256
 40
0.24
340
0
340
0
 62
   256
 40
0.24
300
I, O, Q, S, X, Z
 40
0.48
 90
        3
 40
0.18
 90
        1
 71
     2
340
5D
 90
       25
 62
   256
340
5D
 90
       50
 62
   256
 40
0.24
 40
0.0
 40
0.24
 71
     3
340
55
 62
   256
 40
0.24
 90
        1
 40
0.75
 90
        1
300
%<\AcVar ViewType \f "%tc1">% %<\AcVar ViewSectionStartId>%-%<\AcVar ViewSectionEndId>%\PSCALE %<\AcVar ViewScale \f "%sn">%
 71
     4
 62
   256
 62
   257
300
ANSI31
 40
1.0
 90
        0
290
     0
290
     0
 90
        6
 40
0.0
 40
1.570796326794896
 40
0.2617993877991494
 40
1.308996938995747
 40
-0.2617993877991494
 40
1.832595714594046
  0
TABLESTYLE
  5
65
102
{ACAD_XDICTIONARY
360
737
102
}
102
{ACAD_REACTORS
330
64
102
}
330
64
100
AcDbTableStyle
280
     0
  3
Standard
 70
     0
 71
     0
 40
0.06
 41
0.06
280
     0
281
     0
  7
Standard
140
0.18
170
     2
 62
     0
 63
     7
283
     0
 90
      512
 91
        0
  1

274
    -2
284
     1
 64
     0
275
    -2
285
     1
 65
     0
276
    -2
286
     1
 66
     0
277
    -2
287
     1
 67
     0
278
    -2
288
     1
 68
     0
279
    -2
289
     1
 69
     0
  7
Standard
140
0.25
170
     5
 62
     0
 63
     7
283
     0
 90
      512
 91
        0
  1

274
    -2
284
     1
 64
     0
275
    -2
285
     1
 65
     0
276
    -2
286
     1
 66
     0
277
    -2
287
     1
 67
     0
278
    -2
288
     1
 68
     0
279
    -2
289
     1
 69
     0
  7
Standard
140
0.18
170
     5
 62
     0
 63
     7
283
     0
 90
      512
 91
        0
  1

274
    -2
284
     1
 64
     0
275
    -2
285
     1
 65
     0
276
    -2
286
     1
 66
     0
277
    -2
287
     1
 67
     0
278
    -2
288
     1
 68
     0
279
    -2
289
     1
 69
     0
  0
VISUALSTYLE
  5
2F
102
{ACAD_XDICTIONARY
360
750
102
}
102
{ACAD_REACTORS
330
29
102
}
330
29
100
AcDbVisualStyle
  2
2dWireframe
 70
     4
177
     2
291
     0
 71
     0
176
     1
 72
     2
176
     1
 73
     0
176
     1
 90
        0
176
     1
 40
0.6
176
     1
 41
30.0
176
     1
 63
     7
421
 16777215
176
     1
 74
     1
176
     1
 91
        4
176
     1
 64
     7
176
     1
 65
   257
176
     1
 75
     1
176
     1
175
     1
176
     1
 42
1.0
176
     1
 92
        0
176
     1
 66
   257
176
     1
 43
1.0
176
     1
 76
     1
176
     1
 77
     6
176
     1
 78
     2
176
     1
 67
     7
176
     1
 79
     5
176
     1
170
     0
176
     1
171
     0
176
     1
290
     0
176
     1
 93
        1
176
     1
 44
0.0
176
     1
173
     0
176
     1
1001
ACAD
1000
AcDbSavedByObjectVersion
1070
     0
  0
VISUALSTYLE
  5
2E
102
{ACAD_XDICTIONARY
360
74E
102
}
102
{ACAD_REACTORS
330
29
102
}
330
29
100
AcDbVisualStyle
  2
Basic
 70
     7
177
     2
291
     1
 71
     1
176
     1
 72
     0
176
     1
 73
     1
176
     1
 90
        0
176
     1
 40
0.6
176
     1
 41
30.0
176
     1
 63
     7
421
 16777215
176
     1
 74
     0
176
     1
 91
        4
176
     1
 64
     7
176
     1
 65
   257
176
     1
 75
     1
176
     1
175
     1
176
     1
 42
1.0
176
     1
 92
        8
176
     1
 66
     7
176
     1
 43
1.0
176
     1
 76
     1
176
     1
 77
     6
176
     1
 78
     2
176
     1
 67
     7
176
     1
 79
     5
176
     1
170
     0
176
     1
171
     0
176
     1
290
     0
176
     1
 93
        1
176
     1
 44
0.0
176
     1
173
     0
176
     1
1001
ACAD
1000
AcDbSavedByObjectVersion
1070
     0
  0
VISUALSTYLE
  5
35
102
{ACAD_XDICTIONARY
360
75C
102
}
102
{ACAD_REACTORS
330
29
102
}
330
29
100
AcDbVisualStyle
  2
Brighten
 70
    12
177
     2
291
     1
 71
     2
176
     1
 72
     2
176
     1
 73
     0
176
     1
 90
        0
176
     1
 40
0.6
176
     1
 41
30.0
176
     1
 63
     7
421
 16777215
176
     1
 74
     1
176
     1
 91
        4
176
     1
 64
     7
176
     1
 65
   257
176
     1
 75
     1
176
     1
175
     1
176
     1
 42
1.0
176
     1
 92
        8
176
     1
 66
     7
176
     1
 43
1.0
176
     1
 76
     1
176
     1
 77
     6
176
     1
 78
     2
176
     1
 67
     7
176
     1
 79
     5
176
     1
170
     0
176
     1
171
     0
176
     1
290
     0
176
     1
 93
        1
176
     1
 44
50.0
176
     1
173
     0
176
     1
1001
ACAD
1000
AcDbSavedByObjectVersion
1070
     0
  0
VISUALSTYLE
  5
39
102
{ACAD_XDICTIONARY
360
764
102
}
102
{ACAD_REACTORS
330
29
102
}
330
29
100
AcDbVisualStyle
  2
ColorChange
 70
    16
177
     2
291
     1
 71
     2
176
     1
 72
     2
176
     1
 73
     3
176
     1
 90
        0
176
     1
 40
0.6
176
     1
 41
30.0
176
     1
 63
     8
421
  8421504
176
     1
 74
     1
176
     1
 91
        4
176
     1
 64
     7
176
     1
 65
   257
176
     1
 75
     1
176
     1
175
     1
176
     1
 42
1.0
176
     1
 92
        8
176
     1
 66
     8
424
  8421504
176
     1
 43
1.0
176
     1
 76
     1
176
     1
 77
     6
176
     1
 78
     2
176
     1
 67
     7
176
     1
 79
     5
176
     1
170
     0
176
     1
171
     0
176
     1
290
     0
176
     1
 93
        1
176
     1
 44
0.0
176
     1
173
     0
176
     1
1001
ACAD
1000
AcDbSavedByObjectVersion
1070
     0
  0
VISUALSTYLE
  5
32
102
{ACAD_XDICTIONARY
360
756
102
}
102
{ACAD_REACTORS
330
29
102
}
330
29
100
AcDbVisualStyle
  2
Conceptual
 70
     9
177
     2
291
     0
 71
     3
176
     1
 72
     2
176
     1
 73
     0
176
     1
 90
        0
176
     1
 40
0.6
176
     1
 41
30.0
176
     1
 63
     7
421
 16777215
176
     1
 74
     2
176
     1
 91
        2
176
     1
 64
     7
176
     1
 65
   257
176
     1
 75
     1
176
     1
175
     1
176
     1
 42
179.0
176
     1
 92
        8
176
     1
 66
     7
176
     1
 43
1.0
176
     1
 76
     1
176
     1
 77
     6
176
     1
 78
     2
176
     1
 67
     7
176
     1
 79
     3
176
     1
170
     0
176
     1
171
     0
176
     1
290
     0
176
     1
 93
        1
176
     1
 44
0.0
176
     1
173
     0
176
     1
1001
ACAD
1000
AcDbSavedByObjectVersion
1070
     0
  0
VISUALSTYLE
  5
34
102
{ACAD_XDICTIONARY
360
75A
102
}
102
{ACAD_REACTORS
330
29
102
}
330
29
100
AcDbVisualStyle
  2
Dim
 70
    11
177
     2
291
     1
 71
     2
176
     1
 72
     2
176
     1
 73
     0
176
     1
 90
        0
176
     1
 40
0.6
176
     1
 41
30.0
176
     1
 63
     7
421
 16777215
176
     1
 74
     1
176
     1
 91
        4
176
     1
 64
     7
176
     1
 65
   257
176
     1
 75
     1
176
     1
175
     1
176
     1
 42
1.0
176
     1
 92
        8
176
     1
 66
     7
176
     1
 43
1.0
176
     1
 76
     1
176
     1
 77
     6
176
     1
 78
     2
176
     1
 67
     7
176
     1
 79
     5
176
     1
170
     0
176
     1
171
     0
176
     1
290
     0
176
     1
 93
        1
176
     1
 44
-50.0
176
     1
173
     0
176
     1
1001
ACAD
1000
AcDbSavedByObjectVersion
1070
     0
  0
VISUALSTYLE
  5
41
102
{ACAD_XDICTIONARY
360
774
102
}
102
{ACAD_REACTORS
330
29
102
}
330
29
100
AcDbVisualStyle
  2
EdgeColorOff
 70
    22
177
     2
291
     1
 71
     2
176
     0
 72
     2
176
     0
 73
     0
176
     0
 90
        0
176
     0
 40
0.6
176
     0
 41
30.0
176
     0
 63
     7
421
 16777215
176
     0
 74
     1
176
     0
 91
        4
176
     0
 64
     7
176
     0
 65
   257
176
     0
 75
     1
176
     0
175
     1
176
     0
 42
1.0
176
     0
 92
        8
176
     2
 66
     7
176
     0
 43
1.0
176
     0
 76
     1
176
     0
 77
     6
176
     0
 78
     2
176
     0
 67
     7
176
     0
 79
     5
176
     0
170
     0
176
     0
171
     0
176
     0
290
     0
176
     0
 93
        1
176
     0
 44
0.0
176
     0
173
     0
176
     0
1001
ACAD
1000
AcDbSavedByObjectVersion
1070
     0
  0
VISUALSTYLE
  5
38
102
{ACAD_XDICTIONARY
360
762
102
}
102
{ACAD_REACTORS
330
29
102
}
330
29
100
AcDbVisualStyle
  2
Facepattern
 70
    15
177
     2
291
     1
 71
     2
176
     1
 72
     2
176
     1
 73
     0
176
     1
 90
        0
176
     1
 40
0.6
176
     1
 41
30.0
176
     1
 63
     7
421
 16777215
176
     1
 74
     1
176
     1
 91
        4
176
     1
 64
     7
176
     1
 65
   257
176
     1
 75
     1
176
     1
175
     1
176
     1
 42
1.0
176
     1
 92
        8
176
     1
 66
     7
176
     1
 43
1.0
176
     1
 76
     1
176
     1
 77
     6
176
     1
 78
     2
176
     1
 67
     7
176
     1
 79
     5
176
     1
170
     0
176
     1
171
     0
176
     1
290
     0
176
     1
 93
        1
176
     1
 44
0.0
176
     1
173
     0
176
     1
1001
ACAD
1000
AcDbSavedByObjectVersion
1070
     0
  0
VISUALSTYLE
  5
2A
102
{ACAD_XDICTIONARY
360
746
102
}
102
{ACAD_REACTORS
330
29
102
}
330
29
100
AcDbVisualStyle
  2
Flat
 70
     0
177
     2
291
     1
 71
     2
176
     1
 72
     1
176
     1
 73
     1
176
     1
 90
        2
176
     1
 40
0.6
176
     1
 41
30.0
176
     1
 63
     7
421
 16777215
176
     1
 74
     0
176
     1
 91
        0
176
     1
 64
     7
176
     1
 65
   257
176
     1
 75
     1
176
     1
175
     1
176
     1
 42
1.0
176
     1
 92
        8
176
     1
 66
     7
176
     1
 43
1.0
176
     1
 76
     1
176
     1
 77
     6
176
     1
 78
     2
176
     1
 67
     7
176
     1
 79
     5
176
     1
170
     0
176
     1
171
     0
176
     1
290
     0
176
     1
 93
       13
176
     1
 44
0.0
176
     1
173
     0
176
     1
1001
ACAD
1000
AcDbSavedByObjectVersion
1070
     0
  0
VISUALSTYLE
  5
2B
102
{ACAD_XDICTIONARY
360
748
102
}
102
{ACAD_REACTORS
330
29
102
}
330
29
100
AcDbVisualStyle
  2
FlatWithEdges
 70
     1
177
     2
291
     1
 71
     2
176
     1
 72
     1
176
     1
 73
     1
176
     1
 90
        2
176
     1
 40
0.6
176
     1
 41
30.0
176
     1
 63
     7
421
 16777215
176
     1
 74
     1
176
     1
 91
        0
176
     1
 64
     7
176
     1
 65
   257
176
     1
 75
     1
176
     1
175
     1
176
     1
 42
1.0
176
     1
 92
        0
176
     1
 66
   257
176
     1
 43
1.0
176
     1
 76
     1
176
     1
 77
     6
176
     1
 78
     2
176
     1
 67
     7
176
     1
 79
     5
176
     1
170
     0
176
     1
171
     0
176
     1
290
     0
176
     1
 93
       13
176
     1
 44
0.0
176
     1
173
     0
176
     1
1001
ACAD
1000
AcDbSavedByObjectVersion
1070
     0
  0
VISUALSTYLE
  5
2C
102
{ACAD_XDICTIONARY
360
74A
102
}
102
{ACAD_REACTORS
330
29
102
}
330
29
100
AcDbVisualStyle
  2
Gouraud
 70
     2
177
     2
291
     1
 71
     2
176
     1
 72
     2
176
     1
 73
     1
176
     1
 90
        2
176
     1
 40
0.6
176
     1
 41
30.0
176
     1
 63
     7
421
 16777215
176
     1
 74
     0
176
     1
 91
        0
176
     1
 64
     7
176
     1
 65
   257
176
     1
 75
     1
176
     1
175
     1
176
     1
 42
1.0
176
     1
 92
        0
176
     1
 66
     7
176
     1
 43
1.0
176
     1
 76
     1
176
     1
 77
     6
176
     1
 78
     2
176
     1
 67
     7
176
     1
 79
     5
176
     1
170
     0
176
     1
171
     0
176
     1
290
     0
176
     1
 93
       13
176
     1
 44
0.0
176
     1
173
     0
176
     1
1001
ACAD
1000
AcDbSavedByObjectVersion
1070
     0
  0
VISUALSTYLE
  5
2D
102
{ACAD_XDICTIONARY
360
74C
102
}
102
{ACAD_REACTORS
330
29
102
}
330
29
100
AcDbVisualStyle
  2
GouraudWithEdges
 70
     3
177
     2
291
     1
 71
     2
176
     1
 72
     2
176
     1
 73
     1
176
     1
 90
        2
176
     1
 40
0.6
176
     1
 41
30.0
176
     1
 63
     7
421
 16777215
176
     1
 74
     1
176
     1
 91
        0
176
     1
 64
     7
176
     1
 65
   257
176
     1
 75
     1
176
     1
175
     1
176
     1
 42
1.0
176
     1
 92
        0
176
     1
 66
   257
176
     1
 43
1.0
176
     1
 76
     1
176
     1
 77
     6
176
     1
 78
     2
176
     1
 67
     7
176
     1
 79
     5
176
     1
170
     0
176
     1
171
     0
176
     1
290
     0
176
     1
 93
       13
176
     1
 44
0.0
176
     1
173
     0
176
     1
1001
ACAD
1000
AcDbSavedByObjectVersion
1070
     0
  0
VISUALSTYLE
  5
31
102
{ACAD_XDICTIONARY
360
754
102
}
102
{ACAD_REACTORS
330
29
102
}
330
29
100
AcDbVisualStyle
  2
Hidden
 70
     6
177
     2
291
     0
 71
     1
176
     1
 72
     2
176
     1
 73
     2
176
     1
 90
        0
176
     1
 40
0.6
176
     1
 41
30.0
176
     1
 63
     7
421
 16777215
176
     1
 74
     2
176
     1
 91
        2
176
     1
 64
     7
176
     1
 65
   257
176
     1
 75
     2
176
     1
175
     1
176
     1
 42
40.0
176
     1
 92
        0
176
     1
 66
   257
176
     1
 43
1.0
176
     1
 76
     1
176
     1
 77
     6
176
     1
 78
     2
176
     1
 67
     7
176
     1
 79
     3
176
     1
170
     0
176
     1
171
     0
176
     1
290
     0
176
     1
 93
        1
176
     1
 44
0.0
176
     1
173
     0
176
     1
1001
ACAD
1000
AcDbSavedByObjectVersion
1070
     0
  0
VISUALSTYLE
  5
3F
102
{ACAD_XDICTIONARY
360
770
102
}
102
{ACAD_REACTORS
330
29
102
}
330
29
100
AcDbVisualStyle
  2
JitterOff
 70
    20
177
     2
291
     1
 71
     2
176
     0
 72
     2
176
     0
 73
     0
176
     0
 90
        0
176
     0
 40
0.6
176
     0
 41
30.0
176
     0
 63
     7
421
 16777215
176
     0
 74
     1
176
     0
 91
        4
176
     0
 64
     7
176
     0
 65
   257
176
     0
 75
     1
176
     0
175
     1
176
     0
 42
1.0
176
     0
 92
       10
176
     2
 66
     7
176
     0
 43
1.0
176
     0
 76
     1
176
     0
 77
     6
176
     0
 78
     2
176
     0
 67
     7
176
     0
 79
     5
176
     0
170
     0
176
     0
171
     0
176
     0
290
     0
176
     0
 93
        1
176
     0
 44
0.0
176
     0
173
     0
176
     0
1001
ACAD
1000
AcDbSavedByObjectVersion
1070
     0
  0
VISUALSTYLE
  5
37
102
{ACAD_XDICTIONARY
360
760
102
}
102
{ACAD_REACTORS
330
29
102
}
330
29
100
AcDbVisualStyle
  2
Linepattern
 70
    14
177
     2
291
     1
 71
     2
176
     1
 72
     2
176
     1
 73
     0
176
     1
 90
        0
176
     1
 40
0.6
176
     1
 41
30.0
176
     1
 63
     7
421
 16777215
176
     1
 74
     1
176
     1
 91
        4
176
     1
 64
     7
176
     1
 65
   257
176
     1
 75
     7
176
     1
175
     7
176
     1
 42
1.0
176
     1
 92
        8
176
     1
 66
     7
176
     1
 43
1.0
176
     1
 76
     1
176
     1
 77
     6
176
     1
 78
     2
176
     1
 67
     7
176
     1
 79
     5
176
     1
170
     0
176
     1
171
     0
176
     1
290
     0
176
     1
 93
        1
176
     1
 44
0.0
176
     1
173
     0
176
     1
1001
ACAD
1000
AcDbSavedByObjectVersion
1070
     0
  0
VISUALSTYLE
  5
40
102
{ACAD_XDICTIONARY
360
772
102
}
102
{ACAD_REACTORS
330
29
102
}
330
29
100
AcDbVisualStyle
  2
OverhangOff
 70
    21
177
     2
291
     1
 71
     2
176
     0
 72
     2
176
     0
 73
     0
176
     0
 90
        0
176
     0
 40
0.6
176
     0
 41
30.0
176
     0
 63
     7
421
 16777215
176
     0
 74
     1
176
     0
 91
        4
176
     0
 64
     7
176
     0
 65
   257
176
     0
 75
     1
176
     0
175
     1
176
     0
 42
1.0
176
     0
 92
        9
176
     2
 66
     7
176
     0
 43
1.0
176
     0
 76
     1
176
     0
 77
     6
176
     0
 78
     2
176
     0
 67
     7
176
     0
 79
     5
176
     0
170
     0
176
     0
171
     0
176
     0
290
     0
176
     0
 93
        1
176
     0
 44
0.0
176
     0
173
     0
176
     0
1001
ACAD
1000
AcDbSavedByObjectVersion
1070
     0
  0
VISUALSTYLE
  5
33
102
{ACAD_XDICTIONARY
360
758
102
}
102
{ACAD_REACTORS
330
29
102
}
330
29
100
AcDbVisualStyle
  2
Realistic
 70
     8
177
     2
291
     0
 71
     2
176
     1
 72
     3
176
     1
 73
     0
176
     1
 90
        2
176
     1
 40
0.6
176
     1
 41
30.0
176
     1
 63
     7
421
 16777215
176
     1
 74
     0
176
     1
 91
        0
176
     1
 64
     7
176
     1
 65
   257
176
     1
 75
     1
176
     1
175
     1
176
     1
 42
1.0
176
     1
 92
        8
176
     1
 66
   257
176
     1
 43
1.0
176
     1
 76
     1
176
     1
 77
     6
176
     1
 78
     2
176
     1
 67
     7
176
     1
 79
     3
176
     1
170
     0
176
     1
171
     0
176
     1
290
     0
176
     1
 93
       13
176
     1
 44
0.0
176
     1
173
     0
176
     1
1001
ACAD
1000
AcDbSavedByObjectVersion
1070
     0
  0
VISUALSTYLE
  5
3E
102
{ACAD_XDICTIONARY
360
76E
102
}
102
{ACAD_REACTORS
330
29
102
}
330
29
100
AcDbVisualStyle
  2
Shaded
 70
    27
177
     2
291
     0
 71
     2
176
     1
 72
     2
176
     1
 73
     1
176
     1
 90
        2
176
     1
 40
0.6
176
     1
 41
30.0
176
     1
 63
     7
421
 16777215
176
     1
 74
     0
176
     1
 91
        4
176
     1
 64
     7
176
     1
 65
   257
176
     1
 75
     1
176
     1
175
     1
176
     1
 42
1.0
176
     1
 92
        8
176
     1
 66
   257
176
     1
 43
1.0
176
     1
 76
     1
176
     1
 77
     6
176
     1
 78
     2
176
     1
 67
     8
425
  7895160
176
     1
 79
     3
176
     1
170
     0
176
     1
171
     0
176
     1
290
     0
176
     1
 93
        5
176
     1
 44
0.0
176
     1
173
     0
176
     1
1001
ACAD
1000
AcDbSavedByObjectVersion
1070
     0
  0
VISUALSTYLE
  5
3D
102
{ACAD_XDICTIONARY
360
76C
102
}
102
{ACAD_REACTORS
330
29
102
}
330
29
100
AcDbVisualStyle
  2
Shaded with edges
 70
    26
177
     2
291
     0
 71
     2
176
     1
 72
     2
176
     1
 73
     1
176
     1
 90
        2
176
     1
 40
0.6
176
     1
 41
30.0
176
     1
 63
     7
421
 16777215
176
     1
 74
     1
176
     1
 91
       10
176
     1
 64
     7
176
     1
 65
   257
176
     1
 75
     2
176
     1
175
     1
176
     1
 42
1.0
176
     1
 92
        8
176
     1
 66
   257
176
     1
 43
1.0
176
     1
 76
     1
176
     1
 77
     6
176
     1
 78
     2
176
     1
 67
     7
176
     1
 79
     3
176
     1
170
     0
176
     1
171
     0
176
     1
290
     0
176
     1
 93
        5
176
     1
 44
0.0
176
     1
173
     0
176
     1
1001
ACAD
1000
AcDbSavedByObjectVersion
1070
     0
  0
VISUALSTYLE
  5
3A
102
{ACAD_XDICTIONARY
360
766
102
}
102
{ACAD_REACTORS
330
29
102
}
330
29
100
AcDbVisualStyle
  2
Shades of Gray
 70
    23
177
     2
291
     0
 71
     2
176
     1
 72
     2
176
     1
 73
     3
176
     1
 90
        0
176
     1
 40
0.6
176
     1
 41
30.0
176
     1
 63
     7
421
 16777215
176
     1
 74
     2
176
     1
 91
        2
176
     1
 64
     7
176
     1
 65
     7
176
     1
 75
     1
176
     1
175
     1
176
     1
 42
40.0
176
     1
 92
        8
176
     1
 66
     7
176
     1
 43
1.0
176
     1
 76
     1
176
     1
 77
     6
176
     1
 78
     2
176
     1
 67
     7
176
     1
 79
     3
176
     1
170
     0
176
     1
171
     0
176
     1
290
     0
176
     1
 93
        1
176
     1
 44
0.0
176
     1
173
     0
176
     1
1001
ACAD
1000
AcDbSavedByObjectVersion
1070
     0
  0
VISUALSTYLE
  5
3B
102
{ACAD_XDICTIONARY
360
768
102
}
102
{ACAD_REACTORS
330
29
102
}
330
29
100
AcDbVisualStyle
  2
Sketchy
 70
    24
177
     2
291
     0
 71
     1
176
     1
 72
     2
176
     1
 73
     2
176
     1
 90
        0
176
     1
 40
0.6
176
     1
 41
30.0
176
     1
 63
     7
421
 16777215
176
     1
 74
     2
176
     1
 91
        2
176
     1
 64
     7
176
     1
 65
     7
176
     1
 75
     1
176
     1
175
     1
176
     1
 42
40.0
176
     1
 92
       11
176
     1
 66
     7
176
     1
 43
1.0
176
     1
 76
     1
176
     1
 77
     6
176
     1
 78
     2
176
     1
 67
     7
176
     1
 79
     6
176
     1
170
     0
176
     1
171
     0
176
     1
290
     0
176
     1
 93
        1
176
     1
 44
0.0
176
     1
173
     0
176
     1
1001
ACAD
1000
AcDbSavedByObjectVersion
1070
     0
  0
VISUALSTYLE
  5
36
102
{ACAD_XDICTIONARY
360
75E
102
}
102
{ACAD_REACTORS
330
29
102
}
330
29
100
AcDbVisualStyle
  2
Thicken
 70
    13
177
     2
291
     1
 71
     2
176
     1
 72
     2
176
     1
 73
     0
176
     1
 90
        0
176
     1
 40
0.6
176
     1
 41
30.0
176
     1
 63
     7
421
 16777215
176
     1
 74
     1
176
     1
 91
        4
176
     1
 64
     7
176
     1
 65
   257
176
     1
 75
     1
176
     1
175
     1
176
     1
 42
1.0
176
     1
 92
       12
176
     1
 66
     7
176
     1
 43
1.0
176
     1
 76
     1
176
     1
 77
     6
176
     1
 78
     2
176
     1
 67
     7
176
     1
 79
     5
176
     1
170
     0
176
     1
171
     0
176
     1
290
     0
176
     1
 93
        1
176
     1
 44
0.0
176
     1
173
     0
176
     1
1001
ACAD
1000
AcDbSavedByObjectVersion
1070
     0
  0
VISUALSTYLE
  5
30
102
{ACAD_XDICTIONARY
360
752
102
}
102
{ACAD_REACTORS
330
29
102
}
330
29
100
AcDbVisualStyle
  2
Wireframe
 70
     5
177
     2
291
     0
 71
     0
176
     1
 72
     2
176
     1
 73
     0
176
     1
 90
        0
176
     1
 40
0.6
176
     1
 41
30.0
176
     1
 63
     7
421
 16777215
176
     1
 74
     1
176
     1
 91
        4
176
     1
 64
     7
176
     1
 65
   257
176
     1
 75
     1
176
     1
175
     1
176
     1
 42
1.0
176
     1
 92
        0
176
     1
 66
   257
176
     1
 43
1.0
176
     1
 76
     1
176
     1
 77
     6
176
     1
 78
     2
176
     1
 67
     7
176
     1
 79
     3
176
     1
170
     0
176
     1
171
     0
176
     1
290
     0
176
     1
 93
        1
176
     1
 44
0.0
176
     1
173
     0
176
     1
1001
ACAD
1000
AcDbSavedByObjectVersion
1070
     0
  0
VISUALSTYLE
  5
3C
102
{ACAD_XDICTIONARY
360
76A
102
}
102
{ACAD_REACTORS
330
29
102
}
330
29
100
AcDbVisualStyle
  2
X-Ray
 70
    25
177
     2
291
     0
 71
     2
176
     1
 72
     2
176
     1
 73
     1
176
     1
 90
        1
176
     1
 40
0.5
176
     1
 41
30.0
176
     1
 63
     7
421
 16777215
176
     1
 74
     1
176
     1
 91
        0
176
     1
 64
     7
176
     1
 65
   257
176
     1
 75
     1
176
     1
175
     1
176
     1
 42
1.0
176
     1
 92
        8
176
     1
 66
     7
176
     1
 43
1.0
176
     1
 76
     1
176
     1
 77
     6
176
     1
 78
     2
176
     1
 67
     7
176
     1
 79
     3
176
     1
170
     0
176
     1
171
     0
176
     1
290
     0
176
     1
 93
       13
176
     1
 44
0.0
176
     1
173
     0
176
     1
1001
ACAD
1000
AcDbSavedByObjectVersion
1070
     0
  0
DICTIONARYVAR
  5
736
102
{ACAD_REACTORS
330
731
102
}
330
731
100
DictionaryVariables
280
     0
  1
1:1
  0
DICTIONARYVAR
  5
733
102
{ACAD_REACTORS
330
731
102
}
330
731
100
DictionaryVariables
280
     0
  1
STANDARD
  0
DICTIONARYVAR
  5
732
102
{ACAD_REACTORS
330
731
102
}
330
731
100
DictionaryVariables
280
     0
  1
STANDARD
  0
DICTIONARYVAR
  5
734
102
{ACAD_REACTORS
330
731
102
}
330
731
100
DictionaryVariables
280
     0
  1
Imperial24
  0
DICTIONARYVAR
  5
735
102
{ACAD_REACTORS
330
731
102
}
330
731
100
DictionaryVariables
280
     0
  1
Imperial24
  0
DICTIONARY
  5
77A
330
6B
100
AcDbDictionary
280
     1
281
     1
  3
ACAD_XREC_ROUNDTRIP
360
77B
  0
DICTIONARY
  5
1A
330
19
100
AcDbDictionary
280
     1
281
     1
  3
BUMPTILE
360
1C
  3
DIFFUSETILE
360
1B
  3
OPACITYTILE
360
1F
  3
REFLECTIONTILE
360
1E
  3
REFRACTIONTILE
360
20
  3
SPECULARTILE
360
1D
  0
DICTIONARY
  5
12
330
11
100
AcDbDictionary
280
     1
281
     1
  3
BUMPTILE
360
14
  3
DIFFUSETILE
360
13
  3
FBXASSET
360
EA
  3
OPACITYTILE
360
17
  3
REFLECTIONTILE
360
16
  3
REFRACTIONTILE
360
18
  3
SPECULARTILE
360
15
  0
DICTIONARY
  5
22
330
21
100
AcDbDictionary
280
     1
281
     1
  3
BUMPTILE
360
24
  3
DIFFUSETILE
360
23
  3
OPACITYTILE
360
27
  3
REFLECTIONTILE
360
26
  3
REFRACTIONTILE
360
28
  3
SPECULARTILE
360
25
  0
DICTIONARY
  5
776
330
67
100
AcDbDictionary
280
     1
281
     1
  3
ACAD_XREC_ROUNDTRIP
360
777
  0
DICTIONARY
  5
778
330
69
100
AcDbDictionary
280
     1
281
     1
  3
ACAD_XREC_ROUNDTRIP
360
779
  0
DICTIONARY
  5
737
330
65
100
AcDbDictionary
280
     1
281
     1
  3
ACAD_ROUNDTRIP_2008_TABLESTYLE_CELLSTYLEMAP
360
738
  0
DICTIONARY
  5
750
330
2F
100
AcDbDictionary
280
     1
281
     1
  3
ACAD_XREC_ROUNDTRIP
360
751
  0
DICTIONARY
  5
74E
330
2E
100
AcDbDictionary
280
     1
281
     1
  3
ACAD_XREC_ROUNDTRIP
360
74F
  0
DICTIONARY
  5
75C
330
35
100
AcDbDictionary
280
     1
281
     1
  3
ACAD_XREC_ROUNDTRIP
360
75D
  0
DICTIONARY
  5
764
330
39
100
AcDbDictionary
280
     1
281
     1
  3
ACAD_XREC_ROUNDTRIP
360
765
  0
DICTIONARY
  5
756
330
32
100
AcDbDictionary
280
     1
281
     1
  3
ACAD_XREC_ROUNDTRIP
360
757
  0
DICTIONARY
  5
75A
330
34
100
AcDbDictionary
280
     1
281
     1
  3
ACAD_XREC_ROUNDTRIP
360
75B
  0
DICTIONARY
  5
774
330
41
100
AcDbDictionary
280
     1
281
     1
  3
ACAD_XREC_ROUNDTRIP
360
775
  0
DICTIONARY
  5
762
330
38
100
AcDbDictionary
280
     1
281
     1
  3
ACAD_XREC_ROUNDTRIP
360
763
  0
DICTIONARY
  5
746
330
2A
100
AcDbDictionary
280
     1
281
     1
  3
ACAD_XREC_ROUNDTRIP
360
747
  0
DICTIONARY
  5
748
330
2B
100
AcDbDictionary
280
     1
281
     1
  3
ACAD_XREC_ROUNDTRIP
360
749
  0
DICTIONARY
  5
74A
330
2C
100
AcDbDictionary
280
     1
281
     1
  3
ACAD_XREC_ROUNDTRIP
360
74B
  0
DICTIONARY
  5
74C
330
2D
100
AcDbDictionary
280
     1
281
     1
  3
ACAD_XREC_ROUNDTRIP
360
74D
  0
DICTIONARY
  5
754
330
31
100
AcDbDictionary
280
     1
281
     1
  3
ACAD_XREC_ROUNDTRIP
360
755
  0
DICTIONARY
  5
770
330
3F
100
AcDbDictionary
280
     1
281
     1
  3
ACAD_XREC_ROUNDTRIP
360
771
  0
DICTIONARY
  5
760
330
37
100
AcDbDictionary
280
     1
281
     1
  3
ACAD_XREC_ROUNDTRIP
360
761
  0
DICTIONARY
  5
772
330
40
100
AcDbDictionary
280
     1
281
     1
  3
ACAD_XREC_ROUNDTRIP
360
773
  0
DICTIONARY
  5
758
330
33
100
AcDbDictionary
280
     1
281
     1
  3
ACAD_XREC_ROUNDTRIP
360
759
  0
DICTIONARY
  5
76E
330
3E
100
AcDbDictionary
280
     1
281
     1
  3
ACAD_XREC_ROUNDTRIP
360
76F
  0
DICTIONARY
  5
76C
330
3D
100
AcDbDictionary
280
     1
281
     1
  3
ACAD_XREC_ROUNDTRIP
360
76D
  0
DICTIONARY
  5
766
330
3A
100
AcDbDictionary
280
     1
281
     1
  3
ACAD_XREC_ROUNDTRIP
360
767
  0
DICTIONARY
  5
768
330
3B
100
AcDbDictionary
280
     1
281
     1
  3
ACAD_XREC_ROUNDTRIP
360
769
  0
DICTIONARY
  5
75E
330
36
100
AcDbDictionary
280
     1
281
     1
  3
ACAD_XREC_ROUNDTRIP
360
75F
  0
DICTIONARY
  5
752
330
30
100
AcDbDictionary
280
     1
281
     1
  3
ACAD_XREC_ROUNDTRIP
360
753
  0
DICTIONARY
  5
76A
330
3C
100
AcDbDictionary
280
     1
281
     1
  3
ACAD_XREC_ROUNDTRIP
360
76B
  0
XRECORD
  5
77B
102
{ACAD_REACTORS
330
77A
102
}
330
77A
100
AcDbXrecord
280
     1
102
DISPLAYNAME
  1
Imperial24
102
FLAGS
 90
        0
  0
XRECORD
  5
1C
102
{ACAD_REACTORS
330
1A
102
}
330
1A
100
AcDbXrecord
280
     1
270
     1
271
     1
  0
XRECORD
  5
1B
102
{ACAD_REACTORS
330
1A
102
}
330
1A
100
AcDbXrecord
280
     1
270
     1
271
     1
  0
XRECORD
  5
1F
102
{ACAD_REACTORS
330
1A
102
}
330
1A
100
AcDbXrecord
280
     1
270
     1
271
     1
  0
XRECORD
  5
1E
102
{ACAD_REACTORS
330
1A
102
}
330
1A
100
AcDbXrecord
280
     1
270
     1
271
     1
  0
XRECORD
  5
20
102
{ACAD_REACTORS
330
1A
102
}
330
1A
100
AcDbXrecord
280
     1
270
     1
271
     1
  0
XRECORD
  5
1D
102
{ACAD_REACTORS
330
1A
102
}
330
1A
100
AcDbXrecord
280
     1
270
     1
271
     1
  0
XRECORD
  5
14
102
{ACAD_REACTORS
330
12
102
}
330
12
100
AcDbXrecord
280
     1
270
     1
271
     1
  0
XRECORD
  5
13
102
{ACAD_REACTORS
330
12
102
}
330
12
100
AcDbXrecord
280
     1
270
     1
271
     1
  0
XRECORD
  5
EA
102
{ACAD_REACTORS
330
12
102
}
330
12
100
AcDbXrecord
280
     1
 70
     1
 90
1959938040
 71
     1
  1
2ED629E6-9834-47A7-8070-6065F11F437E
311
504B030414000608080067721B4B2E6A4FAFDB000000200100004F00000033463445303634372D323646382D343043462D383436362D4132444437314139344344452F4173736574446174612F446566696E6974696F6E4974657261746F7250726F706572746965732E62696E454E3D4FC33010352C8881817FD03F60EC24
311
AE9D20100AB5CD4297B2B120373DDA484E5AC58EA01B23FF1ACE6A1027BDBB77DFEF9B10F23319527286F8427F85F1097A18DAE6A5D941E7C805561E8FCFEE0843A253F31C694A35BCBBD1C7B4B66C4303DEBB1EF663B8FE1F9D752EE23DE76FD2D225E2AF10D285EDE95B12F071D2F48994B8CDE1F6C18500F19E1556182E
311
85A2B9B425157C616929A4A475AEB5CAEA4A2CB4612B08FB716820B0DC68995746D2AA2C0415AA56B4E48A53C9E5DC66991585322CEEC66EDDBBD633CE26096F877E2B5EEF586C3BF805504B030414000608080067721B4B673B60E3EC000000300200004500000033463445303634372D323646382D343043462D38343636
311
2D4132444437314139344344452F4173736574446174612F496E7374616E636550726F706572746965732E62696EEB606060F80F0540260323103700495E20ED9E9A975A94991C9C9C919A9BA802143072753133B27435D3B5B43036D135317734D7B5303037D0353330337533347433313677654768046931363471713532
311
B5D435353131D635313332D475727372D13534373670367376B67474B5042A03DBCBA019D37FE8ABC6157B20CD04146B0062181F4C03F940F0C11EA29A8141C08141002C0426541C106CAC2CA046088033B02A030AC2157C6006F21A8018AAF50194E6010A610250382264E08660284CD9E98021862280A91564B406929A0F
311
F62C401E28B6F88038B83CB1243943D7A928312F25350524432B0000504B030414000608080067721B4B88E57597CD3F0000904100006B00000033463445303634372D323646382D343043462D383436362D4132444437314139344344452F5265736F75726365732F32454436323945362D393833342D343741372D383037
311
302D3630363546313146343337452F7468756D626E61696C2F302F67656E657269635F706E67355B773CD4FF1FBF73E71C0E67EF7576C9DEF3EC995D46C6A1EC5046649CBDF79E192942562825CE965D8A868C2842C8DE9FDFD1F7E7F138F7078FCF6B3F5FCFD7EBFDFEC41B196891913091804020321D6D7513FC77D8C507
311
0EC3FFEE51B21F068154CC75D455CC028A3EA68992803810109FDDE5D5CEC5521B28A1B422BF80741695D5B529DA1C2D058AD2388BDA9F476F7C2CADC939304173DBF48A452BF8A700C0C70C3D121C1AA15A5270C22E2B9E28763651F7DA0D12CE11077B2ECD0D560B5E3DE2368B1E65C5E1C87384A4CC5F2D9FB8BE39E9B7
311
7C753783A37998F5CEF1B4FEE553463245C9712270880DF339E0B882A6BA713D865F6F384C842D440934EF264F4A304F8DE4EEFA1E2BF5E2D91F5ADD9613D6E31DDB33ED31DB1D7916CAF091286EA3D31B9CFECB78BB0060245B943C4C040119FF780A74DD308BA9D028678674EB5504ECF284EE814DAED07440BAF649BE4B
311
55DA2890F4D73E2D489A59EE54FDB0A85B59F2F52C4858A02705C4815A792B0C4A996A2023ECB195073E115E3E3647F64243A8338F2000BCB58DA5692C7E7C3D413F963FEDF3CF00FBB0F831A9D51360FECA43819F527B89FA260EB63C5DA676830AA3626A3693B23F1A17A0DFFCE3EE164E31B5365EDF0C89EF64D8E38AB0
311
BA9A1117D7C3A0EC44F44F4023095E80BA610DE336D0F99593A88BFC5306E72DF98F7FD132ED95878DF2964EA7E43071359FD83B2BDF9C6B5BDF768F0F3C0FC351199526F53D9460A34511F75D1B63E488178569472C91A94497807A3FD4A390C6558F26D416365C3656DE6E769DA9D8FC73774E1709812842DD8EF96AED19
311
60F79D21B395CDDFE6F92CB4EB962A4668C76990E2EF29798C8941D67DA50F4A5F947872460F1F6FDB794E8A29FD7AC0C0D6E0714339CE258FB17AE8535221E3464A10F29A0BE5EEECEFC5675926A89F49EB14E5711894F6586DB5754EB4D5DA9C6437EBA57DB97A24F8B8A8DB295FFD73266CF57E82694DF5166DDF93573A
311
FE9C9C5EB05F8FEF8E89E0A8917B0B3724DB7BEBB53252581EFC3E38166BA131A3A5B42FE2AD00A769BBFA4458D2DE7822F8C4F63D0B8E21B285AE13325F3410A435C648C9D91FDEB109E73CEDA7BC796961AF79175E1A3CE4C5E8B0D009B0C9E29EFD98BC8E97554E3D8D838424E270F7685226E5AC268E021EDE3522D583
311
E8F20C0BDE2959EF5BBFEEDAB32FE9A3ED0E39F211A86AA9DEBFC68182EDED132AB8BB794442D2D7EA9F4D8BFF52BC4D55BB165124EE90A42D101E67BBBB292FFB4F66DE5BF2300E44546757DA7CEF8932BFC9F92A0707953491A55C5A5ACEDABD9FA1AEA01BAC3DC5A24E22E7C47213493996EFBC369D086ED9397C9BA6C7
311
F9855C7BD5E15BFC8C53DB3D2A4C5901A57ACD2FBDF4D1676E95338B2C2BCE65FDA4C64F5FEFDC7D9CA5AA1FCF11E193F2FDABF0F4916BF13FB916A224380E6462A9815F2300DC49CC4DF8D055CEF76462F4B7A7ACA7365C2707891370BC1D0AA6203C44CCAB47084FEC057F27FFCD57F89B8B9852459798A675C66BD7CE57
311
2CAF71FF7E6D7ECF7BF62CAB7B3F1107DCD04DC55A3F9961700286141C94A4F771FEB2BCDA2DDEE0CB0BAE402FF1DB0100F8E475DFFFC074DDB4498AB7D186A7654DDB1CB680D703D47CEB4E72F8CB13D86A4AA68116E26387B93FD6738779B34FEDB8E517EDF2BAF28D9BE93A1D3A164320E07D42E514725C29515FF36175
311
4213EDE06B079A2E99EB1CA82A02019EADEEB87B9AF005BD04BBCECB14AACD6B24EFBE482194A97DD32400685FF1FEF1544D1B14EFB1E7F08E6D2CD2AF52DE757F35F5E62332EE88EA26417AD5C3E0E319D68F25414E6D672BD4522B278C57D18F0113921C71D96527E091F00CEB15AE23D24667369BD3CEFA10C7549D9308
311
90BA4366F4EBC55F01F746109F98ABCDD5A3EE06619C6AD78AB33E48E4C9BD21BF7478B385EC05C4F8987E2C1BFA0A60EBEDAA0AE0B015C2720ECE180FB6F2DEFBEB822D96338C9B63822183BBF52FB664A7AE57003AABCE512BF77E7E31BDA2E739AC4C131657DDFE5225E900FB56CC01CDE808FA4A9C9DA16AC679656BB6
311
4796283D89812B8F91136AE18EE5EBBAF47A73BE3C153EB5D4CD491B4BFB4FE690A4CF9ABA08C0D8AA64220C438C96EA6CA80B58FE5761E697B3A292EB9FBDA502FA863E49FE694ADDFFF9D62C520BDD1A22014147A0903A05B9B729F54272EF83931FEEC057BFF8C8055C279EAC5C0011804828734024F6CFA319C9CC6867
311
C727184465CD9BB7ED386AFFD96B294A85E3802FAE47244602D8273615952B98C4F23F7EAE4463D9D638EEE374A20959E0FE519C4CFB0FBFE5DD80C2AA3F9DB961D1BDE57E67C9BB47B77FDD74EE3094F5DBBE3EBC1FBDB7393F5116263009E2EFE1AF9A221B2AE234C902BF70E9F280ED23E73908361565964333A3F01D0B
311
006AF32FB21AA1316744B489D5A198E85299241735BE559675130955C902A8ED761FC0DBE337A9F91919AF5CE32AF902ADF9AB2615E00E8A94586BA1A90839B61832FF1BFB76D2EFADE6DB1BA04CCAD3DA649E7E2A0219F592E22F2AD54847EEA8E42271011E9074F8F3DD9FBA6CDF88FFC9FC7E811AD1CA8F4557CE4AFC7B
311
BEDCF0114A48689F20A584520C74DA8127124B767E2FB91A6B186246727BE63C9445BAE02088D58B8EFDC0F1072407CD9B89A13F6303B4A928F593AD489B58E6869325790ADC406036C591729FE14021F94B7796BB11848D463536A092A26F077F94639F7CEEE2A724C66EC885F4A24F8B8A0AC321F8FD149BA529460FAA34
311
E4663C02D41FDF80BCA222D42F0ABFF8490F4FA74C673807C2051D8E467B47B616072860069A9A303ABA9B319D58404461401B0A0F9BE5E1E151C14BC33B32ABE03DDE91708DFAEB15E7C0D593C86BB7D7EC17BE56E57975F077BFD5525F3A1A361D584A75E08CF29FC7B44B2B3085014F3A5A14517377C3F6B8F37E59514C
311
3B12F8AACDEDDA4DFC49BE5710101534CD6FB6DE15B50F11A09472AABA727F0C49D9CB906B158030065F48EB3625E010CEC1D511D0053474B11E6A4F01C0D6EF1BED3A944FDEC70E0DDCDC756C86545910E0DAE3BE3AA9A404574C2995CD5CAF9549226BC94B4F4F0F5F9086F418F6B32346464610D8BC7391D3C3A3CCF04C
311
FC1FB2A3A3170E369511868F14EEA4E5E438CC73DB1F3248AA94B6B2FF33B222FF3D1E7BF146CAD229770158063BCE4F5391964DF62F7E52A7BE0EEA829C9E13C4C147D6F93FE59E111DAB5E4594D6F3CD1AD375EE039930EFE5AF2BB2D41C83C7DABD8C659BAFBE8FAB392CA634F3D15C1D945DB4588D2B0824A4EC928AAC
311
565557CA2F0DAA588CA5BE30B3A8004F7BF005E96CBF891D7F18112A3619FDF530DC8AA64954258E1811789B5189B49B4EB53F5F89F7D37523894F3EB57B373763C91E502F52CC99EB7BDDF933FC324C4FFC2561DFFA7339FAFDD0A4BFBE6D3A8FF9ED1FC49898139864602458968913181918F719CCF5A68B2EE9C1FF050E
311
34E63107003B8120FA982C21B30A874E4F5E4B38D5A8290C4B8D9BE48A0BE31EA995BDC37AC6DE90BA17D259DEF53605D55922FEB1855D915B659FBEB350EE0DFB2F9F766E1C84CC8964B75D08667445EAB966015F63A18A9E0A325C1B3DC628C0D3CB60F767FA93CC65F25458BD23C3B312716E5F40E5858AC06EBA9AB14F
311
95DB99147B832069201541D09A0D856E12C629CF32683760EE855537D1901988D5EBC156676C7DD51D7207CF3267AF1D76C2AD867315E44618015313A98B19941C696FED3461CAA9B5415F918556D7802EDACEFD6B2E45853A9735DFC9DBF7E440F9319F8B6805A973BCCDC76C069A9144E51F187EDCC12FC31B5DEAAF0A76
311
137199B106EC84ADA6B6EE697D4E6A96E007417F4E880E8B1E89B4BCE9D81EF611E2ED8F0C1A6C25F620FAFAAB656A7C42D464880E8AFAB0E0FC8EA38CA9A8AEEAEE3E4648BA4680270A89743CDD3E6C6CBF34B7B640EFA285ABC7EA0A1E28F3CC963D114A80123EE66D0AF7D5380EB41909B605AB4765B709B80859045815
311
7E69BA1378FEC4B48CAF6A730E3BE3C5EF2DD1A5EAF94B1DDE50CEB55DDFD7EE9A16747FA4B223359FB1FCC69E1194892BABB93A1D5C4E807AC0EA2E30180811E77A2291F6E7F7FAA5E0F60215BC6024E48DE436C511F0628B8CA189982D4D83CCA17D305A7E923C37941CFDFDCD93ACAF735EF5F0E61BBD3E6C41A59B2427
311
90D3A3BAC7064DCD89AA2E37214EC839820949D5CAA31E240D2948E48F690298974A96BA9A8432BC90F5071D6537C9666EA4564796B7AFFFA548077BEEA75F63083435074BA182F3699557397F71548383FDA8CA34D99B981E72835ECDA5DDDC151315173D05A21F651AAF8524E88209E2E7A737ED1045800CE3390050BCFB
311
8BE588DF111617874C62575039CA588EEFDEFEFE319B739DE2EDC147092A262611E159650E787917885EF08F1F51B8F2D8A71D60B58B190FEF9541A1BE94BC19FEA50784DA1419FE4B0FB51B8D36B5FF8E1286FD8AF42B91E59A5F1CC4D60174E764045FD8C57B18209B217F89A62252BD20BE0E63E12B8E8F029FE19E0E8D
311
0870F58721A557082250D5424F7909369376E41666C0EE77CD87CB283F661D5FB6D0DA023CB67320A20DC7BE661E9E1BFE5463085C557DA1FF9BE835733766C3D139F2CF9E2208873AD0EB4814DE9E6BF2CAF81614D4D43906ED1C05A3265CABBFE192770FC2F64F940CB6B17B5F166F133C9AEEAD2641807C3E69515171DD
311
74C4A85311513D6EC9530B3B601B6BA3EBFF3B5C3D2F7D69765141E345F75433953D013ADDF8F6AA7DC3F4A7563FE5C7D367937E2900D7EAD0F9FC9A4A1A9B5BDF1FEF08532660C01C5D6DE22199AA774383E306DAB87E301ABB7D213887F9869D4942D0D71E94B27EDF216A318BD488D45DF84529EF575AF3C3938C0AAA02
311
15B01994153E2054A0B894DA5C784980633AAD48576957CF4AEAEAFADC7C587368551C73DBE1E57C58AC713303A8BFC258BD04B51724459FF9E24C03A81E0E0679CEB9B348C0DC998FEB9C6D6EFA77D247CC8F92D3848599ED89A23218D0636465AD1CEEB7DC140D7426F83491C4E8E8281C2FB35240918FFECE880CA2A42D
311
70E8B20B34DF5221C7DB0CF90ECCB9C745B37A47E9B716FF7A97B7A252C1F3814DC7B1E1A7F72B8751D524EF7CAE45B0C73B3BE7D08ED39781B380DDFC9AA4A4749C9493DB5BAD07A6EA6C092FBD0E85DB004DF06B8C9D3089C5320187E4CE1846158C7EA7DDAE8AD9AFFF21AA3A1026BB06A259845E8232DEE62811A4DA9C
311
EAB3A4887320B76E2AE5615EAB7BDF738CBDD01F1E64064BC13D9EC53576751CA8CACD58B3CEB0E6CA585BD089B2A59B9FC101403387AADBDBE70586B93D64BF3AD4453EF9C3B6A93817E8346991798601344F79A83C51F3D50F7BF2683A3605F51A72449489E0EE6169C749C60B1035651103AEE24D24E51A759C840DD3FC
311
6504DA6FE107510E447B43461C79D22970B75DE5E1BD3007D1AFC619A4A4A69B5626AF5E9B8374E20677F77E2F8E73DF868E8BEC7EBA7B6A75EEF7205E1AB9486CB642741D6E03FF13FCCEDB1C4AC129886268B01CDF4B124AF797CF784F3C6DEC97A17D4B558070A0F1C04DA4FF9BDBF34159AEFE958479824B3F58EBD1E1
311
9088A2AFDE501B6F2052368A3FD0E650A179EFAB1561E1D27527077136E652676C3670F42DCB3352F48F6BC86D2C3B0051727E41A0A4DC6CE2BE9D47F5CAA2935A3C0539AF080665997194ABECD723B08129CC5B6B21D2E7D54CD4D12610E7E9FB8306771A89576C7A982002775ED44F3F744CF21EEBB27A631671D921938A
311
AEE3EB0D19CD1E083727F607823E817BF599DCED5394E37EEBC2E88782E638920CA641EF74D4CDFCDEF06F4278ECB18E31E7E9876F2D783C8BF429C75395F57E98C2B495A3DA077EB3AC3C158608B6B57FE3EA48484D9A480096FCEE0DE880950E7E5A5714131C5C41AAA29FD19AE81AC145FA1B9E85C7169A5AB837B21349
311
3DF7E9AA4B5FBF9CDEB36EBD21EF1181B7CF7366AB2A951D01E37AF4EB835D1BE8C117CFBE7625D2EBCDB0B20C5A4B45CED0BCDE3EE8DA9DA78C2E21DEAAFFD1197E463C33CC6A80FB785669B856EFF7A8CCCA2841B5A5369173320B1170C368B2748D81062EA0296E5E2D95D7667A4A46D98A6FF475C76AAB0A8C8D45E226
311
FAFC9FE0133EA9F60111F99CA81ACE03A1D14C89E8B0D69079C91464FA1D99E651D0EAF606F345C42A8A1AA9BA391031582B96D5B4176A77AADB01F12FD298A75DEEBB2C82F0B8650E880722F8DDD90C56A7A058E5FDEF1AC93545BA27367C76F5D8F9690CB6F8DAE141EDD7971F0FB548A2AE435F224D6E5954CA155512F7
311
332029D5A1230854B79F258EC5FFDB09F5F6343A8EB193229B7F7E79B3E48F8E183860B38C8269D1B53738FF1E0BACF6AADA6D4869E9DE708E79B5DADCC09B1BC76F649731CFAF59A83FD8BAE4C749D66FA87A3810D4D62FFE826FA400C0F325D2BC0F3CA35F5847B82A2ACC7961745C823E4D863D54460AF792CE6F79B5C7
311
A33B25C3AEA6CDE15A919B6367D781E9D44F61BF828672594A3E1D9EDD6DF179A81F27EAC05B936575D73E05C209DDD2115CFB705DF9BBF3C911589B3640735E9E618FC9C36A7326C82B2205E244C55D56FDB9D5DC93CE958D4BF8174D2B3DA54CB3C09F2C2A6DFF73D23B2197355761AD421EC581284A7EF8DE2CE3497C0C
311
804D49B41DFD6A7360844E5BEFFB495CFCDB97A4595911CDBA623274CE852B5E278AF0BEB1770E9D37CD977B2766A7DED0E94B840E1E95E8C77DE5CB6354AF7871427C28ADBEEF7BA0A28E19DE9ACD75F379FE373EAE6DDDAE3834692F9C2B03B4FCA8FCA9ABE8EEEBEBB725B88A7C90941E850682CA04061A7DF0CE82ED49
311
BFAFFD42C309818FAE14755CAAE78B0F73243ECCCAD7DF58FCB9CDFAE7A4D3E6671A613639130D056C8383C8F4FCF4808C331E544DD26E4755D09EA05253B3049A1E32587CC25D72E073E2CD96D04A71BBCB0038FEC3F53D254199C3CDC67CD66640269431860225392B2CB3ECD0B4498AAE78BA1994246AE1EE78F2EDFB79
311
F6C6CB6B5E279C4D373FBC21CB2698C9ACBBEB6A4BB6B39E16AB0E421CCBFC7654D81ED86022F9BB522146F9F4772E2D0E4FA70120C95A85A417BF5078B232F4754363EB1750B2AC2148EB46B1EA72AD9B4D23ADCBC589D70106C3EC2ABEEED84DFE28E718C6C83502C28E9FDD3B09DA0A6F6F7B72B706A31C9E2A331EE70D
311
A56A083D2177BFD63C55B11D8D949FAFCF90B23A1E24B9B5018B9A17E99F2890EC302F330FE7936E2C23F0D237EC8916F5166AB84B62A21BB0B950146962D754F92CC2C8877BED8FC7B7B25726DD19545392570B3A2C66B58F027BEF412E552D12A588C4A3CC5C3193FCB3485EFFF700D0B9EEC077754A33DC1FB9E25AF814
311
628F91DDFECB667D3F7690803F38D13F8AE39353523BB08FC6760144AFA2CE28236F65EDBB3D5F59A57D612B99E3D7E5F8A851666BF9B5A6658EFC96EEB37A378ABB0EB3FDDF1303AF32C41BD1C8560745D7BD81066B0D6313359CF488563D3BA3F8E2185D1FAA3EBA1397C9D0E3DD232180A4DCADB6AF25DB3AC3CC26589C
311
8239E66E81547BC7E2F328F9884764CA37EB5DBE390DFC03A5246B456A7C3684C4377D0EEF9A350680FA9A077E8B2957B489E09AB1AD41316944C2254B5984830F691C93CAA767EECF976FA5647538830B5E63236A6F0365C1E0F3E327F24FE35EDDBD7360B0F7374837409F7A6311BECC12B7026D4FA1AE204FA3F5FE904B
311
1F420C7A9044AE58E403E7C4848E7DA25DC9EDAC79DD756FAA26B9EA83ACE8A214A2612A22AFA19DAE7DBAC5F8CDE1292A485F98DAC731A29FE01A3966E96BCB9FB5A4C8830E1B9AF0C54B87FBE221A097036E5D28D1F869F810C06A9BB0AC0612F69AEBAF893C6E7AD59460208BAB3A6B09CA4F6BDDAB8CF0D1F84B724874
311
98395A70DCD754796E271099A567A55CF242BBED64696378BB6CF25EF0FCDB589F3A82F1116D010A9AB9FA4358809EE0C973A2B4229BAA876A70B03AB49CBA7FBE71DB1832FFD32F9BF2C8E98075CACAFB36921235D0F552B6A67E94E094097A5D7DF681B40623DA535ADA7A9AD8E9A62407D7C9A5AE51D62A17A83A23728D
311
E86BB56115804D3F2675F2C6B87541A0FC497BF0CA86420F558C9859EBE9FAD62747E323E3AADC03FDCDDFE7407B09DA90B44E3185723C5381EAEF589765E2F7A099BA46695BAD60CEF3491B8A171F5F56444F7CE9455312C3498C74173AEA0214EC029833B34B650CBB5A5508D5091665309642791708ECF27CF11DB3D797
311
D6CFE474453BD4BFADB768094B2147814D81C7CBAF8228DCAF5564B5891F5EF6A860EB2E323CB82AB868D8EA048880D63B0DE5341F1B3D53297B928A11E15F25E5148990F710747C3509ED14909C552EBE3973246FCE55D00564D8310BC3EBC5085D08D806799B77D6C57FDF5E55837F9E934F09C03C729271B64F12D0A9F9
311
E938107CAF7BF1EC8CF1BB9B42363D33070F4CACB425E605DDB0A34A12BB936DE286B9887A4E2E558F0886498BFF49C311D96C277CF6A9FC0D75AD0ECC5226D7E0E3572012E56D7FDE4410CEC7A6D0F997F225A2055B8B92E3956E875AE4993CB3D4C9063AF98FD45E1BAB165640A43439A2C9181A7C355B297C0A0CCFFAE1
311
9B6FA3C2BA238A885FBC98B8F6DAF4B94B97304878DF4D8BFF6A4AEDF79E90ED4E68F00CD7299F4E0D83E35601AF0CBEF18C1E870E74758FA91F5131075004DB3CFCF09AE1DABC11957FD9808C92E8A678CE9DBE40DDA0E0D1D505AAFBCBA208232BFB6FB3704E8985E61ADE53DE74152F5C7DE74B1DEDCD37DC3E8FB30D7E
311
BA8B9EFFC3606BF90B8D438279CB7709FC7C00D327F41817EEA71CD9E49FE9C8C9A81C70915D9F0F15958EC5AA4C3BBFAF46986B90F188BDB24B89DE3C6F29EC3E6F66D84856EE96A35E657CA41B41EFD8DBFA16AD6E91439EA92B40B21C053249F51AE50EB0B24C770FFAF40DF12C8436366819C48E36547D4E7B72FE2BBF
311
10828583057814A668BDF183F6B2E58DFB151103E56303E63D00F39C27C4661605DB644D19175D02E3F0241E8FC3458D17AAAADB117CE9EEA690D0DB01E634878C04C2C9310B69FCAB831151E3AD293BEF6E46B0ABCECB50F5939B39C613D41E81FAE8D34CAE3C4566B761D37185FE864AC32FCB71AEF39DAA5BAB88609BB9
311
80CD2F07A8F941653B529567726E2B2A58D079DD57E1E5E31426CF184A04D7B03B985F276D47406AF276FE32E3328BA866EB1FD39BEF57863A317634AA5FE467409B3873F5069EF0D71AF00AD189D17BA1974ECDB2D623E9E14086386A6AAB5807825C37B015BFE892AFD154920EC437EB945D958E18622E1E0FE2FA06557C
311
E4BB9BBD05A2D40E774DA2B65473791E314B7D6C886820B2FCFE4AA272B3B8B15E7344A145E8AF919B5454D89D36D413E87211186BF6F645E5EC94DCCE8E1C799022E4EC9BC86D7A0F2AFB1FC4B2CE48F84B3F49ECE65BAD24CADCC07EFF39AB06BE9E6B27A059938EA7208838455383DDBCFCD967DDE4650EF92A14FF933C
311
975DB20BD7FEEBC4487576485963D757D16340D9599FEB362F775F38CA4185A86F74B629C81B133644A3B18FD056E997E0734F9BE26D11C0AAFC669E2AC9FC41D281F8B2E1C35AE27BCE05F3DA295488096688719D974DF1B5D182DB7792288697F8763CFB43562C1CDEE11C4AABD5C22B6E33F6F389CFC3477C5919DC0D53
311
3F8A7A1846B7ADB60ABDC26C43D0CFC8910B7C15EE22675BD02702ED39DB77A87A192CA7A543E6205B979B9F5A6B512A3CA799E198B2D5797C0AF8D1D872CA455D4D431A7879D4DD76110B5FF7F4176B54477A9EB5E4A5D11214FDA585F0382751D8E2582BA5D2075053298FEB8F1537304E32CB22C2E2B693DC0A760B1DFC
311
A751BDC445AFDCBB12820ED85F6D5298933C7EF1211E9E057684056CDA3FEF3BB6052355E162DF27C59E965A8DDB7F9437EB72CDDA3A090DE65A5B2F50326247B7EC67B73ACC7047FC9B353D6EE990F772207C6EC52B39DC2F3C0754821DAB559F7C1809C7D0DD5B0499D0442E0A6E391B3D5DB46D11E731E6794EC77523FB
311
DAA242ED67F9FA1FB684255671F63C9BCFE6E7E896D51001A6113EF2298BA494E0B0980D1FA5B9D60796554C02256B1E0345FB7C6186B6A19D2DCA270416262845FA4F42DB5D9B0A0B6F07FCA2E56C242522E001E0CEB734AF310FC8BFB57E38E03AACE93B3326A2197891E68452B26A6307FDABFEE0223D3C03C3C73D2D5B
311
C054C8311F12004CAE488E5C29287F8156A2CAA4AD0D7BE6B97264E4139F437CE73ADF52E5134C52B819777C18B323A5924E4F67AFD13B1CDC3A61793A79FAF5C0CEB718E441071E797C6DCCB9EFCF7E4A1E9F3DF3C2F9C9E8294E9586868788C972857FB0556D7A26941A7EEB9B580AD78EC40B85DC906B4120A563CA3B87
311
797ED612D3B035962BB75F6515A393F4CB057F564CDF54F2E5A024514E6A1F901DB80C7E70B1FC05E356A7E72FABF4775B3E3FB8F70A2A8E7B6A94542BB304157978CCC999E707A29CC795E67A59CC546A5D47B368954CA7B6E75EC9E1F6FC73CE3B4F71F8CB1A6B15923D61EAAEB14626AAA9D04A26EB9C66CD1BE86CA31A
311
5D8703DE04CD1EBCE4F5CCB62F93909AD11E55799A781A956ED27D3E738F4538CB04ADABC7DAEF20BC35BA6A90BCC1DC61BA05F20D8832FFB9BC9B15E2DB838A0AFBB7E0C82A562127E0446894F427794C3037186F622BF24DE1B00AA10A23BFA47B2A180D6DA5AD6F7326FEB8C100C2D7142EB2A0B2A9D1008A09BA343D70
311
E054AB69E2A7EDB783CBD92537FAF4A44D1296AC2792729104B3276C276C951D0CF3CF3F1E6B017720A7B8505A5FF9589365979678C36F1BAF759EAF57C60F1FF5FE9DCF5F8E764FF25A2D06CF25117A8FED51884C13B2B750DB0E4F5E3D64124FCF11F0AD8F1CC3B3DA4B38ED22BF1CB2585EE6BFEBBA63FBFD44F9537B9B
311
37BDD6B358720F98A8125AED4349CCFEB0E135F19E208A04CA7E2B10711185D72E381F448036EF57C9F874E54A971CA37A639E986AC0226DC5AA00D5B14FEA9192234B3DE617814FC221C92F33F1D392F297731B567FD98FD91D989379AF567A65B8ADF177591DB90FBEA99BF4ED11B16E50A0AB1DBF1156D034BBE04D69D0
311
8F939D8E92BF525A1DDAFF80ECBC95D8F45D3FDD289FD23F7D8B452F8EBB34EC082DEEE68E18EDDF072060FAD2AB1504DD4879BF67099FC58F6E9DEFBF645D16334A3E9A127C6F1AF6132CF287E433B43A0EE93812B4AA0B194E03EE3FF91EF9C6ED0074A2F6EB18A96A7C9890B1FCDA1F2095E944DB911ED54C60DF16FB74
311
C8CE9BDC7C54C4F14078CF73C2FFF1F1BBCCD7CF64F71407EA1683DBC410D226627F66E509060D5C0AFD611DE681D509DB8DD12FB1265B03C6F5C55FF4C30BD94187FF692B4F152982502F193098A789526A038AB529A52BC0DC4FB6285CBAC10A8B8DB75DCD9BDABBB221E27D1F8DA9F5EE5926A1C8AA9BA9BC09239C6A7F
311
12914EA3B59EFF7AAEC3FFCCE56F1C5C2980AD072793527565E774F4631DB178CEEC691B1F367BEA0CF2907E1D6B854D527065979DDEF002D8B2ACEA7CE21AE297737EDE1D45B31233B73FEA35BCFDD0B09721FDBAF6432681F2FD10C3E9EFB246FD6E854B344ACC9D8A0EEF876A7314B49B6A499FC650B099D650DBFEC763
311
8ADFD245E2B7839DA5AC5F7D5623FC0ECEEC8653FC9B2BDD1AD4D00A566FBA7186DD3C9CD26512551637498CADB950FEC71ADB9A5524285DE328B8EC7EC75D2345AEC6A27C42AF6D9B92155315C80DBFCABBB7DA0FAE425C4FB896B15C9BFAC4FE67DF5A23D30C93DA4D8F36FB15D100050DA6062E22AEC5F4DAC4F6FEEF97
311
AE05DE63C6D38F9E068A20BC5E3B6BCD75320C5090924E7F93640A7735B1A43451C2D91EE62C6238B797349E59890AF3A520DF4A87095F3ABEC2E61F0593416CE46CDCBE0E00E2523FCCD04408588B5B6C9DB6459C786CE378770B54F51DA3A5E1DF2A3349BEAAC234A6CF8993B598B3B25B4B113E353A4D750FA753474943
311
0F3EBF2512E7EA3FD43C6AB9A1F765A58463B306721A15D224FAFE8C6F5E3432D57EE697DA0DD5A9D4866A8BCCAAA9DFF1F06047851408FEC060471D0E3EB86BFAF46E4B5E60311DC3E3CEA147C75CF971BE74689507154FF2D2E92F15CDB2B9182B11459FD8ACAC5A85F174BC94A7F4EE4C4F5CAFA7C02E37BF0BC77B7DCD
311
0C047BC316F562A01A441AFA7931CC84A28CB9F4AA367EB515778F29BFE61195FA671F4352E5E46E3A64773F1F76EE5EB36D7BCE9BCEAD837A4D77F8DB8C92AEEF6711920D7C7D0F76B0FD0EB7AB83724CD35BCA7D36DDDF5FBB7FF6F04A91F3E2BB3B8F1A43CD659639507FF6331C5F697BCC782AE57D757A27D97F1AB9E0
311
AEDB43F92F1B2AACDF5FEC8ADBAF9F814E2027003BA2F9E144B1938A7A04050AE5D953B82C45619165C813A10E76DD6906B3C16438064D14CDA713AEC420034613E1AC7241904A49FBF87409AFB1FCB9B72FE7933A87D8FBEDACECE4EDCF6A4FE9FB94D5DEB74FAB7CFEAE17EE965DF980DCCA2D04134994F9A2E94D2265DA
311
4FE6AA7B7AC15FACAC2B5ABBCD7DFF542C5314FDAB2E1B9D8B65220B8E2B638BE008E8DCA22678C820C5053664D15E89F2D735B51A84955E81A443545E9FF787BE0FA700A76D136C27DA179A7C6E8939E01BE756E19CB292798063D8B97F44E8A27BCF3A614FEB8BE974A718E86F7EC99B53CA35FA24F61F2B07266684623A
311
3D4CF073E511F3A10A8FDAFAF0078C577F4DF9D339FE7862E5FA47CF4344209E5BF76D783B1B48E152AD281B15FCB934DCDA49CEC5706B1EE8B460F435324A5CAD154725E21AB8044B75A557A79F6C807B9340AA3D92503E866F4274412926C8C504E4D5EF8C0E68DD0B028781A6B4054F11CF18941F101C57CCC796773ABC
311
8DED9CD91FE5788806C05E548895354AEAC96546D55B0E94A59F148D061F42AA398D822CDECA4CDE79E13469BDCC44FDC990F366BA5978C15F97ED80CBFD73B0CD9B8B83A4F6845BDFBFAF034019473FB9A63BD55D3A4A7284757071574029A4D016DCCBE95DD679EF3C4880BF169422F8C89B68A988D2B13793CAED4F74DE
311
7486C72DC94DF46B8E93D8E02EFCB1FF9B3BA10C8AE7F653DF94F4AF466CDDCEF5776687F7C4C14B63E4EED1719DC2EC482D7DBCC7AE518CDE3D5FF86D39000EC3673C0044E1D308BF05F74D1B5F033A7D1BE7F74BC55BBE3E4A20F920946CA0271EB17BD2B80E5660ACB8A29A79F5E4BBA49D4D945B6EEF4A7EFEAA65E555
311
5BBB57A7E15D2F83C69F30BBB978D2B39F1F26FC097424D39BB33CA3D87ABF64E307938B685BAD44F71556A30B7E712CA4FE600613C3E554B69ADE949A7CFE214DF1FFF05CB82151EC6FC31950239F94CF7AD39DC473F6EA356E5EC2C4EFA04383CEFE985A127484366FBEE3C0EC4FEA363E4F6632AE781392FD45D67B63FB
311
8DF70E82734F431FD3443172A0E30A83D60982D55FA6A2CF86DBA8382502ACC6CDEF3B907982EED1160E14863FA242F9757347E1544275CCDCF71ECD5F8621CBEA326B8BA884AD7F825781923E66971F04010D574C541D8427A438A37EEF8AF88240EED7362C953F5A81DE2D56109CDE2524EA0F5D2F87308C0C47BD97AD60
311
5878AB8589E17CA83930CB5E0DCCD75853D68B1AB136594926DE426C367428E9334AFAFF90ECE221BB5DC9E5BB53D2CDEF954EAA9CD814F0E5725F1965DD458E5F8487683AD86B9D0076BE3EE91EB1CECC5331A67A3F79D8B27587C12EC2A6A70474749F27B4C0BBAFB94B34189E88DC18964BE4121B9137FD516C7755356E
311
50D6714E31ACD222621EBBCD1CFF81D87479056A9DA0E0B8EA19D24CF937DA89F78E8650CCBDC110AAB6C4E46DCBFD0446BA9E2060E81F314AC2031E88135E5476AC0160EF5C0DD2EEF1B8B5CB2D198BE9A554A9093B5F7D7E4B5407DDFCA1D9C152FD97F55BFFFDFE802954DFEC8995B983E28AC92F1971E28F531DC407A1
311
280EB125F64A72E617EFB27DFBCEDCDA2D6F2BDADA36873EE46B9BE1782998C63DA7182BC383FB6FD15DA472B175D7E8B4FC88F38D6E07FEAA3FA3CBB8F6B449ECF14D2175E5C5CCA3A42ABF24CA6C9395AF74535F4DDB38CB84F56614B0FD32D7E19CA5CF988DB4449C40E23DF2B16772594554579094450F56F253CD25EA
311
7F77366FB1CFE79696C428BB64D5A41E986189427E5E4D7E2DAE3D5BB4972B3DC44EAABDDDD63A2264ECFA5C786EB0EE1FDC5BE34FA0F08376869FD1E61EA06CAE15191135445EE8F0394161C3266A596AA035572BB0C8876180D8B9C77D307DF9DCDF7365ABDA6F3A2366436457A4DFC1F259666569A9E4A79C817BDD5610
311
E5200FCE894A358EC72858D50EF67545DA81C6FACE3D457BAF70367E1E6BDD9A952FB4F56247F58F523B97E640246051A72F79BE42FFA0B3187F63097F91C48B868586F714B0EBD5A00A8412C1236E1298F60C72BE6C96B82B404CADAA304AE9F303176B14BA53FBC2D5E86377E35542019E24D97B96A49B2C0E5006E77959
311
54DEAF5DA58958839043C6C70BD3B1B33B6DC5C31316D8A6923F142E26F6711A2258AF977DDF1F970ECC4F1F2B434B96D81BEB6E89BF3BBB3C7C8CC80505070723D6D7D7D3C8CA27CA164A26024FED94B12A86031867241DA53D929636DA600F050BC40CE48B8BA03D69224720DEE2ED2127390BDF5E6EA64527BBD4C4C63F
311
A76BB801FEEC0E61218EC98A8A86CD8313781617877E66692839B9468CF4DB8E50A73986E558E309C0D6F676F921BE02F1185454DC75B111572FF9D27D85EA14C05AD7271225B391C4275659CA4A43759D0BA44639BE4C30A84DB7F67A41399FB95CBF923B1B1672ABC807C1590557FB18D811983FA97F5E609516D62281D3
311
8B1281F68FC75528C35E4CD7DF0F7DBB5E5DD69C414EBEA2F4A5B241B996BA77AE6C772E367408C633EA3E438B68563EA8BE7667F3A4C4FDEEA52ABD78A2820F443B7914A15F180018D231E64519C56A12F6CA7C8DAE18F06F6B769DBF92329EF6A5D18FBCE600F36BD8E8198DE5CDAA96181F3A756EBA5501CEE58F497EA4
311
F418A2B82565B9BCC611713C0B708CCA1F398B78C5F7D03B3437CC18F13061F55C7BEDADD5ACB1DB0E36D3CE47FF6EA1A563A57E9649EA5D14D1A50EAA457463381C073777EF1600607BAF6428A7DDC079D47A204EF1E1F1F0589FB054D45E02CE623B3823C317C601E589E22B1E88B448524B86A82828E32345EC18AE1721
311
4B42F8C41C6D428016D9BA31DDCB47572561E5A402E5BA4FCE55F78AF7268524AA04130F3A20BA5D1E9F9948EA48FC8F5314FDB35E21898198060034ACE5E3E2BBCA34092518F275190AF65F45867FF0900AA4B81F25427414C372BF51DC29AA855C5428EE1EEDD6B849AD60F6E73475C2D2523F8A2772C840A478DED18A8C
311
5C91B085F255DC4F54EA7AA8947354FD17ECF8FB3B4A0DE7B483CAF3A1165EE05BBA413E5C1FEF3DE1D6B8F2F3F3251C17D9FCAB48A9AAF63AC773A0E413BBC46A9ADF84A566FC920E4D8C52C9769EE3301CADEEEDD92B312E02E2A7E35B7F1E7D203FE5A7D75578B06E99D0E46FFADB8FDA17ED8880390DA29094202D6F64
311
5F76F6F96409CDA05495A96E84B04A00D1A6C6C81D7F3DE9376E828CCF144EE50E364ACCE7237EA0BFB5607ED1AC3CFE73794E5B61739D14DF1743441B1AC98F00ECEDE9E7301FA29755FBEFA68C91EF2B314CF510537EF1ABFC9A762496280B546F5EDAAF8A5B387D469FC9A878A92828C88608453ACEC6094DCA54111E7A
311
D5B2663DFE2DD151B7F123B9F4FEF8EE36AB125FD7AD52A59B1B765B3E3F73E3F73DEA93875004D2AFFE3CDE9493B87A9904DD052028949041A91DC0E1BA47BA714343FD5B25E0A6A09503AFC17C790058A836A324FE31D7893512E28230332F153181C1E018E1124EBE1BA262AA428A518237D1EA7275E48C5C561BD19ED6
311
912EDD8367DA0F31E40EEAE9683DA9257525AEA7B632B97119E17145A90231768A4F3B9120FF32E8319B015E3CBE26F1A754177D8185345817C096B0CE443A955D13AC15E1FB5DEEA0239EC32A3C92241A237B0B02FFCB4F93CF2B02570C8D192E2F2A68CEEB42F12E6F8CEEFF46C251E22B4341C56FB08CCE550E7A9D6F4D
311
6564B9EA52A83D5BF2C6E03FA19D2775E15A8A7ACF30A13C259EE7F5EF2AC3BA354F1500E1A07FC63FB4686E2F12EC69719F9ECF5FE3F35598DF2CE944008CE78F0911BA5BE5D0A34E0098FF038669C26030BA9B300303039852A8F6F496341737CA7E0D2E3AAA36DE0A70AA7D9CA0D54D9AD84B18A44C9E625475E1C97B93
311
BEBB38DCE7D227E67A2D00F531436136355F243D1FC0D712C5765754FA22FCFFAE97919161F46D6E61ACB37D83777B385889770B50765B127768443A5C4D3A4E35A3151111F146B7CA116F918A049F1C272F2CD7976C69A0068773451659A97E0F4A08FE604C3FF6CE7385DB19F4D3ABC8A0D80DA8A42096AC377DB49382B3
311
6E270B6FA7570188B4B7D1DDDDA82ACA487CCA5D38BD3BD039ADBAFA4ACFF27809239B722081E2EB9F145320553D183F28471C388BC8814E5045676767AB58A8E72D1CED2CA731379515D2E533E4CF0B39DFC625F97AC4836831A4DE330E87A8126FA17EBE583D614E71E22A8DBF2825599743E0640037303E8E1B1E8EA4E1
311
ABFA4F62907B5E4E0E5DCFDAB417C36C6848A2B8D15F1E505434C0707E16B1CFC2A1C36A42BBF55734F8F4301DDC2A5110CEE8C0747F69519265012A2174BF4E955ECD4FDE095A3ABC70536B7AD0B9D7892F81287D667C108703C9B66A221E9A0929D030008F77FF6F5D2108EF5706FC87A3069B976F7C9FC3239D13D283CD
311
EA83597461079FEEE049B0F392889898B7D87D31F8D60ED7B56B91823A8E4EDDB36C6172ECEE42BD42B12CD67994FA0F0DFAE9389356F4CD4425A4B8AA55CBF7ECD585C6A2C2316791E43D5C06841ADBB226A87FD61515FFBB0167B74E56BD7F3E90A57A97FEDCBDF483A0D6699A8C0849CAEB4947FAA90D8E332D9DEBD9F4
311
738C37DA0CAF9CF3DAA68BCB67C420459C7A64498D6E848E5CADE92BB6901F607AA331104A67F7CD650EE169B1DAE94D2C31C2F993632259B6957E246EFE4C5481107B07118607700040E5812A2A2A38DA0076875258C753F60E0F2662C748EDD5F3F3686B8FC3BD6FE631ECCAA1E8B1C1E565AD117E54893E79F4672E32F9
311
E46B2A183DFDCF3EECB4D4D077DBEA0DA254D256045109670050129E9B9B1A9E4A11344D61497A992778095151510C4BB7EF2009B63AA4360635312E4CF668B7E0D3D85A8688E2BD83B569439892ADB63461930D428E0DE42E4AC57CE48DA5CC1449530D8BD3D6A0F08DF20C8E8F570F2CFFFCEA286E30969B4654D498A58D
311
9DA782E19FE3F002181838925592C4A1EF0B332D88B61A92C644547BED490D3A42CFFAB70E36D961F694F6307F72FF15A1C79D5B1B5CEFD353D9E2B52566DEC8F8F09CB3E8359C0F68EBBB7898243E34E12A015B2685AB303C04D3A9E00671FF3DFF0A184E4A2ABEB2B666AF5B3A209C73D8EF29DCDB069C9F391EEE9DD0F7
311
4C7BCDE16F8F02E3B8816122BBEB50665775B600549D8BB33A54A6BF940C028118BC6878C79958D6784F9DEAA6E26748386FFAF8D0D0101E2847B6563F5D8DC1D78F787BE00E2C941AE12148D4A81599FE8F68D4DA5CDED75530ADE138240300EE13B0FC13A1687FED6774662C05A2B7DFB186732F0D7A93545D8B0A6390AE
311
5054D9CB582DA846D7A061B3358B45E2B52DDE63E114397EDB7E09233A579155D795BE76102CF277F4DF8B188C4F2879BEAE3C08347124BF9ED23B128259FE107D31E34A652F090B30B39E0D9AF917B76A2806135621A8A60681F16AF216514BBD02711585B5B1AE823F4B2D0369EA5B6BCB863072727FFC871CA6C9AB79A8
311
14D989057E9470A3D238BC87CBB4A0EA49AFE2B86F22E499793CAA9047080450166BDC357524561E258C77CB697F1ABB32562CF87C3B7AA12F911EF19FB3E5C02222E887D08202A60A17151F5E053A86B437771088B4FEE14D652C43E8D939995D34545E12E2FF93D4E366EAD25F10CB7DED141563C3D0C447AF06078A9113
311
5FD4B9611583CB4BF3BD167F2399CEAB0E0100F8FFC305F00F1711717173138B4B48C83022295DE657EFEDD97F238ECA80F528AFB4F8D67AD4E2594B9A3AA86D7487EFC313BA95745C186F0CDD84CC12DC9CB0424B42203D351FD9C0A3AF10CC7F388E0329279087386421F194F4A29464C1DEF7EF8BE515E4A199DCD5B909
311
342598D8FE6A231F71336248D5CEC5454455C7BE383B3BC7B260FED27F703FDC39A170F3827239102F59D4DEE7FEF82EAA1A5E4BA94DCC4CC44E7E2EDE20F24244E4454369D2E87C3F823F193FD4FD27E1C23984B01898D15ABC20711A8A558054951A6AE280096BA36CBA439603B7B0B4C45F248C14B2383B4B5CD8ECECE4
311
FF859AD4A6CA2326D020EF090F4041D28DB66E5256B56232CC52829DE8060BAE6BBF37D4B7469B822454FE93210A3E8D15E69FFCF01123222611C51C4FD0A041A0CFA2471CF6BE38D2B20FA4C3525B5B8B586759475CF80ADFE67A284AC24651E52B8E683D24C2622642F27E7C3C22783BCF63648BC398BD6CD0D9C97E7E7E
311
3EACB6126DB7A6C1FD9F1031302EE67ED96F22B77C7CA0239BB324207559B105E4693EB26EC46182A92C9C0DBD24F29B31C5C5AC1F84300E0E17CEEAC15F5736FA4A98971E2F1423BFCD68D4BBD5F86E74B40A369F39507C88FCDB35D2DD8DEBEA4AF999E23CF2816D204200DF6E611781B9884C1AC8888B4DE39732047295
311
9434323A5A36B22A8E1F721A270DF3BD65E4A31C11FF048AFB0D8B7B6881423793963A23CFCE935FC189ED36FAE35C46DA3574C979E4394BE52084F3081837BE033396D2EBD80F1F691B273F660D2B32FA27A33B1DE4ADA5F0FA4651511102DFA410DDA86E065272CA314D5249DF91B06BB92807B28EFD54F08F7B52525278
311
2CD276DD02E6B0319B13DF87B1F6361AD6B28FC0D711CF445429B9E5A433CD493051C49A9E03DDB1B147D880253514A5DED88009018620EE229101C041950E2D8AA8E1F5F5438E0C0C0C60EEDEE9E3E0C051948C69F84BB7B2A48A1F3C8EB9E6864687F4F4F6F6E2FA87608ADAF9C5E117B7C1A737E710769DA1D15ECE6A84
311
502AA855398712D5FB51BE92E4EF824969CE18278798AC303C2C7980DD2500ADF8FB1E6D6C2FAAFF9987178923334A244758BAA01A9A1B70FA5097D01E1CC2A58DAD0EC94CE6430AA9B0C10D75E3C6BAC670EFBADEE1607739CE0FC18A2587E3EC3058562014C64219C69BC269082D5C2F4A659278D585755912176D78A1B6
311
41719C2A394CED495A1AC5D583FD2F5EDD93308EA7EAE8A6DD396598BDBD3D4CFED62D18A5BDFDE0DD5C80D1A89BA62697B131AE7CE9A6594138582F1B37D68F1749AC7CB67A70695D48A4A056AC1FBD4E82358CEAE38F54B95A9016F9000F9879C0D9D131768635CA798895F27D6F1614F11F2838A83611AA51C9A3DDB539
311
D42979C29F10465655C17BEC3E2760B80DCBF609198C7B171A531905F3EC218D696025975E986C6B4C666666787271F202805577DD5A3EF0CAFAF91B62DC4B2DB4217A7606282F31D8DDBC290593BAA93EA6353AFA9939B877978481E15CFC9F2755CDC00C538F63A4BA3E80AE009B73CA0185687D339A507D165B74290D6E
311
E46D5C58148F020C3668ABE9EF2F7549170DC80DB41FFC1D678FF19AEB10C7133832B104B80F691B3138F97A92D26E551F1F110400D45AC71A9B9AC41A1A1B1DAEED0B0810638EFFB511D46B121C6FEA0F38CD00E03CFFEB9713FE1F9C263E4DDEC160D0497FA9A132BA608584057FB15380825DE6C7FC3C667EE947D488A0
311
9898D8E939C4953BF4EC9836344D2CC6B2971B2A21A572B06096F4982D2CC7232D46E8EA69DC83722E267754D777F97F96D5DA74E1E75178084D0E70F12AD33E5F71EF2AFA599B2BEBF60A5BE475F444F240CBFE8143C334E7ED9150FEEFEF7EB020C4DBED388DD1D6A167A76F3CBF119B578AE8CFA7736ACAFA4440A1C471
311
85638A0D2F3EB5BDDEFDA958FB13CE4AA4923D5BF840392D45544329525749734866684BF7F8D9D54D892E19BCA9F829A0F8BFCBEEA6CFDFC61D74EA1A645ED7A1FF241739F15694BD835B66FEC5677E40FE69BD3F91AE402F036537218A401CB0828604AD189E575015C6F3F6BBC8AC79CF6C70653847254B31551EFCBEB5
311
978B9DB85D58D0FA41A9DFE9C624834AA04949D24B5AE6D299E072D152D12097920F14AA92C31C3B97E28B6C2E6E9C23D63043ECBBC0A60FDF5BD0C33C127EA8A3308B8B6AFFEB28B4455BF6E7AF4FC6222728357EB8E46E85053E6A8843AB23295BF838ABDA94658FEF3F832F147046B4ACD6F7D48E8FCC9618582961C898
311
D1C7A253C91BFECBDA6BA18A1FCF70755DCCEE2222F41B76D23CA98D0CB3D95F0CF66D57FFF65E2A90F5DF40FC3187621E981BD0BC1D992787212688976B94A8F0C6EF646624B570B78E068826F87CE27041A95C9A4871FF65CC17FCB1639629AD6A9517000D63AC231F3D741CB8430777E7ECF80CE7A3F73C0F162F7E56AA
311
71F4DA80A33CD6ACEE78E2C11FAC03DAFCE929B106F8F6B3ED2DC71FF994BD9CEF4E9A94896EF1B6E2B7B4978168BCF0847A3D2A4F1B0500B926E634B174548E9FBAD27153FB5FC36799B1E6C7C38A94E1F9E996796D7B485E635D5287A2AE76FBD11A341DB3F8F810385BB7296391973DC6C37C452A9305AEBBE0CDB6C566
311
DB59FE60C8E94B1FD090354BF51439FFD1B48D725228FFA88C84F686F547107A7A235665A4593B7C34D748C1AC8D56DD5DA861EEFBADDECBBD65117E65851F90351AEB65F0EFCFF4BCFEF24CB7A5879699FAC437A7AF9099186CF006BB923A59E37D7A36A29FD8D2CBB914A5E9D0A8FD212FBF796AE9A67958FF1D5D8B85F7
311
8F96219D4714EB919929241B6C018AAE0C02069F8D919961EC5DDFBFB7573E3AC8E08BFB7C8534BE6DE045B3CD63DBD71F7638BA2309CAE398EA3A7D8F98BBBC7AEB367EFA5CFA27A9F8F2F52FE878058E6209C026453F8E7E8A237DFC389E9590F6059B397CFD65183BBF936E86896612A5B5FEE49DAC8455D026218AFEBE
311
C12B3523A45B57B82C9C97E02ACFA1184DB18E48CF615DBF39C3CC6F0B4AE6BBEEA2E39D944E290302FA3DE33FA7E40296E2EF7BF1CD855BBECFAD0FD622BEE9746FC4FDFDE545AE6E3BC234CADF83A0FB76DFB145BF3828AE3436368AC24989454F8FF70A177672C711CAA1A76107218CF948CA01F873520E7A2B118EBB16
311
1ABAD432932029628B6761590C98AB590C8C8C79798CE9F715BA696E839E9131A4BB68BE923F1747FBFF165331FFDD4D05997ACD168F12CA75348DAC04C7F509FE83898A8B421181AF492861CE81E4A2DD0A30850CFA95E05F097FF70F9E777310D584A75BA7018922E271DAB1D785671157685B7D383D3E074DDB4F1E44EF
311
04B07BAAC75A062077C54B9752C738C9D804D402E02851F3F89605AF189738C18C021D2139EAF72513824E10DDD3047BACC8521ED7E98B257D1166903B1B08FA6F918FD7E162913FEC7D0EF4787E29C35FBA8C6E2C9C20E9AB30AE42CA2A01A090E7D010C1B5BF9CEE2A304BF3A987FB40D836979B79E18D70F257DA61E808
311
472DD85B82761825779D6B90CAEB0F23360C6F80A7D7D77545E95B3DFF0CF96A827F9B5BCECD2C9698718417EF80FEEDEE938AFF55859D0D540B7FE09435583A6F04874A0C7E8CF234DF4879722000167F5872CEC6BF3EF7E5A8CC8121E6A359227C8A29C95212F9F735BC72A887D56B8F309FC525BFB4FD767AAEC4AEFF24
311
9CFBBD2DE1AB9969A6155C7D8DABC307E47324C1F916C7BCFF40ABA5644E9FFB9238D19ADADA49D9610F01ABBA57E4DFCBDCCBB2B93C8953206C91DE01B0E2651A6D6C31721915B31F7B7CBCE55466F6D70402788FA91D73BE4ADCBA99A35F17D6B83383704917D6833F0FA3CD45C926ADB8BC17999A4A0AFBCE2541F7B8CF
311
4C2F5FBA611B3E626D64407CB32C122DFF4EF8674D6EDBB86C8F7C6A16D50FA685E2CCA34F8F7D1D8265BB0042E9D7F1F666F7BE5FAA5184DF58E12122A42EF02F461B3F369AC746F96528AD208512AB56844CF75B97F352DF7995024FB02855385854F3798670D01CAC771AC3E1889EC25F61A20C1F8CAB46898817F9C47E
311
2CDA1F286BF2F358298709FE567C91133E2638C8B53975E753EA8BFD3578B5F7186B7BF084EBA3F77BAC3132A5779902EC22AF2D2E79F42D324E083386DAEE9810D1B44A5DAA54513C7A71E52A4AB9257D975B621308FE4D2141CC3DCFE946C154A3C1DFCCA7629EC69ACFA831634ADDA93C0388D2A9A2DDAFCF957C6995BC
311
E7FBB6DC4EBAE79E63EB08E9A25F52F67076F7093CA545CA3053B5BF576DEAD4E0017143C5F759F32B2D6F145B52B67B48909B7C7FCA6586EE385A2189C16932CB6DDFD9152AE317C430492A578ED27B72D85D40C7C93C097939E1B50F4D67F05334FE9DC362C30B7FF561B95259138ECFD9274C8D695C31B14D4EAA9F3D7F
311
A8DDF652F8C5DEFA23284C799B7D94416DEE81E05A866302DC70192A5368EA65E1CED8BF107A1E2D3119A71E85DC1A7B0C1E93274CE04DD0F2ABC8AC7C987FDB002B6F81757B43502EF7A0D92E416494FAEEA4C9C090CD9557AA4D532F4996A272B94355C5A0E4974EEA9627476F30809B94D8D8D860062E02204643BEC7D0
311
438AF800FC7E2B26955D595421E83C69E1A07E0E3122285835F014AD538188CF9737CE76D464A353FA55A001AB2526B84E985083693BC76FE211CA1D000679C889E3C009832C87E1AC2EDD05C302557422DF0800E316FCAC86978A371F025A6C7DAA9F333E7BD160403A1A06EA75AA9888FF01504B03041400060808006772
311
1B4B28BB58AF800100009E0500003D00000033463445303634372D323646382D343043462D383436362D4132444437314139344344452F536368656D61732F436F6D6D6F6E536368656D612E786D6CBD544D4FC23018BEFB2B96DE15493C78601010A34B880709DEDFB52FD0D8B54BD70DF6EFED3AC0B12E6442E2716BFB3C
311
EFF3D18E26FB440405EA8C2B1992E1C323095052C5B8DC842437EBFB673219DF8DA659866649B798C078B48AE6410122242F2A4994AC7F93815DF85C049C8564CA0A901499DD886B2EB9B1E02448F358701A9235880C49A0119892A20C89D1B9FD768815CAD268CB5E0355B40B1E47F3E37A2020464BED06AA57CE8FCC20C3
311
C3446D46761A2632A8C1283D07031EFF2AE7CCB1BFEEE916E406DFAC8E36FFD99A9D60A6944090EEDC3B670C7DC13DE86B6B2C5C240D6E503BB85ACD579D513F1B9F9A69DC9CC22AFA80C426D40AF0B21EA168559156B6276F0F726A6BFF04DCD513A87A62CAD41FB24FCB2858B3952E3D852084DA25B9303C15687973CC8E
311
8AAE11DF2836C38C6A9E765E8C1BA1BFB1DC29CDFE518C8B5A7655A4ED7E77291ABEB80DBD82EC866ADE1B8D05AF9E35CF09D7A061F38A986D9EC412B8F0F65E5D81534D9B231D1E5A8FE577A241F3A5FD01504B030414000608080067721B4B2CCEBD668A040000E01200003E00000033463445303634372D323646382D34
311
3043462D383436362D4132444437314139344344452F536368656D61732F47656E65726963536368656D612E786D6CD5586D6FDB380CFE7EBF42F0F7A649B70E1B90744856B4970F450FCD7A5F05459613EDE4174872DADCAF3F522F8ED3B88D2F1D06AC4050DBA2493EE4438AF2F8EB73AEC8466823CB62928C06C3848882
311
97A92C5693A4B6D9D9E7E4EBD51FE3A931C22EF85AE4EC6AFC38BF261BA626C9AD288496DC3F4FCEAFC63366845F7A10452AF41DB320C0D44EC26EAB20918735565582695670811A6A49643A49A6E9069FA4604A64B29016DC4B48552F95E4932463CA888468C1D2B250DB4962750DF7CE273069CE8363F1FF4EDB00E0A219
311
99574AE4A2B00C353B93F3BD4777B8A61ED8F604ABFEDD79CE56A2B7BDFBDBC50996E0ADDE16FED26223C5D30956C29BDF4A55EA686E5E58B112DA45CE67F76F4FA27EFA3FB672FD7372FC388FAECDCA5209E693CAD167BADCD272F943701B3812F8A3D852008B1D2E32DB927B2F833C6EA95879925356D254582695095A3C
311
E982924720BE5774A3CB9CDCDB350427D2DF20DA1B5532EBE2D5D6288D75D4F7E4FD9890A0EF8E3D93EBB8F8BA4758158EF6FB90A6F9520281C93DE7AAC6D24607DA296BB96018123F821A7D6A5C5884050C475DA4865442732C8B95684A50165CBB3A32F25F783A4A480ED59AD7F924B968AEA50131F46303223E6A397B0E
311
52976030DC1DCA81D7E7C1EDEEA42C19FF27635C505E2BD5198A599020DF50A2330FCB3AAF28CB0124108429553EF1B228802E2265D8F7CC2401042B155BCC7070F1E5C55F13B4A9577362CCCE46C32174E010C3C378C44841A4BDA00FE3A12006CE11EE6AEC59894D3526DDE1CD59D503ECC324017F8061B7F162162FA62E
311
DD81AE3308617770796DCBDAD2B2625C5AE8A63DE20B2C8AA5E95E76E5730823955956E33E705425A2187C185D36489A1B44D3DCEC2172F6BA2105C3546287A7194B2331768EBBE64F6E70A9930ABE0ADEA89E9E2C38523B810287AD67A54A039C1606EAFE68F8304610BB9093DBDDABC0B2AE4E290DCDA15376D7E39F72B5
311
56F0B32EAB5D3D498B4C41ABADEC3A1434C422D87E8025A84BDCB2B1417ED750FAE4DA8976863974C577C7F902D3F156AD354DEA3540DE6BEAE2BEA52F7A2EB4CA43802ECE5BF2CE2EDC9347179FFB023CE412E60BE16DA0BE29B374988A553F561DC04615DD35F7D2C8979F60E5955CE93DF29DED8AFA1EE6642D53418086
311
C03C47C377910F75F7E8F5EF665F70B60FFB22AEDF897D119E8423C773E819A3C1E55E550599EE6EDCA34D0C86FD72057DF2CD46F16A470682471C164E4346D5306BF12D7D12D82CFF673D41636C347443FEB51B50D72EA171A8E4A58623A4A16E0FA2B8B10A0D23268D87C33896EE8FB73305A74BF224EDBADFA0BD674AB3
311
54D63DB7BD5D83426761C077DE767728235446A552754EB93B755891C3C4CC6CADE37CF0E912A7BB38DBA010F9DE1282EDF470CA69A9CDA482E334C4A6EA4107987980B17E72F31730EBF88BBD39E7C629F56797A3C0009C2C5AE7951D9A05A02773440F02EEB4DE396A3B6A570C72CCFBCD823B0B8ED3F1D5CEDDFED772FA
311
70236C83FB7D86C385D570B87107535572A60A96035F8F7C6A7192F13007246BBE0521855E6AC46F3E27689CEE7D186A6FD679D98CDCAD13333E04EBE7ED6F55FF01504B030414000608080067721B4B6180134D5F0100006B0300004500000033463445303634372D323646382D343043462D383436362D41324444373141
311
39344344452F536368656D61732F52656E6465724D6174657269616C536368656D612E786D6CA5934D6FC2300C86EFFB1551EEE343DBA41D1A103009551ADAD40EAE28A4A68D9426284961FCFBE5A340113B2071746D3F765EBF4DC6BFB5407BD0862B49F0B037C0082453059725C18DDD3EBFE3F1E829991803366715D474
311
942CD30FB4A782E00C64017A412D684E454CE3FE28995203B162A6EA5AC94B66997D225E109CD63B0135484BAD1B3C07E9080CA35DB3119C11BCA5C200461A68A1A438126C75E3E230D40FF81FB3F03C91D1E3A3A0AF79FE28E25BC39EC3E17E4C2A2D94A0833A51AF55BCCA7D88572FCBAC529C4140B020FC3AAFA886621D
311
CED7EAD7664CC86024E806DC297DA1BB393E4156543457A4537DB8817349A70F8ACBF09B3EEE2CB2F33E91B65D60786E4E3B39B77E3FEEEF5650424525DA657FB8B46BE6BF064646F0A0F7327C0BC1BC1B4CBBC1C419FA3CCB23500007872A2580CAAE5461865565294E4EDB4617B62FF579DF9A5B2F54E834076A597573A0
311
20912FED777F9B3F504B030414000608080067721B4BDD3A4C4451000000570000004700000033463445303634372D323646382D343043462D383436362D4132444437314139344344452F4173736574446174612F41737365745461626C654F66436F6E74656E74732E62696E536160603072753133B27435D3B5B43036D1
311
35317734D7B5303037D03533303375333474333136771502AACB4D2C492DCA4CCC492C28484D2C4ACC4B4E050A82012F90744FCD03CA26072767A4E6260200504B030414000608080067721B4BF865834058000000680000004500000033463445303634372D323646382D343043462D383436362D41324444373141393443
311
44452F4173736574446174612F53747265616D56657273696F6E5461626C652E696E66558CBD0A80300C06F73E4B117FB66E451741D041DC5BF98480A492E4FDD18EAEC7DD4555D89EF28DF51A0B1BD8340C4DE7DD848B988C0ACF0649566493F2408C508DDEBB99D5129FF8F1AF8CF5B9503E20FAE5A16B5AF702504B0304
311
14000608080067721B4BF4F8635F38010000A20400003600000033463445303634372D323646382D343043462D383436362D4132444437314139344344452F4173736574446174612F636E782E786D6CCD94316BC3301085FF8A1174B4648740D2202B9476C9D44243876E17F99C88C89291CEA5FDF795120F2D299D32643D
311
BEBB7B7AE89D5C7FF6B6F8C0108D770DAB79C50A74DAB7C6ED1B3652572E59B15632784F3F305638E8B161B9CC94DC073F0E53A9C50E469BABD6B8E3547C8811690B3B8BCFDDA377848E222BB485181B16F5017BE030926F311E790B04BCE601A31F83C634894C8FD3241D10085BA66655BD28AB65395B6CEBF9AABE5FD5F3
311
772932A9E4CE7B3BF1262D0B7EB89B55FABC97A94A8A0C2839063351F9354CFDA592EF8C9322914A460AC995A983BE86D401C3608D064AE609AF09A94C10422FC519565264177E79F1849D7126B76C9234201F5E92400C64F0063DF94FEDF5BDD9B848E034DEB223971AAFEFC3EBE917BD9D6379CACDEDA5E5522337AEBB42
311
56C4E99CA4E8E4EBA2BE01504B030414000608080067721B4BF592AA65E7000000600100006700000033463445303634372D323646382D343043462D383436362D4132444437314139344344452F5265736F75726365732F32454436323945362D393833342D343741372D383037302D3630363546313146343337452F7468
311
756D626E61696C2F302F636E782E786D6C4D90C16E03210C447F6565A9C75D962852D288253F91532F15659D2D0A8B1198AAFDFB42CB21A7B1C64F9667D4F57BF7C317A6EC282C20A719060C965617B6050ADFC7330C57AD12113F613004B3E302CD06ADB64425766BC5BB29BEB9DE854737370C989C7D8F6183C17A93F302
311
D97EE26E26539856CC8F69356C263925CC5492C57A80DD8EFD804D681857D087599EC6F93C1E4E3779BCC8D78B3CBE29D148AD3E887CE75D604C145F0EB3A53A86FACFAC4403B42AC975AA8500FDF49C1275A955E654F377887F62854C8CDE59C3B526419691C70AA1D995F887B5122D6F95BF32AAB66EF42F504B03041400
311
0608080067721B4BA233C2345D000000800000006500000033463445303634372D323646382D343043462D383436362D4132444437314139344344452F5265736F75726365732F32454436323945362D393833342D343741372D383037302D3630363546313146343337452F7468756D626E61696C2F636E782E786D6C4D8B
311
490E80201004BF42E6EE76F3C0F216234B883063108CCF170C074F95AE5473F5C4C06E932E4F28601967600677D21E9D8092EDB002539227A2FCCB80E1168D80A6417297A89C5D6963B7129A0D1E8F2EE73AA7B62BBEB8B27DE50B504B030414000608080067721B4BBE89762363000000880000005B000000334634453036
311
34372D323646382D343043462D383436362D4132444437314139344344452F5265736F75726365732F32454436323945362D393833342D343741372D383037302D3630363546313146343337452F636E782E786D6C4DCC3B0E80201004D0AB90EDFD75167CCE820A4A845D83603CBE602CAC26799919AEEEE0D965E2E90805
311
0C6D0FCCE04C8BC355404EB6198129C92351FAD580A10E464065907C8D948F8F166375F655BDC3FDC3B4E530A176BE7057BDC43B2A593FE403504B030414000608080067721B4BBE1834187E000000A30000003600000033463445303634372D323646382D343043462D383436362D4132444437314139344344452F526573
311
6F75726365732F636E782E786D6C4D8CD10AC22018465F45FE7B4B375307EA0872EF319A1BD2A661337AFC3476D1D50787EF1CD57FB615BD5D7AF91834D01301E4C23D4E3E2C1AF23E6309A8372AC5B8FFDD008571731A2A06A39614F3F340939BC7BC56BAFAF03860636FBCE92CC79D6C1966E22AB02482604EF865A07460
311
ADB0C53857A5CCAF57B6E6CD17504B030414000608080067721B4B4BB28F710C010000550300003400000033463445303634372D323646382D343043462D383436362D4132444437314139344344452F536368656D61732F636E782E786D6CCD93BD6E032110845FE58494F2E03859B26371B848912A4D922A1D81B58D0CEC
311
899F2879FB8073852DA54B0A7730FAB49A1958B1FBF4AEFB80982C8689703A900E824663C3612225EFFB0DE9765244C47C81912E280F13693291E210B1CC8B6460AF8A6BAAB3E1B4880FE83D86177D04AF48A79D4A6922E97CA5AA6434904ED4A8AC28A7111296A8A14EC8D6C332414750190C91E3C0D7FDB0E9C7F52B5F6D
311
F9FD96AFDE046BA414EF886EE16DC81071BE1B078DF518AAA141B0064851A25DA89682C84B77B4F6215825A44839D61616327FCD9554F3ECAC56B996C5CEE00F23056B61AF223F428068F5AD66BEB2F76FA19F2118884FF5A5A255EE56B3FFE6F26F15B0F306D46FD016427E03504B030414000608080067721B4BE3603EBE
311
7A000000C20000002C00000033463445303634372D323646382D343043462D383436362D4132444437314139344344452F636E782E786D6C6DCD410EC2201085E1AB90D9DBEACE05D09878023D01A1D34A8419C380F1F82DA68B9AB8FDFEC93C3D7C52546FCC12980C9CBA232824CF63A0D9402DD3E10C6AB03A3397DD1928
311
72090D3406ABE7CCF5B5D18893ABB1690CF4DCF02282E5EA8A5BB96FFE536F285CB347F95BEFFE81C9ED5AFF9D5B1FB575BB00504B030414000608080067721B4B5D7B26DE7E000000A300000007000000636E782E786D6C4D8CD10A832018465F45FE7B376B620ED488CCF78865212B0D97638F3F1D5DECEA83C3778E683F
311
DB8ADE36BE5CF012AA0B0164FD234CCE2F12D231630EA855228670FCDD00F971B3120A06259618D27EA2C9CE635A0B5D9D7F9EF066E840186D70CD0CC794F40673CA18EE6AAD9BAABBD35E0FD9B81625CFAF97B7E4D517504B030414000608080067721B4BCA1DF9C9A900000073010000130000005B436F6E74656E745F54
311
797065735D2E786D6CA590410EC2300C04BF12E5DEBA70400835E500FC800F84E0B411AD13252E2ABF27A55740421CEDDDD9B55CEFA7A117778CC979527255565220197F75D42A39B22DB652EC9BFAFC089844F65252B2630E3B80643A1C742A7D40CA8AF571D09CC7D842D0E6A65B8475556DC07862242E78CE904D7D44AB
311
C79EC569CAEBA537E3521C16DF5CA5A40EA17746733E0B6615DE7217475F386F18B9481C510F1F021CD9FF027EA0E1F5C4E609504B030414000608080067721B4B3DEE336E64000000790000001B0000006175746F6465736B2D64657369676E2D7061636B6167652E786D6C35CBC10E83200C00D05F21DCA56CA76D41FC96
311
062B120735B69A7DBE268BB7777961F8D5AF396893C2ADB70FE7ADA196782C2DF776D7A97B5933C430F15651E5469C55D70F80A4992A3ADC954792C525AE70A1E4D6AD9816CC044FEFDF01FE3FDE907802504B030414000608080067721B4B16D2F90BF7000000960100003700000033463445303634372D323646382D3430
311
43462D383436362D4132444437314139344344452F4173736574446174612F636F72652E786D6C8550CB6EC32010FC156BEFD840A9E344982896F3073DF58630715162B07854FDFC42EC4AEDA9A75DCDCECEEC0E3F7F2D8FEA53FB609CED81D4182A6D959B8C9D7B48F1863AA8CE827BE7E22F1A54562EBA870283E0B37769
311
DD21E56CD4B6A0D64D7A0765083A42A51EB9E921A80FBDC85AA69819E15EAF52DDE5AC6B526F3CC15332D3BE6AA6AC666E467B10174C87D7168F888CB4458C328A3A8607C42E03BB5E096EBBE3C09BB22C7834CB8FBBF25A463D81A0981C10EE103DBC117622C71361EFBC294CC143F4F9E7DDB47C97EDCAD5A38C9237DBF4
311
8F6A5AA7FF5593B1F185EEAADB460041F291CF81E04D4929976784B99644C537504B030414000608080067721B4B4AE0A4EBF20000008E0100006800000033463445303634372D323646382D343043462D383436362D4132444437314139344344452F5265736F75726365732F32454436323945362D393833342D34374137
311
2D383037302D3630363546313146343337452F7468756D626E61696C2F302F636F72652E786D6C8550CB6EC32010FC156BEFD840A9E344982856F2073DF58680B82831583CAA7E7E2171A5F6D4D3AE66676677871FBF967BF36942B4DE8D405A0C8D71CA6BEBE61172BAA2019AA3E0C1FBF48B068D938B19A1C220F81C7C5E
311
374879978CABA8F3DA6CA08CD12468D4BD342344F56116D9CA9C0A23DEDA55AA9B9C4D4BDA274FF09CADDEA45617377BB5268038613ABDF6F88CC899F6885146D1C0F084D86962970BC1FDB09F7857C58227BBFC6C57C1C86434088AC90EE101D1DD1B6107B23F10F6CEBBCA143CA6507EDE96D6EF4060DE3DD13F6E79D5FF
311
BB65EBD20BDDDC9E8A088294E31E03C1BB9A4E298FE84AAD498A6F504B030414000608080067721B4B761CC809F9000000960100006600000033463445303634372D323646382D343043462D383436362D4132444437314139344344452F5265736F75726365732F32454436323945362D393833342D343741372D38303730
311
2D3630363546313146343337452F7468756D626E61696C2F636F72652E786D6C8550CB6EC32010FC156BEFD84069E244982856F2073DF5463171506CB07854FDFC42EC4AEDA9A75DCDCECCEE0E3F7DCD53F5A97D30CE76406A0C95B6CA0DC68E1DA478432D5427C1BD73F1170D2A2B67DD418141F0D1BBB46C9072366A5B50
311
EB06BD8132041DA152536E3A08EAAE6759CB1433233CEA45AA871C754DEA9527784A66D8A466C86EE666B40771C6B47FDDE10B2217BA438C328A5A867BC4CE3DBB5E09DEB5879E37452C7834F3CF76E5B58C7A004131D923DC22BA7F23EC480E47C2DE7953988287E8F3CFDBD2F21D88784FF3879566E2CD3AFDE39A96E17F
311
D7646C7CA19BEBAA0820483EF23910BC2929E5F28C30D792A8F806504B030414000608080067721B4B9D1919B00C010000B10100005C00000033463445303634372D323646382D343043462D383436362D4132444437314139344344452F5265736F75726365732F32454436323945362D393833342D343741372D38303730
311
2D3630363546313146343337452F636F72652E786D6C8590C16E842018845FC570470159D40DB2D1E83E414FBD11652DD9158C40D3C72FECDAA43DF5F49361868F7FF8E56B7D649F6A77DA9A16E01C814C99C9CEDA2C2D08FE066B905D04DFADF5BF6C203372552D4832107CD96DD80E69B2C62B935463677588D239E54136
311
3DE2A1056EFA50ABCC65F0D1E1EEF926A7BB5C548EF3974FF010F47C44F51C5FD337AD76203A44FA134303C4036190124A604D510F69D7D371C488D54DCF8B1416DCEBF5873EED4A7A35034110AE20AA21A9DE303DE3E68CE93B2F925370E7F7B8F3014DDB45FB3830D28C0C36754921ADBA0AD6A842902176BA627CA56535
311
F2E215FC030CDBFC3F3068E34B72005F0907048EFF7F5E085EA402E378B61B672A5B7C03504B030414000608080067721B4B828E9E56F9000000960100003700000033463445303634372D323646382D343043462D383436362D4132444437314139344344452F5265736F75726365732F636F72652E786D6C8550CB6EC230
311
10FC9568EF4E6CD785801C2322F881AAA7DE2C67010B62233FAA7E7E6D48A5F6D4D3AE6667667747EEBEE65BF389215AEF06602D85069DF19375E701723A911E9A9D92C1FBF48B068DD3330E506150F21C7CBE2F90F12EA1ABA8F3132EA08E111334E6569A01A2B9E0AC5B9D5361C46B7BD7E6AACFD8B2F6C95332673B2D52
311
3B15377BB21840ED291F5F57F440D881AF88E082935ED09188FD288E474657FD66945D152B99ECFCB3DD04D40927509CB235A13DE1EB7726B66CB365E2437695A9644CA1FCBC2CADDF817AC3E873301865F79CFE71CDF7E97FD76C5D7AE18BEB531141B172E463A06457532AE51161A93551F50D504B030414000608080067
311
721B4B00F46528F6000000940100003500000033463445303634372D323646382D343043462D383436362D4132444437314139344344452F536368656D61732F636F72652E786D6C8550CB6EC32010FC156BEFD84069E244982856F205EDA9378489831283C5A3EAE7176C576A4F3DED6A76667677F8E96B7A569FDA07E36C
311
07A4C65069ABDC60ECD8418A37D4427512DC3B177FD1A0B272D21D1418041FBD4BF3062967A3B605B56ED01B2843D0112AF5CC4D0741DDF5246B99626684473D4BF590A3AE49BDF2044FC90C9BD40CD9CDDC8CF620CE98F6AF3B7C41E4427788514651CB708FD8B967D72BC1BBF6D0F3A688058F66FAD9AEBC96510F202826
311
7B845B44F7EF841DC9E148D8076F0A53F0107DFE795B5ABE03F1B6DC1978B3CEFE78A679F8DF33191B5FE8E6B92A0208924F5C06823725A35C9600732D798A6F504B030414000608080067721B4B42B9134402010000D70100002D00000033463445303634372D323646382D343043462D383436362D413244443731413934
311
4344452F636F72652E786D6C9591C172832010865FC5D93B2A86AAC920994C8C4FD0536F543686490447B0D3C72F543B6D6FED09E6E7FB77F977F9F17D7C246F383B6D4D0334CD2141D35BA5CDD0C0E2AFA486E428F86CADFF814162E4880D4419041F66BB4C9BD45BE3D144D558859B289D430F49FF0897065C7FC351A672
311
F18170F77492FD5D0E98D274E504F77AFCB2F6334A8F0A4491D38AE43529AA67CA0E747FA0EC856791147CD1C6EF8AAD198EAFA8123BF91009C413CFD6D7402D5A6D8C56E18FFAAA7106B1EBD8252F59458AB2AB09CBCF1DA959599253D1B6153DEDD9B9BD8422C12CB8F37398CC5624CEE0AFF6D5F82BD932A97F265B1D0E
311
04FD0E95C5310B9E7DEE209C7125E203504B030414000608080067721B4B55508DC006010000B201000008000000636F72652E786D6C8D50416EC32010FC0ADA3B3650EA3811268A95FCA0A7DEA8210E8A0D96C151FBFB42EC4AEDADA74533B33BC388E3E738A0879983F5AE015A1040C6755E5BD737B0C42BAE011DA598BD
311
8FBF64809C1A4D03190629FAD92FD30675DE45E332EABC361BA84230115037A44703A1BB9951156A894911EEC5A4BABBEA4D418B552745B4E3CF6A371B158D06C908DD615263B67BA3FC40F707CADF459995522C8BD59B95D5C9DD5EAD99419E086B5F2B72C6F4CC2ACC1967B8E6A4C5FCD4F2CB8592AADEB7A2CCCB528438
311
A73F6F4752CE88827A645F51AE94141FDE0F9B2085D2C8BBE10B24116526FE845E26FD8FD0D6C517B61D5C3702489A023D89649C1B4CE3596F9AB96DF90D504B0102140014000608080067721B4B2E6A4FAFDB000000200100004F000000000000000000000000000000000033463445303634372D323646382D343043462D
311
383436362D4132444437314139344344452F4173736574446174612F446566696E6974696F6E4974657261746F7250726F706572746965732E62696E504B0102140014000608080067721B4B673B60E3EC0000003002000045000000000000000000000000004801000033463445303634372D323646382D343043462D3834
311
36362D4132444437314139344344452F4173736574446174612F496E7374616E636550726F706572746965732E62696E504B0102140014000608080067721B4B88E57597CD3F0000904100006B000000000000000000000000009702000033463445303634372D323646382D343043462D383436362D413244443731413934
311
4344452F5265736F75726365732F32454436323945362D393833342D343741372D383037302D3630363546313146343337452F7468756D626E61696C2F302F67656E657269635F706E67504B0102140014000608080067721B4B28BB58AF800100009E0500003D00000000000000000000000000ED42000033463445303634
311
372D323646382D343043462D383436362D4132444437314139344344452F536368656D61732F436F6D6D6F6E536368656D612E786D6C504B0102140014000608080067721B4B2CCEBD668A040000E01200003E00000000000000000000000000C844000033463445303634372D323646382D343043462D383436362D413244
311
4437314139344344452F536368656D61732F47656E65726963536368656D612E786D6C504B0102140014000608080067721B4B6180134D5F0100006B0300004500000000000000000000000000AE49000033463445303634372D323646382D343043462D383436362D4132444437314139344344452F536368656D61732F52
311
656E6465724D6174657269616C536368656D612E786D6C504B0102140014000608080067721B4BDD3A4C4451000000570000004700000000000000000000000000704B000033463445303634372D323646382D343043462D383436362D4132444437314139344344452F4173736574446174612F41737365745461626C654F
311
66436F6E74656E74732E62696E504B0102140014000608080067721B4BF865834058000000680000004500000000000000000000000000264C000033463445303634372D323646382D343043462D383436362D4132444437314139344344452F4173736574446174612F53747265616D56657273696F6E5461626C652E696E
311
66504B0102140014000608080067721B4BF4F8635F38010000A20400003600000000000000000000000000E14C000033463445303634372D323646382D343043462D383436362D4132444437314139344344452F4173736574446174612F636E782E786D6C504B0102140014000608080067721B4BF592AA65E70000006001
311
000067000000000000000000000000006D4E000033463445303634372D323646382D343043462D383436362D4132444437314139344344452F5265736F75726365732F32454436323945362D393833342D343741372D383037302D3630363546313146343337452F7468756D626E61696C2F302F636E782E786D6C504B0102
311
140014000608080067721B4BA233C2345D000000800000006500000000000000000000000000D94F000033463445303634372D323646382D343043462D383436362D4132444437314139344344452F5265736F75726365732F32454436323945362D393833342D343741372D383037302D3630363546313146343337452F74
311
68756D626E61696C2F636E782E786D6C504B0102140014000608080067721B4BBE89762363000000880000005B00000000000000000000000000B950000033463445303634372D323646382D343043462D383436362D4132444437314139344344452F5265736F75726365732F32454436323945362D393833342D34374137
311
2D383037302D3630363546313146343337452F636E782E786D6C504B0102140014000608080067721B4BBE1834187E000000A300000036000000000000000000000000009551000033463445303634372D323646382D343043462D383436362D4132444437314139344344452F5265736F75726365732F636E782E786D6C50
311
4B0102140014000608080067721B4B4BB28F710C0100005503000034000000000000000000000000006752000033463445303634372D323646382D343043462D383436362D4132444437314139344344452F536368656D61732F636E782E786D6C504B0102140014000608080067721B4BE3603EBE7A000000C20000002C00
311
000000000000000000000000C553000033463445303634372D323646382D343043462D383436362D4132444437314139344344452F636E782E786D6C504B0102140014000608080067721B4B5D7B26DE7E000000A3000000070000000000000000000000000089540000636E782E786D6C504B010214001400060808006772
311
1B4BCA1DF9C9A90000007301000013000000000000000000000000002C5500005B436F6E74656E745F54797065735D2E786D6C504B0102140014000608080067721B4B3DEE336E64000000790000001B00000000000000000000000000065600006175746F6465736B2D64657369676E2D7061636B6167652E786D6C504B01
311
02140014000608080067721B4B16D2F90BF7000000960100003700000000000000000000000000A356000033463445303634372D323646382D343043462D383436362D4132444437314139344344452F4173736574446174612F636F72652E786D6C504B0102140014000608080067721B4B4AE0A4EBF20000008E01000068
311
00000000000000000000000000EF57000033463445303634372D323646382D343043462D383436362D4132444437314139344344452F5265736F75726365732F32454436323945362D393833342D343741372D383037302D3630363546313146343337452F7468756D626E61696C2F302F636F72652E786D6C504B01021400
311
14000608080067721B4B761CC809F90000009601000066000000000000000000000000006759000033463445303634372D323646382D343043462D383436362D4132444437314139344344452F5265736F75726365732F32454436323945362D393833342D343741372D383037302D3630363546313146343337452F746875
311
6D626E61696C2F636F72652E786D6C504B0102140014000608080067721B4B9D1919B00C010000B10100005C00000000000000000000000000E45A000033463445303634372D323646382D343043462D383436362D4132444437314139344344452F5265736F75726365732F32454436323945362D393833342D343741372D
311
383037302D3630363546313146343337452F636F72652E786D6C504B0102140014000608080067721B4B828E9E56F90000009601000037000000000000000000000000006A5C000033463445303634372D323646382D343043462D383436362D4132444437314139344344452F5265736F75726365732F636F72652E786D6C
311
504B0102140014000608080067721B4B00F46528F6000000940100003500000000000000000000000000B85D000033463445303634372D323646382D343043462D383436362D4132444437314139344344452F536368656D61732F636F72652E786D6C504B0102140014000608080067721B4B42B9134402010000D7010000
311
2D00000000000000000000000000015F000033463445303634372D323646382D343043462D383436362D4132444437314139344344452F636F72652E786D6C504B0102140014000608080067721B4B55508DC006010000B201000008000000000000000000000000004E600000636F72652E786D6C504B0506000000001A00
311
1A00210B00007A6100000000
310
504B030414000608080067721B4B000000000000000000000000370000006662782F41414131323845442D313833462D343236342D423630452D4337304133334534454541442F617474726962757465732E62696E504B030414000608080067721B4B000000000000000000000000350000006662782F4141413132384544
310
2D313833462D343236342D423630452D4337304133334534454541442F76657274696365732E62696E504B030414000608080067721B4BF270F1330600000004000000360000006662782F41414131323845442D313833462D343236342D423630452D4337304133334534454541442F747269616E676C65732E62696E6366
310
60600000504B030414000608080067721B4B88E57597CD3F000090410000420000006662782F41414131323845442D313833462D343236342D423630452D4337304133334534454541442F7265736F75726365732F322F305F67656E657269632E706E67355B773CD4FF1FBF73E71C0E67EF7576C9DEF3EC995D46C6A1EC50
310
46649CBDF79E192942562825CE965D8A868C2842C8DE9FDFD1F7E7F138F7078FCF6B3F5FCFD7EBFDFEC41B196891913091804020321D6D7513FC77D8C5070EC3FFEE51B21F068154CC75D455CC028A3EA68992803810109FDDE5D5CEC5521B28A1B422BF80741695D5B529DA1C2D058AD2388BDA9F476F7C2CADC939304173
310
DBF48A452BF8A700C0C70C3D121C1AA15A5270C22E2B9E28763651F7DA0D12CE11077B2ECD0D560B5E3DE2368B1E65C5E1C87384A4CC5F2D9FB8BE39E9B77C753783A37998F5CEF1B4FEE553463245C9712270880DF339E0B882A6BA713D865F6F384C842D440934EF264F4A304F8DE4EEFA1E2BF5E2D91F5ADD9613D6E31D
310
DB33ED31DB1D7916CAF091286EA3D31B9CFECB78BB0060245B943C4C040119FF780A74DD308BA9D028678674EB5504ECF284EE814DAED07440BAF649BE4B55DA2890F4D73E2D489A59EE54FDB0A85B59F2F52C4858A02705C4815A792B0C4A996A2023ECB195073E115E3E3647F64243A8338F2000BCB58DA5692C7E7C3D41
310
3F963FEDF3CF00FBB0F831A9D51360FECA43819F527B89FA260EB63C5DA676830AA3626A3693B23F1A17A0DFFCE3EE164E31B5365EDF0C89EF64D8E38AB0BA9A1117D7C3A0EC44F44F4023095E80BA610DE336D0F99593A88BFC5306E72DF98F7FD132ED95878DF2964EA7E43071359FD83B2BDF9C6B5BDF768F0F3C0FC351
310
199526F53D9460A34511F75D1B63E488178569472C91A94497807A3FD4A390C6558F26D416365C3656DE6E769DA9D8FC73774E1709812842DD8EF96AED1960F79D21B395CDDFE6F92CB4EB962A4668C76990E2EF29798C8941D67DA50F4A5F947872460F1F6FDB794E8A29FD7AC0C0D6E0714339CE258FB17AE8535221E346
310
4A10F29A0BE5EEECEFC5675926A89F49EB14E5711894F6586DB5754EB4D5DA9C6437EBA57DB97A24F8B8A8DB295FFD73266CF57E82694DF5166DDF93573AFE9C9C5EB05F8FEF8E89E0A8917B0B3724DB7BEBB53252581EFC3E38166BA131A3A5B42FE2AD00A769BBFA4458D2DE7822F8C4F63D0B8E21B285AE13325F3410A4
310
35C648C9D91FDEB109E73CEDA7BC796961AF79175E1A3CE4C5E8B0D009B0C9E29EFD98BC8E97554E3D8D838424E270F7685226E5AC268E021EDE3522D583E8F20C0BDE2959EF5BBFEEDAB32FE9A3ED0E39F211A86AA9DEBFC68182EDED132AB8BB794442D2D7EA9F4D8BFF52BC4D55BB165124EE90A42D101E67BBBB292FFB
310
4F66DE5BF2300E44546757DA7CEF8932BFC9F92A0707953491A55C5A5ACEDABD9FA1AEA01BAC3DC5A24E22E7C47213493996EFBC369D086ED9397C9BA6C7F9855C7BD5E15BFC8C53DB3D2A4C5901A57ACD2FBDF4D1676E95338B2C2BCE65FDA4C64F5FEFDC7D9CA5AA1FCF11E193F2FDABF0F4916BF13FB916A224380E6462
310
A9815F2300DC49CC4DF8D055CEF76462F4B7A7ACA7365C2707891370BC1D0AA6203C44CCAB47084FEC057F27FFCD57F89B8B9852459798A675C66BD7CE572CAF71FF7E6D7ECF7BF62CAB7B3F1107DCD04DC55A3F9961700286141C94A4F771FEB2BCDA2DDEE0CB0BAE402FF1DB0100F8E475DFFFC074DDB4498AB7D186A765
310
4DDB1CB680D703D47CEB4E72F8CB13D86A4AA68116E26387B93FD6738779B34FEDB8E517EDF2BAF28D9BE93A1D3A164320E07D42E514725C29515FF361754213EDE06B079A2E99EB1CA82A02019EADEEB87B9AF005BD04BBCECB14AACD6B24EFBE482194A97DD32400685FF1FEF1544D1B14EFB1E7F08E6D2CD2AF52DE757F
310
35F5E62332EE88EA26417AD5C3E0E319D68F25414E6D672BD4522B278C57D18F0113921C71D96527E091F00CEB15AE23D24667369BD3CEFA10C7549D930890BA4366F4EBC55F01F746109F98ABCDD5A3EE06619C6AD78AB33E48E4C9BD21BF7478B385EC05C4F8987E2C1BFA0A60EBEDAA0AE0B015C2720ECE180FB6F2DEFB
310
EB822D96338C9B63822183BBF52FB664A7AE57003AABCE512BF77E7E31BDA2E739AC4C131657DDFE5225E900FB56CC01CDE808FA4A9C9DA16AC679656BB64796283D89812B8F91136AE18EE5EBBAF47A73BE3C153EB5D4CD491B4BFB4FE690A4CF9ABA08C0D8AA64220C438C96EA6CA80B58FE5761E697B3A292EB9FBDA502
310
FA863E49FE694ADDFFF9D62C520BDD1A22014147A0903A05B9B729F54272EF83931FEEC057BFF8C8055C279EAC5C0011804828734024F6CFA319C9CC6867C727184465CD9BB7ED386AFFD96B294A85E3802FAE47244602D8273615952B98C4F23F7EAE4463D9D638EEE374A20959E0FE519C4CFB0FBFE5DD80C2AA3F9DB961
310
D1BDE57E67C9BB47B77FDD74EE3094F5DBBE3EBC1FBDB7393F5116263009E2EFE1AF9A221B2AE234C902BF70E9F280ED23E73908361565964333A3F01D0B006AF32FB21AA1316744B489D5A198E85299241735BE559675130955C902A8ED761FC0DBE337A9F91919AF5CE32AF902ADF9AB2615E00E8A94586BA1A90839B618
310
32FF1BFB76D2EFADE6DB1BA04CCAD3DA649E7E2A0219F592E22F2AD54847EEA8E42271011E9074F8F3DD9FBA6CDF88FFC9FC7E811AD1CA8F4557CE4AFC7BBEDCF0114A48689F20A584520C74DA8127124B767E2FB91A6B186246727BE63C9445BAE02088D58B8EFDC0F1072407CD9B89A13F6303B4A928F593AD489B58E686
310
9325790ADC406036C591729FE14021F94B7796BB11848D463536A092A26F077F94639F7CEEE2A724C66EC885F4A24F8B8A0AC321F8FD149BA529460FAA34E4663C02D41FDF80BCA222D42F0ABFF8490F4FA74C673807C2051D8E467B47B616072860069A9A303ABA9B319D58404461401B0A0F9BE5E1E151C14BC33B32ABE0
310
3DDE91708DFAEB15E7C0D593C86BB7D7EC17BE56E57975F077BFD5525F3A1A361D584A75E08CF29FC7B44B2B3085014F3A5A14517377C3F6B8F37E59514C3B12F8AACDEDDA4DFC49BE5710101534CD6FB6DE15B50F11A09472AABA727F0C49D9CB906B158030065F48EB3625E010CEC1D511D0053474B11E6A4F01C0D6EF1B
310
ED3A944FDEC70E0DDCDC756C86545910E0DAE3BE3AA9A404574C2995CD5CAF9549226BC94B4F4F0F5F9086F418F6B32346464610D8BC7391D3C3A3CCF04CFC1FB2A3A3170E369511868F14EEA4E5E438CC73DB1F3248AA94B6B2FF33B222FF3D1E7BF146CAD229770158063BCE4F5391964DF62F7E52A7BE0EEA829C9E13C4
310
C147D6F93FE59E111DAB5E4594D6F3CD1AD375EE039930EFE5AF2BB2D41C83C7DABD8C659BAFBE8FAB392CA634F3D15C1D945DB4588D2B0824A4EC928AAC565557CA2F0DAA588CA5BE30B3A8004F7BF005E96CBF891D7F18112A3619FDF530DC8AA64954258E1811789B5189B49B4EB53F5F89F7D37523894F3EB57B373763
310
C91E502F52CC99EB7BDDF933FC324C4FFC2561DFFA7339FAFDD0A4BFBE6D3A8FF9ED1FC49898139864602458968913181918F719CCF5A68B2EE9C1FF050E34E63107003B8120FA982C21B30A874E4F5E4B38D5A8290C4B8D9BE48A0BE31EA995BDC37AC6DE90BA17D259DEF53605D55922FEB1855D915B659FBEB350EE0DFB
310
2F9F766E1C84CC8964B75D08667445EAB966015F63A18A9E0A325C1B3DC628C0D3CB60F767FA93CC65F25458BD23C3B312716E5F40E5858AC06EBA9AB14F95DB99147B832069201541D09A0D856E12C629CF32683760EE855537D1901988D5EBC156676C7DD51D7207CF3267AF1D76C2AD867315E44618015313A98B19941C
310
696FED3461CAA9B5415F918556D7802EDACEFD6B2E45853A9735DFC9DBF7E440F9319F8B6805A973BCCDC76C069A9144E51F187EDCC12FC31B5DEAAF0A76137199B106EC84ADA6B6EE697D4E6A96E007417F4E880E8B1E89B4BCE9D81EF611E2ED8F0C1A6C25F620FAFAAB656A7C42D464880E8AFAB0E0FC8EA38CA9A8AEEA
310
EE3E4648BA4680270A89743CDD3E6C6CBF34B7B640EFA285ABC7EA0A1E28F3CC963D114A80123EE66D0AF7D5380EB41909B605AB4765B709B808590458157E69BA1378FEC4B48CAF6A730E3BE3C5EF2DD1A5EAF94B1DDE50CEB55DDFD7EE9A16747FA4B223359FB1FCC69E1194892BABB93A1D5C4E807AC0EA2E30180811E7
310
7A2291F6E7F7FAA5E0F60215BC6024E48DE436C511F0628B8CA189982D4D83CCA17D305A7E923C37941CFDFDCD93ACAF735EF5F0E61BBD3E6C41A59B242790D3A3BAC7064DCD89AA2E37214EC839820949D5CAA31E240D2948E48F690298974A96BA9A8432BC90F5071D6537C9666EA4564796B7AFFFA548077BEEA75F6308
310
3435074BA182F3699557397F71548383FDA8CA34D99B981E72835ECDA5DDDC151315173D05A21F651AAF8524E88209E2E7A737ED1045800CE3390050BCFB8BE588DF111617874C62575039CA588EEFDEFEFE319B739DE2EDC147092A262611E159650E787917885EF08F1F51B8F2D8A71D60B58B190FEF9541A1BE94BC19FE
310
A50784DA1419FE4B0FB51B8D36B5FF8E1286FD8AF42B91E59A5F1CC4D60174E764045FD8C57B18209B217F89A62252BD20BE0E63E12B8E8F029FE19E0E8D0870F58721A557082250D5424F7909369376E41666C0EE77CD87CB283F661D5FB6D0DA023CB67320A20DC7BE661E9E1BFE5463085C557DA1FF9BE835733766C3D1
310
39F2CF9E2208873AD0EB4814DE9E6BF2CAF81614D4D43906ED1C05A3265CABBFE192770FC2F64F940CB6B17B5F166F133C9AEEAD2641807C3E69515171DD74C4A85311513D6EC9530B3B601B6BA3EBFF3B5C3D2F7D69765141E345F75433953D013ADDF8F6AA7DC3F4A7563FE5C7D367937E2900D7EAD0F9FC9A4A1A9B5BDF
310
1FEF08532660C01C5D6DE22199AA774383E306DAB87E301ABB7D213887F9869D4942D0D71E94B27EDF216A318BD488D45DF84529EF575AF3C3938C0AAA0215B01994153E2054A0B894DA5C784980633AAD48576957CF4AEAEAFADC7C587368551C73DBE1E57C58AC713303A8BFC258BD04B51724459FF9E24C03A81E0E0679
310
CEB9B348C0DC998FEB9C6D6EFA77D247CC8F92D3848599ED89A23218D0636465AD1CEEB7DC140D7426F83491C4E8E8281C2FB35240918FFECE880CA2A42D70E8B20B34DF5221C7DB0CF90ECCB9C745B37A47E9B716FF7A97B7A252C1F3814DC7B1E1A7F72B8751D524EF7CAE45B0C73B3BE7D08ED39781B380DDFC9AA4A474
310
9C9493DB5BAD07A6EA6C092FBD0E85DB004DF06B8C9D3089C5320187E4CE1846158C7EA7DDAE8AD9AFFF21AA3A1026BB06A259845E8232DEE62811A4DA9CEAB3A4887320B76E2AE5615EAB7BDF738CBDD01F1E64064BC13D9EC53576751CA8CACD58B3CEB0E6CA585BD089B2A59B9FC101403387AADBDBE70586B93D64BF3A
310
D4453EF9C3B6A93817E8346991798601344F79A83C51F3D50F7BF2683A3605F51A72449489E0EE6169C749C60B1035651103AEE24D24E51A759C840DD3FC6504DA6FE107510E447B43461C79D22970B75DE5E1BD3007D1AFC619A4A4A69B5626AF5E9B8374E20677F77E2F8E73DF868E8BEC7EBA7B6A75EEF7205E1AB9486C
310
B642741D6E03FF13FCCEDB1C4AC129886268B01CDF4B124AF797CF784F3C6DEC97A17D4B558070A0F1C04DA4FF9BDBF34159AEFE958479824B3F58EBD1E19088A2AFDE501B6F2052368A3FD0E650A179EFAB1561E1D27527077136E652676C3670F42DCB3352F48F6BC86D2C3B0051727E41A0A4DC6CE2BE9D47F5CAA2935A
310
3C0539AF080665997194ABECD723B08129CC5B6B21D2E7D54CD4D12610E7E9FB8306771A89576C7A982002775ED44F3F744CF21EEBB27A631671D921938AAEE3EB0D19CD1E083727F607823E817BF599DCED5394E37EEBC2E88782E638920CA641EF74D4CDFCDEF06F4278ECB18E31E7E9876F2D783C8BF429C75395F57E98
310
C2B495A3DA077EB3AC3C158608B6B57FE3EA48484D9A480096FCEE0DE880950E7E5A5714131C5C41AAA29FD19AE81AC145FA1B9E85C7169A5AB837B213493DF7E9AA4B5FBF9CDEB36EBD21EF1181B7CF7366AB2A951D01E37AF4EB835D1BE8C117CFBE7625D2EBCDB0B20C5A4B45CED0BCDE3EE8DA9DA78C2E21DEAAFFD119
310
7E463C33CC6A80FB785669B856EFF7A8CCCA2841B5A5369173320B1170C368B2748D81062EA0296E5E2D95D7667A4A46D98A6FF475C76AAB0A8C8D45E226FAFC9FE0133EA9F60111F99CA81ACE03A1D14C89E8B0D69079C91464FA1D99E651D0EAF606F345C42A8A1AA9BA391031582B96D5B4176A77AADB01F12FD298A75D
310
EEBB2C82F0B8650E880722F8DDD90C56A7A058E5FDEF1AC93545BA27367C76F5D8F9690CB6F8DAE141EDD7971F0FB548A2AE435F224D6E5954CA155512F7332029D5A1230854B79F258EC5FFDB09F5F6343A8EB193229B7F7E79B3E48F8E183860B38C8269D1B53738FF1E0BACF6AADA6D4869E9DE708E79B5DADCC09B1BC7
310
6F649731CFAF59A83FD8BAE4C749D66FA87A3810D4D62FFE826FA400C0F325D2BC0F3CA35F5847B82A2ACC7961745C823E4D863D54460AF792CE6F79B5C7A33B25C3AEA6CDE15A919B6367D781E9D44F61BF828672594A3E1D9EDD6DF179A81F27EAC05B936575D73E05C209DDD2115CFB705DF9BBF3C911589B3640735E9E
310
618FC9C36A7326C82B2205E244C55D56FDB9D5DC93CE958D4BF8174D2B3DA54CB3C09F2C2A6DFF73D23B2197355761AD421EC581284A7EF8DE2CE3497C0C804D49B41DFD6A7360844E5BEFFB495CFCDB97A4595911CDBA623274CE852B5E278AF0BEB1770E9D37CD977B2766A7DED0E94B840E1E95E8C77DE5CB6354AF7871
310
427C28ADBEEF7BA0A28E19DE9ACD75F379FE373EAE6DDDAE3834692F9C2B03B4FCA8FCA9ABE8EEEBEBB725B88A7C90941E850682CA04061A7DF0CE82ED49BFAFFD42C309818FAE14755CAAE78B0F73243ECCCAD7DF58FCB9CDFAE7A4D3E6671A613639130D056C8383C8F4FCF4808C331E544DD26E4755D09EA05253B3049A
310
1E32587CC25D72E073E2CD96D04A71BBCB0038FEC3F53D254199C3CDC67CD66640269431860225392B2CB3ECD0B4498AAE78BA1994246AE1EE78F2EDFB79F6C6CB6B5E279C4D373FBC21CB2698C9ACBBEB6A4BB6B39E16AB0E421CCBFC7654D81ED86022F9BB522146F9F4772E2D0E4FA70120C95A85A417BF5078B232F475
310
4363EB1750B2AC2148EB46B1EA72AD9B4D23ADCBC589D70106C3EC2ABEEED84DFE28E718C6C83502C28E9FDD3B09DA0A6F6F7B72B706A31C9E2A331EE70DA56A083D2177BFD63C55B11D8D949FAFCF90B23A1E24B9B5018B9A17E99F2890EC302F330FE7936E2C23F0D237EC8916F5166AB84B62A21BB0B950146962D754F9
310
2CC2C8877BED8FC7B7B25726DD19545392570B3A2C66B58F027BEF412E552D12A588C4A3CC5C3193FCB3485EFFF700D0B9EEC077754A33DC1FB9E25AF814628F91DDFECB667D3F7690803F38D13F8AE39353523BB08FC6760144AFA2CE28236F65EDBB3D5F59A57D612B99E3D7E5F8A851666BF9B5A6658EFC96EEB37A378A
310
BB0EB3FDDF1303AF32C41BD1C8560745D7BD81066B0D6313359CF488563D3BA3F8E2185D1FAA3EBA1397C9D0E3DD232180A4DCADB6AF25DB3AC3CC26589C8239E66E81547BC7E2F328F9884764CA37EB5DBE390DFC03A5246B456A7C3684C4377D0EEF9A350680FA9A077E8B2957B489E09AB1AD41316944C2254B5984830F
310
691C93CAA767EECF976FA5647538830B5E63236A6F0365C1E0F3E327F24FE35EDDBD7360B0F7374837409F7A6311BECC12B7026D4FA1AE204FA3F5FE904B1F420C7A9044AE58E403E7C4848E7DA25DC9EDAC79DD756FAA26B9EA83ACE8A214A2612A22AFA19DAE7DBAC5F8CDE1292A485F98DAC731A29FE01A3966E96BCB9F
310
B5A4C8830E1B9AF0C54B87FBE221A097036E5D28D1F869F810C06A9BB0AC0612F69AEBAF893C6E7AD59460208BAB3A6B09CA4F6BDDAB8CF0D1F84B72487498395A70DCD754796E271099A567A55CF242BBED64696378BB6CF25EF0FCDB589F3A82F1116D010A9AB9FA4358809EE0C973A2B4229BAA876A70B03AB49CBA7FBE
310
71DB1832FFD32F9BF2C8E98075CACAFB36921235D0F552B6A67E94E094097A5D7DF681B40623DA535ADA7A9AD8E9A62407D7C9A5AE51D62A17A83A23728DE86BB56115804D3F2675F2C6B87541A0FC497BF0CA86420F558C9859EBE9FAD62747E323E3AADC03FDCDDFE7407B09DA90B44E3185723C5381EAEF589765E2F7A0
310
99BA46695BAD60CEF3491B8A171F5F56444F7CE9455312C3498C74173AEA0214EC029833B34B650CBB5A5508D5091665309642791708ECF27CF11DB3D797D6CFE474453BD4BFADB768094B2147814D81C7CBAF8228DCAF5564B5891F5EF6A860EB2E323CB82AB868D8EA048880D63B0DE5341F1B3D53297B928A11E15F25E5
310
148990F710747C3509ED14909C552EBE3973246FCE55D00564D8310BC3EBC5085D08D806799B77D6C57FDF5E55837F9E934F09C03C729271B64F12D0A9F9E938107CAF7BF1EC8CF1BB9B42363D33070F4CACB425E605DDB0A34A12BB936DE286B9887A4E2E558F0886498BFF49C311D96C277CF6A9FC0D75AD0ECC5226D7E0
310
E3572012E56D7FDE4410CEC7A6D0F997F225A2055B8B92E3956E875AE4993CB3D4C9063AF98FD45E1BAB165640A43439A2C9181A7C355B297C0A0CCFFAE19B6FA3C2BA238A885FBC98B8F6DAF4B94B97304878DF4D8BFF6A4AEDF79E90ED4E68F00CD7299F4E0D83E35601AF0CBEF18C1E870E74758FA91F5131075004DB3C
310
FCF09AE1DABC11957FD9808C92E8A678CE9DBE40DDA0E0D1D505AAFBCBA208232BFB6FB3704E8985E61ADE53DE74152F5C7DE74B1DEDCD37DC3E8FB30D7EBA8B9EFFC3606BF90B8D438279CB7709FC7C00D327F41817EEA71CD9E49FE9C8C9A81C70915D9F0F15958EC5AA4C3BBFAF46986B90F188BDB24B89DE3C6F29EC3E
310
6F66D84856EE96A35E657CA41B41EFD8DBFA16AD6E91439EA92B40B21C053249F51AE50EB0B24C770FFAF40DF12C8436366819C48E36547D4E7B72FE2BBF10828583057814A668BDF183F6B2E58DFB151103E56303E63D00F39C27C4661605DB644D19175D02E3F0241E8FC3458D17AAAADB117CE9EEA690D0DB01E634878C
310
04C2C9310B69FCAB831151E3AD293BEF6E46B0ABCECB50F5939B39C613D41E81FAE8D34CAE3C4566B761D37185FE864AC32FCB71AEF39DAA5BAB88609BB980CD2F07A8F941653B529567726E2B2A58D079DD57E1E5E31426CF184A04D7B03B985F276D47406AF276FE32E3328BA866EB1FD39BEF57863A317634AA5FE46740
310
9B3873F5069EF0D71AF00AD189D17BA1974ECDB2D623E9E14086386A6AAB5807825C37B015BFE892AFD154920EC437EB945D958E18622E1E0FE2FA06557CE4BB9BBD05A2D40E774DA2B65473791E314B7D6C886820B2FCFE4AA272B3B8B15E7344A145E8AF919B5454D89D36D413E87211186BF6F645E5EC94DCCE8E1C7990
310
22E4EC9BC86D7A0F2AFB1FC4B2CE48F84B3F49ECE65BAD24CADCC07EFF39AB06BE9E6B27A059938EA7208838455383DDBCFCD967DDE4650EF92A14FF933C975DB20BD7FEEBC4487576485963D757D16340D9599FEB362F775F38CA4185A86F74B629C81B133644A3B18FD056E997E0734F9BE26D11C0AAFC669E2AC9FC41D2
310
81F8B2E1C35AE27BCE05F3DA295488096688719D974DF1B5D182DB7792288697F8763CFB43562C1CDEE11C4AABD5C22B6E33F6F389CFC3477C5919DC0D533F8A7A1846B7ADB60ABDC26C43D0CFC8910B7C15EE22675BD02702ED39DB77A87A192CA7A543E6205B979B9F5A6B512A3CA799E198B2D5797C0AF8D1D872CA455D
310
4D431A7879D4DD76110B5FF7F4176B54477A9EB5E4A5D11214FDA585F0382751D8E2582BA5D2075053298FEB8F1537304E32CB22C2E2B693DC0A760B1DFCA751BDC445AFDCBB12820ED85F6D5298933C7EF1211E9E057684056CDA3FEF3BB6052355E162DF27C59E965A8DDB7F9437EB72CDDA3A090DE65A5B2F50326247B7
310
EC67B73ACC7047FC9B353D6EE990F772207C6EC52B39DC2F3C0754821DAB559F7C1809C7D0DD5B0499D0442E0A6E391B3D5DB46D11E731E6794EC77523FBDAA242ED67F9FA1FB684255671F63C9BCFE6E7E896D51001A6113EF2298BA494E0B0980D1FA5B9D60796554C02256B1E0345FB7C6186B6A19D2DCA270416262845
310
FA4F42DB5D9B0A0B6F07FCA2E56C242522E001E0CEB734AF310FC8BFB57E38E03AACE93B3326A2197891E68452B26A6307FDABFEE0223D3C03C3C73D2D5BC054C8311F12004CAE488E5C29287F8156A2CAA4AD0D7BE6B97264E4139F437CE73ADF52E5134C52B819777C18B323A5924E4F67AFD13B1CDC3A61793A79FAF5C0
310
CEB718E441071E797C6DCCB9EFCF7E4A1E9F3DF3C2F9C9E8294E9586868788C972857FB0556D7A26941A7EEB9B580AD78EC40B85DC906B4120A563CA3B87797ED612D3B035962BB75F6515A393F4CB057F564CDF54F2E5A024514E6A1F901DB80C7E70B1FC05E356A7E72FABF4775B3E3FB8F70A2A8E7B6A94542BB3041579
310
78CCC999E707A29CC795E67A59CC546A5D47B368954CA7B6E75EC9E1F6FC73CE3B4F71F8CB1A6B15923D61EAAEB14626AAA9D04A26EB9C66CD1BE86CA31A5D8703DE04CD1EBCE4F5CCB62F93909AD11E55799A781A956ED27D3E738F4538CB04ADABC7DAEF20BC35BA6A90BCC1DC61BA05F20D8832FFB9BC9B15E2DB838A0A
310
FBB7E0C82A562127E0446894F427794C3037186F622BF24DE1B00AA10A23BFA47B2A180D6DA5AD6F7326FEB8C100C2D7142EB2A0B2A9D1008A09BA343D70E054AB69E2A7EDB783CBD92537FAF4A44D1296AC2792729104B3276C276C951D0CF3CF3F1E6B017720A7B8505A5FF9589365979678C36F1BAF759EAF57C60F1FF5
310
FE9DCF5F8E764FF25A2D06CF25117A8FED51884C13B2B750DB0E4F5E3D64124FCF11F0AD8F1CC3B3DA4B38ED22BF1CB2585EE6BFEBBA63FBFD44F9537B9B37BDD6B358720F98A8125AED4349CCFEB0E135F19E208A04CA7E2B10711185D72E381F448036EF57C9F874E54A971CA37A639E986AC0226DC5AA00D5B14FEA9192
310
234B3DE617814FC221C92F33F1D392F297731B567FD98FD91D989379AF567A65B8ADF177591DB90FBEA99BF4ED11B16E50A0AB1DBF1156D034BBE04D69D08F939D8E92BF525A1DDAFF80ECBC95D8F45D3FDD289FD23F7D8B452F8EBB34EC082DEEE68E18EDDF072060FAD2AB1504DD4879BF67099FC58F6E9DEFBF645D1633
310
4A3E9A127C6F1AF6132CF287E433B43A0EE93812B4AA0B194E03EE3FF91EF9C6ED0074A2F6EB18A96A7C9890B1FCDA1F2095E944DB911ED54C60DF16FB74C8CE9BDC7C54C4F14078CF73C2FFF1F1BBCCD7CF64F71407EA1683DBC410D226627F66E509060D5C0AFD611DE681D509DB8DD12FB1265B03C6F5C55FF4C30BD941
310
87FF692B4F152982502F193098A789526A038AB529A52BC0DC4FB6285CBAC10A8B8DB75DCD9BDABBB221E27D1F8DA9F5EE5926A1C8AA9BA9BC09239C6A7F12914EA3B59EFF7AAEC3FFCCE56F1C5C2980AD072793527565E774F4631DB178CEEC691B1F367BEA0CF2907E1D6B854D527065979DDEF002D8B2ACEA7CE21AE297
310
737EDE1D45B31233B73FEA35BCFDD0B09721FDBAF6432681F2FD10C3E9EFB246FD6E854B344ACC9D8A0EEF876A7314B49B6A499FC650B099D650DBFEC7638ADFD245E2B7839DA5AC5F7D5623FC0ECEEC8653FC9B2BDD1AD4D00A566FBA7186DD3C9CD26512551637498CADB950FEC71ADB9A5524285DE328B8EC7EC75D2345
310
AEC6A27C42AF6D9B92155315C80DBFCABBB7DA0FAE425C4FB896B15C9BFAC4FE67DF5A23D30C93DA4D8F36FB15D100050DA6062E22AEC5F4DAC4F6FEEF97AE05DE63C6D38F9E068A20BC5E3B6BCD75320C5090924E7F93640A7735B1A43451C2D91EE62C6238B797349E59890AF3A520DF4A87095F3ABEC2E61F0593416CE4
310
6CDCBE0E00E2523FCCD04408588B5B6C9DB6459C786CE378770B54F51DA3A5E1DF2A3349BEAAC234A6CF8993B598B3B25B4B113E353A4D750FA7534749430F3EBF2512E7EA3FD43C6AB9A1F765A58463B306721A15D224FAFE8C6F5E3432D57EE697DA0DD5A9D4866A8BCCAAA9DFF1F06047851408FEC060471D0E3EB86BFA
310
F46E4B5E60311DC3E3CEA147C75CF971BE74689507154FF2D2E92F15CDB2B9182B11459FD8ACAC5A85F174BC94A7F4EE4C4F5CAFA7C02E37BF0BC77B7DCD0C047BC316F562A01A441AFA7931CC84A28CB9F4AA367EB515778F29BFE61195FA671F4352E5E46E3A64773F1F76EE5EB36D7BCE9BCEAD837A4D77F8DB8C92AEEF
310
6711920D7C7D0F76B0FD0EB7AB83724CD35BCA7D36DDDF5FBB7FF6F04A91F3E2BB3B8F1A43CD659639507FF6331C5F697BCC782AE57D757A27D97F1AB9E0AEDB43F92F1B2AACDF5FEC8ADBAF9F814E2027003BA2F9E144B1938A7A04050AE5D953B82C45619165C813A10E76DD6906B3C16438064D14CDA713AEC420034613
310
E1AC7241904A49FBF87409AFB1FCB9B72FE7933A87D8FBEDACECE4EDCF6A4FE9FB94D5DEB74FAB7CFEAE17EE965DF980DCCA2D04134994F9A2E94D2265DA4FE6AA7B7AC15FACAC2B5ABBCD7DFF542C5314FDAB2E1B9D8B65220B8E2B638BE008E8DCA22678C820C5053664D15E89F2D735B51A84955E81A443545E9FF787BE
310
0FA700A76D136C27DA179A7C6E8939E01BE756E19CB292798063D8B97F44E8A27BCF3A614FEB8BE974A718E86F7EC99B53CA35FA24F61F2B07266684623A3D4CF073E511F3A10A8FDAFAF0078C577F4DF9D339FE7862E5FA47CF4344209E5BF76D783B1B48E152AD281B15FCB934DCDA49CEC5706B1EE8B460F435324A5CAD
310
154725E21AB8044B75A557A79F6C807B9340AA3D92503E866F4274412926C8C504E4D5EF8C0E68DD0B028781A6B4054F11CF18941F101C57CCC796773ABC8DED9CD91FE5788806C05E548895354AEAC96546D55B0E94A59F148D061F42AA398D822CDECA4CDE79E13469BDCC44FDC990F366BA5978C15F97ED80CBFD73B0CD
310
9B8B83A4F6845BDFBFAF034019473FB9A63BD55D3A4A7284757071574029A4D016DCCBE95DD679EF3C4880BF169422F8C89B68A988D2B13793CAED4F74DE7486C72DC94DF46B8E93D8E02EFCB1FF9B3BA10C8AE7F653DF94F4AF466CDDCEF5776687F7C4C14B63E4EED1719DC2EC482D7DBCC7AE518CDE3D5FF86D39000EC3
310
673C0044E1D308BF05F74D1B5F033A7D1BE7F74BC55BBE3E4A20F920946CA0271EB17BD2B80E5660ACB8A29A79F5E4BBA49D4D945B6EEF4A7EFEAA65E5555BBB57A7E15D2F83C69F30BBB978D2B39F1F26FC097424D39BB33CA3D87ABF64E307938B685BAD44F71556A30B7E712CA4FE600613C3E554B69ADE949A7CFE214D
310
F1FFF05CB82151EC6FC31950239F94CF7AD39DC473F6EA356E5EC2C4EFA04383CEFE985A127484366FBEE3C0EC4FEA363E4F6632AE781392FD45D67B63FB8DF70E82734F431FD3443172A0E30A83D60982D55FA6A2CF86DBA8382502ACC6CDEF3B907982EED1160E14863FA242F9757347E1544275CCDCF71ECD5F8621CBEA
310
326B8BA884AD7F825781923E66971F04010D574C541D8427A438A37EEF8AF88240EED7362C953F5A81DE2D56109CDE2524EA0F5D2F87308C0C47BD97AD605878AB8589E17CA83930CB5E0DCCD75853D68B1AB136594926DE426C367428E9334AFAFF90ECE221BB5DC9E5BB53D2CDEF954EAA9CD814F0E5725F1965DD458E5F
310
8487683AD86B9D0076BE3EE91EB1CECC5331A67A3F79D8B27587C12EC2A6A70474749F27B4C0BBAFB94B34189E88DC18964BE4121B9137FD516C7755356E50D6714E31ACD222621EBBCD1CFF81D87479056A9DA0E0B8EA19D24CF937DA89F78E8650CCBDC110AAB6C4E46DCBFD0446BA9E2060E81F314AC2031E88135E5476
310
AC0160EF5C0DD2EEF1B8B5CB2D198BE9A554A9093B5F7D7E4B5407DDFCA1D9C152FD97F55BFFFDFE802954DFEC8995B983E28AC92F1971E28F531DC407A1280EB125F64A72E617EFB27DFBCEDCDA2D6F2BDADA36873EE46B9BE1782998C63DA7182BC383FB6FD15DA472B175D7E8B4FC88F38D6E07FEAA3FA3CBB8F6B449EC
310
F14D2175E5C5CCA3A42ABF24CA6C9395AF74535F4DDB38CB84F56614B0FD32D7E19CA5CF988DB4449C40E23DF2B16772594554579094450F56F253CD25EA7F77366FB1CFE79696C428BB64D5A41E986189427E5E4D7E2DAE3D5BB4972B3DC44EAABDDDD63A2264ECFA5C786EB0EE1FDC5BE34FA0F08376869FD1E61EA06CAE
310
15191135445EE8F0394161C3266A596AA035572BB0C8876180D8B9C77D307DF9DCDF7365ABDA6F3A2366436457A4DFC1F259666569A9E4A79C817BDD5610E5200FCE894A358EC72858D50EF67545DA81C6FACE3D457BAF70367E1E6BDD9A952FB4F56247F58F523B97E640246051A72F79BE42FFA0B3187F63097F91C48B86
310
8586F714B0EBD5A00A8412C1236E1298F60C72BE6C96B82B404CADAA304AE9F303176B14BA53FBC2D5E86377E35542019E24D97B96A49B2C0E5006E7795954DEAF5DA58958839043C6C70BD3B1B33B6DC5C31316D8A6923F142E26F6711A2258AF977DDF1F970ECC4F1F2B434B96D81BEB6E89BF3BBB3C7C8CC80505070723
310
D6D7D7D3C8CA27CA164A26024FED94B12A86031867241DA53D929636DA600F050BC40CE48B8BA03D69224720DEE2ED2127390BDF5E6EA64527BBD4C4C63FA76BB801FEEC0E61218EC98A8A86CD8313781617877E66692839B9468CF4DB8E50A73986E558E309C0D6F676F921BE02F1185454DC75B111572FF9D27D85EA14C0
310
5AD7271225B391C4275659CA4A43759D0BA44639BE4C30A84DB7F67A41399FB95CBF923B1B1672ABC807C1590557FB18D811983FA97F5E609516D62281D38B1281F68FC75528C35E4CD7DF0F7DBB5E5DD69C414EBEA2F4A5B241B996BA77AE6C772E367408C633EA3E438B68563EA8BE7667F3A4C4FDEEA52ABD78A2820F44
310
3B7914A15F180018D231E64519C56A12F6CA7C8DAE18F06F6B769DBF92329EF6A5D18FBCE600F36BD8E8198DE5CDAA96181F3A756EBA5501CEE58F497EA4F418A2B82565B9BCC611713C0B708CCA1F398B78C5F7D03B3437CC18F13061F55C7BEDADD5ACB1DB0E36D3CE47FF6EA1A563A57E9649EA5D14D1A50EAA45746338
310
1C073777EF1600607BAF6428A7DDC079D47A204EF1E1F1F0589FB054D45E02CE623B3823C317C601E589E22B1E88B448524B86A82828E32345EC18AE17214B42F8C41C6D428016D9BA31DDCB47572561E5A402E5BA4FCE55F78AF7268524AA04130F3A20BA5D1E9F9948EA48FC8F5314FDB35E21898198060034ACE5E3E2BB
310
CA34092518F275190AF65F45867FF0900AA4B81F25427414C372BF51DC29AA855C5428EE1EEDD6B849AD60F6E73475C2D2523F8A2772C840A478DED18A8C5C91B085F255DC4F54EA7AA8947354FD17ECF8FB3B4A0DE7B483CAF3A1165EE05BBA413E5C1FEF3DE1D6B8F2F3F3251C17D9FCAB48A9AAF63AC773A0E413BBC46A
310
9ADF84A566FC920E4D8C52C9769EE3301CADEEEDD92B312E02E2A7E35B7F1E7D203FE5A7D75578B06E99D0E46FFADB8FDA17ED8880390DA29094202D6F645F76F6F96409CDA05495A96E84B04A00D1A6C6C81D7F3DE9376E828CCF144EE50E364ACCE7237EA0BFB5607ED1AC3CFE73794E5B61739D14DF1743441B1AC98F00
310
ECEDE9E7301FA29755FBEFA68C91EF2B314CF510537EF1ABFC9A762496280B546F5EDAAF8A5B387D469FC9A878A92828C88608453ACEC6094DCA54111E7AD5B2663DFE2DD151B7F123B9F4FEF8EE36AB125FD7AD52A59B1B765B3E3F73E3F73DEA93875004D2AFFE3CDE9493B87A9904DD052028949041A91DC0E1BA47BA71
310
4343FD5B25E0A6A09503AFC17C790058A836A324FE31D7893512E28230332F153181C1E018E1124EBE1BA262AA428A518237D1EA7275E48C5C561BD19ED6912EDD8367DA0F31E40EEAE9683DA9257525AEA7B632B97119E17145A90231768A4F3B9120FF32E8319B015E3CBE26F1A754177D8185345817C096B0CE443A955D
310
13AC15E1FB5DEEA0239EC32A3C92241A237B0B02FFCB4F93CF2B02570C8D192E2F2A68CEEB42F12E6F8CEEFF46C251E22B4341C56FB08CCE550E7A9D6F4D6564B9EA52A83D5BF2C6E03FA19D2775E15A8A7ACF30A13C259EE7F5EF2AC3BA354F1500E1A07FC63FB4686E2F12EC69719F9ECF5FE3F35598DF2CE944008CE78F
310
0911BA5BE5D0A34E0098FF038669C26030BA9B300303039852A8F6F496341737CA7E0D2E3AAA36DE0A70AA7D9CA0D54D9AD84B18A44C9E625475E1C97B93BEBB38DCE7D227E67A2D00F531436136355F243D1FC0D712C5765754FA22FCFFAE97919161F46D6E61ACB37D83777B385889770B50765B127768443A5C4D3A4E35
310
A3151111F146B7CA116F918A049F1C272F2CD7976C69A0068773451659A97E0F4A08FE604C3FF6CE7385DB19F4D3ABC8A0D80DA8A42096AC377DB49382B36E270B6FA7570188B4B7D1DDDDA82ACA487CCA5D38BD3BD039ADBAFA4ACFF27809239B722081E2EB9F145320553D183F28471C388BC8814E5045676767AB58A8E7
310
2D1CED2CA731379515D2E533E4CF0B39DFC625F97AC4836831A4DE330E87A8126FA17EBE583D614E71E22A8DBF2825599743E0640037303E8E1B1E8EA4E1ABFA4F62907B5E4E0E5DCFDAB417C36C6848A2B8D15F1E505434C0707E16B1CFC2A1C36A42BBF55734F8F4301DDC2A5110CEE8C0747F69519265012A2174BF4E95
310
5ECD4FDE095A3ABC70536B7AD0B9D7892F81287D667C108703C9B66A221E9A0929D030008F77FF6F5D2108EF5706FC87A3069B976F7C9FC3239D13D283CDEA83597461079FEEE049B0F392889898B7D87D31F8D60ED7B56B91823A8E4EDDB36C6172ECEE42BD42B12CD67994FA0F0DFAE9389356F4CD4425A4B8AA55CBF7EC
310
D585C6A2C2316791E43D5C06841ADBB226A87FD61515FFBB0167B74E56BD7F3E90A57A97FEDCBDF483A0D6699A8C0849CAEB4947FAA90D8E332D9DEBD9F4738C37DA0CAF9CF3DAA68BCB67C420459C7A64498D6E848E5CADE92BB6901F607AA331104A67F7CD650EE169B1DAE94D2C31C2F993632259B6957E246EFE4C5481
310
107B07118607700040E5812A2A2A38DA0076875258C753F60E0F2662C748EDD5F3F3686B8FC3BD6FE631ECCAA1E8B1C1E565AD117E54893E79F4672E32F9E46B2A183DFDCF3EECB4D4D077DBEA0DA254D256045109670050129E9B9B1A9E4A11344D61497A992778095151510C4BB7EF2009B63AA4360635312E4CF668B7E0
310
D3D85A8688E2BD83B569439892ADB63461930D428E0DE42E4AC57CE48DA5CC1449530D8BD3D6A0F08DF20C8E8F570F2CFFFCEA286E30969B4654D498A58D9DA782E19FE3F002181838925592C4A1EF0B332D88B61A92C644547BED490D3A42CFFAB70E36D961F694F6307F72FF15A1C79D5B1B5CEFD353D9E2B52566DEC8F8
310
F09CB3E8359C0F68EBBB7898243E34E12A015B2685AB303C04D3A9E00671FF3DFF0A184E4A2ABEB2B666AF5B3A209C73D8EF29DCDB069C9F391EEE9DD0F74C7BCDE16F8F02E3B8816122BBEB50665775B600549D8BB33A54A6BF940C028118BC6878C79958D6784F9DEAA6E26748386FFAF8D0D0101E2847B6563F5D8DC1D7
310
8F787BE00E2C941AE12148D4A81599FE8F68D4DA5CDED75530ADE138240300EE13B0FC13A1687FED6774662C05A2B7DFB186732F0D7A93545D8B0A6390AE5054D9CB582DA846D7A061B3358B45E2B52DDE63E114397EDB7E09233A579155D795BE76102CF277F4DF8B188C4F2879BEAE3C08347124BF9ED23B128259FE107D
310
31E34A652F090B30B39E0D9AF917B76A2806135621A8A60681F16AF216514BBD02711585B5B1AE823F4B2D0369EA5B6BCB863072727FFC871CA6C9AB79A814D989057E9470A3D238BC87CBB4A0EA49AFE2B86F22E499793CAA9047080450166BDC357524561E258C77CB697F1ABB32562CF87C3B7AA12F911EF19FB3E5C022
310
22E887D08202A60A17151F5E053A86B437771088B4FEE14D652C43E8D939995D34545E12E2FF93D4E366EAD25F10CB7DED141563C3D0C447AF06078A91135FD4B9611583CB4BF3BD167F2399CEAB0E0100F8FFC305F00F1711717173138B4B48C83022295DE657EFEDD97F238ECA80F528AFB4F8D67AD4E2594B9A3AA86D74
310
87EFC313BA95745C186F0CDD84CC12DC9CB0424B42203D351FD9C0A3AF10CC7F388E0329279087386421F194F4A29464C1DEF7EF8BE515E4A199DCD5B909342598D8FE6A231F71336248D5CEC5454455C7BE383B3BC7B260FED27F703FDC39A170F3827239102F59D4DEE7FEF82EAA1A5E4BA94DCC4CC44E7E2EDE20F24244
310
E4454369D2E87C3F823F193FD4FD27E1C23984B01898D15ABC20711A8A558054951A6AE280096BA36CBA439603B7B0B4C45F248C14B2383B4B5CD8ECECE4FF859AD4A6CA2326D020EF090F4041D28DB66E5256B56232CC52829DE8060BAE6BBF37D4B7469B822454FE93210A3E8D15E69FFCF01123222611C51C4FD0A041A0
310
CFA2471CF6BE38D2B20FA4C3525B5B8B586759475CF80ADFE67A284AC24651E52B8E683D24C2622642F27E7C3C22783BCF63648BC398BD6CD0D9C97E7E7E3EACB6126DB7A6C1FD9F1031302EE67ED96F22B77C7CA0239BB324207559B105E4693EB26EC46182A92C9C0DBD24F29B31C5C5AC1F84300E0E17CEEAC15F5736FA
310
4A98971E2F1423BFCD68D4BBD5F86E74B40A369F39507C88FCDB35D2DD8DEBEA4AF999E23CF2816D204200DF6E611781B9884C1AC8888B4DE397320472959434323A5A36B22A8E1F721A270DF3BD65E4A31C11FF048AFB0D8B7B6881423793963A23CFCE935FC189ED36FAE35C46DA3574C979E4394BE52084F3081837BE03
310
3396D2EBD80F1F691B273F660D2B32FA27A33B1DE4ADA5F0FA4651511102DFA410DDA86E065272CA314D5249DF91B06BB92807B28EFD54F08F7B525252782CD276DD02E6B0319B13DF87B1F6361AD6B28FC0D711CF445429B9E5A433CD493051C49A9E03DDB1B147D880253514A5DED88009018620EE229101C041950E2D8A
310
A8E1F5F5438E0C0C0C60EEDEE9E3E0C051948C69F84BB7B2A48A1F3C8EB9E6864687F4F4F6F6E2FA87608ADAF9C5E117B7C1A737E710769DA1D15ECE6A84502AA855398712D5FB51BE92E4EF824969CE18278798AC303C2C7980DD2500ADF8FB1E6D6C2FAAFF9987178923334A244758BAA01A9A1B70FA5097D01E1CC2A58D
310
AD0EC94CE6430AA9B0C10D75E3C6BAC670EFBADEE1607739CE0FC18A2587E3EC3058562014C64219C69BC269082D5C2F4A659278D585755912176D78A1B641719C2A394CED495A1AC5D583FD2F5EDD93308EA7EAE8A6DD396598BDBD3D4CFED62D18A5BDFDE0DD5C80D1A89BA62697B131AE7CE9A6594138582F1B37D68F17
310
49AC7CB67A70695D48A4A056AC1FBD4E82358CEAE38F54B95A9016F9000F9879C0D9D131768635CA798895F27D6F1614F11F2838A83611AA51C9A3DDB539D42979C29F10465655C17BEC3E2760B80DCBF609198C7B171A531905F3EC218D696025975E986C6B4C666666787271F202805577DD5A3EF0CAFAF91B62DC4B2DB4
310
217A7606282F31D8DDBC290593BAA93EA6353AFA9939B877978481E15CFC9F2755CDC00C538F63A4BA3E80AE009B73CA0185687D339A507D165B74290D6EE46D5C58148F020C3668ABE9EF2F7549170DC80DB41FFC1D678FF19AEB10C7133832B104B80F691B3138F97A92D26E551F1F110400D45AC71A9B9AC41A1A1B1DAE
310
ED0B0810638EFFB511D46B121C6FEA0F38CD00E03CFFEB9713FE1F9C263E4DDEC160D0497FA9A132BA608584057FB15380825DE6C7FC3C667EE947D488A09898D8E939C4953BF4EC9836344D2CC6B2971B2A21A572B06096F4982D2CC7232D46E8EA69DC83722E267754D777F97F96D5DA74E1E75178084D0E70F12AD33E5F
310
71EF2AFA599B2BEBF60A5BE475F444F240CBFE8143C334E7ED9150FEEFEF7EB020C4DBED388DD1D6A167A76F3CBF119B578AE8CFA7736ACAFA4440A1C47185638A0D2F3EB5BDDEFDA958FB13CE4AA4923D5BF840392D45544329525749734866684BF7F8D9D54D892E19BCA9F829A0F8BFCBEEA6CFDFC61D74EA1A645ED7A1
310
FF241739F15694BD835B66FEC5677E40FE69BD3F91AE402F036537218A401CB0828604AD189E575015C6F3F6BBC8AC79CF6C70653847254B31551EFCBEB5978B9DB85D58D0FA41A9DFE9C624834AA04949D24B5AE6D299E072D152D12097920F14AA92C31C3B97E28B6C2E6E9C23D63043ECBBC0A60FDF5BD0C33C127EA8A3
310
308B8B6AFFEB28B4455BF6E7AF4FC6222728357EB8E46E85053E6A8843AB23295BF838ABDA94658FEF3F832F147046B4ACD6F7D48E8FCC9618582961C898D1C7A253C91BFECBDA6BA18A1FCF70755DCCEE2222F41B76D23CA98D0CB3D95F0CF66D57FFF65E2A90F5DF40FC3187621E981BD0BC1D992787212688976B94A8F0
310
C6EF646624B570B78E068826F87CE27041A95C9A4871FF65CC17FCB1639629AD6A9517000D63AC231F3D741CB8430777E7ECF80CE7A3F73C0F162F7E56AA71F4DA80A33CD6ACEE78E2C11FAC03DAFCE929B106F8F6B3ED2DC71FF994BD9CEF4E9A94896EF1B6E2B7B4978168BCF0847A3D2A4F1B0500B926E634B174548E9F
310
BAD27153FB5FC36799B1E6C7C38A94E1F9E996796D7B485E635D5287A2AE76FBD11A341DB3F8F810385BB7296391973DC6C37C452A9305AEBBE0CDB6C566DB59FE60C8E94B1FD090354BF51439FFD1B48D725228FFA88C84F686F547107A7A235665A4593B7C34D748C1AC8D56DD5DA861EEFBADDECBBD65117E65851F9035
310
1AEB65F0EFCFF4BCFEF24CB7A5879699FAC437A7AF9099186CF006BB923A59E37D7A36A29FD8D2CBB914A5E9D0A8FD212FBF796AE9A67958FF1D5D8B85F78F96219D4714EB919929241B6C018AAE0C02069F8D919961EC5DDFBFB7573E3AC8E08BFB7C8534BE6DE045B3CD63DBD71F7638BA2309CAE398EA3A7D8F98BBBC7A
310
EB367EFA5CFA27A9F8F2F52FE878058E6209C026453F8E7E8A237DFC389E9590F6059B397CFD65183BBF936E86896612A5B5FEE49DAC8455D026218AFEBEC12B3523A45B57B82C9C97E02ACFA1184DB18E48CF615DBF39C3CC6F0B4AE6BBEEA2E39D944E290302FA3DE33FA7E40296E2EF7BF1CD855BBECFAD0FD622BEE974
310
6FC4FDFDE545AE6E3BC234CADF83A0FB76DFB145BF3828AE3436368AC24989454F8FF70A177672C711CAA1A76107218CF948CA01F873520E7A2B118EBB161ABAD432932029628B6761590C98AB590C8C8C79798CE9F715BA696E839E9131A4BB68BE923F1747FBFF165331FFDD4D05997ACD168F12CA75348DAC04C7F509FE
310
83898A8B421181AF492861CE81E4A2DD0A30850CFA95E05F097FF70F9E777310D584A75BA7018922E271DAB1D785671157685B7D383D3E074DDB4F1E44EF04B07BAAC75A062077C54B9752C738C9D804D402E02851F3F89605AF189738C18C021D2139EAF72513824E10DDD3047BACC8521ED7E98B257D1166903B1B08FA6F
310
918FD7E162913FEC7D0EF4787E29C35FBA8C6E2C9C20E9AB30AE42CA2A01A090E7D010C1B5BF9CEE2A304BF3A987FB40D836979B79E18D70F257DA61E808472DD85B82761825779D6B90CAEB0F23360C6F80A7D7D77545E95B3DFF0CF96A827F9B5BCECD2C9698718417EF80FEEDEE938AFF55859D0D540B7FE09435583A6F
310
04874A0C7E8CF234DF4879722000167F5872CEC6BF3EF7E5A8CC8121E6A359227C8A29C95212F9F735BC72A887D56B8F309FC525BFB4FD767AAEC4AEFF249CFBBD2DE1AB9969A6155C7D8DABC307E47324C1F916C7BCFF40ABA5644E9FFB9238D19ADADA49D9610F01ABBA57E4DFCBDCCBB2B93C8953206C91DE01B0E2651A
310
6D6C31721915B31F7B7CBCE55466F6D70402788FA91D73BE4ADCBA99A35F17D6B83383704917D6833F0FA3CD45C926ADB8BC17999A4A0AFBCE2541F7B8CF4C2F5FBA611B3E626D64407CB32C122DFF4EF8674D6EDBB86C8F7C6A16D50FA685E2CCA34F8F7D1D8265BB0042E9D7F1F666F7BE5FAA5184DF58E12122A42EF02F
310
461B3F369AC746F96528AD208512AB56844CF75B97F352DF7995024FB02855385854F3798670D01CAC771AC3E1889EC25F61A20C1F8CAB46898817F9C47E2CDA1F286BF2F358298709FE567C91133E2638C8B53975E753EA8BFD3578B5F7186B7BF084EBA3F77BAC3132A5779902EC22AF2D2E79F42D324E083386DAEE9810
310
D1B44A5DAA54513C7A71E52A4AB9257D975B621308FE4D2141CC3DCFE946C154A3C1DFCCA7629EC69ACFA831634ADDA93C0388D2A9A2DDAFCF957C6995BCE7FBB6DC4EBAE79E63EB08E9A25F52F67076F7093CA545CA3053B5BF576DEAD4E0017143C5F759F32B2D6F145B52B67B48909B7C7FCA6586EE385A2189C16932CB
310
6DDFD9152AE317C430492A578ED27B72D85D40C7C93C097939E1B50F4D67F05334FE9DC362C30B7FF561B95259138ECFD9274C8D695C31B14D4EAA9F3D7FA8DDF652F8C5DEFA23284C799B7D94416DEE81E05A866302DC70192A5368EA65E1CED8BF107A1E2D3119A71E85DC1A7B0C1E93274CE04DD0F2ABC8AC7C987FDB00
310
2B6F81757B43502EF7A0D92E416494FAEEA4C9C090CD9557AA4D532F4996A272B94355C5A0E4974EEA9627476F30809B94D8D8D860062E02204643BEC7D0438AF800FC7E2B26955D595421E83C69E1A07E0E3122285835F014AD538188CF9737CE76D464A353FA55A001AB2526B84E985083693BC76FE211CA1D000679C889
310
E3C009832C87E1AC2EDD05C302557422DF0800E316FCAC86978A371F025A6C7DAA9F333E7BD160403A1A06EA75AA9888FF01504B030414000608080067721B4B51464CB48900000043010000360000006662782F41414131323845442D313833462D343236342D423630452D4337304133334534454541442F646972656374
310
6F72792E786D6C9D8F310EC2300C45AF127987122606C71DD918B841D4B851A43646695A717C52A85029031293A5A76FBF6FACEF7DA7264E43906840EF0FA03836E242F406C6DCEE4EA06AC22492573150D1F66C60C640E8938CB705396EEDD86DE9B5042FE27813D640EA63BB001C722AF6E55CB61E4863F58284D5D3F53D
310
D715CE1C3985E63FD7F1B7EBDD617E9F1E504B030414000608080067721B4B5D9D8A6B3F070000211C0000340000006662782F41414131323845442D313833462D343236342D423630452D4337304133334534454541442F6F626A656374732E786D6CDD595B6FE23814FE2B56F665F721370214469411053A42B39D190D9A
310
D5BE452618EA6D6E729216F6D7EFB16387380D90B949A3A552098E737CCE77EE2793B7872844CF846534896F0DD7720C44E220D9D2787F6B14F9CE1C19E8ED144D5892E4B57D068A71446E0DBE6C4C277B9614A95CDA921D2EC2E6EAFDDDDF280B484C0C148438CB6E8D2C782411B67091275B923D595B9C636BBF3B58AE55
310
6ED4C9EE194E1F1B47A59891380756613D062A920357FF0922D9D389CD3768DBBC6EDB7A17B6D942709D511A67398E83575C358EEB9DE1AA719CE7F617CBDE606C0EFA7DCFEC0F7BAE79777FB730DD1BCF990FE7F3F16C3936D074B24992B052404AE22D68F1684CDD89CDEF54E24B14DAF80E9238268144B36DC39648BA94
310
644D4C34605D215A4D21A5ACB505AFA3F067B67502456349435B09A7BEEBD69B6CFE0110B22E56CA32C2AD3CCB19E85A625FFA8333B1CB554D2F344311CE09A3384421DD30CC4041B0B5549046867B0B27853866428B8A5E9D5730ECEBBED4C6E5AE0843EEBFC654789A0FFE48F24C7046FF25ECC47DFD34E009A42D689C8F
310
A4B0F9310512E3892D16CB7B5E4FDE2C8144BB10EFC15A404CBEC9EB35F09AF358B05A18D3F7F79BC39AC787F6C35396A484E5DCF284334BBF531AAC9916185F07504A5C75DD9D50F90CD07F00E42B5ED00434C7E8A17FE82BD9198EB35DC222D00E7290E9C03F07F1CB575713BB7A788A90162BCF610A6EFB8330D5C4D0CE
310
AE413A9D3C83D127CC93C2AD031C824D3FD098FB39180A0A13588278BFDB1C8CE90A82292CC2533804E9E16F62F34B045F251D88370D0DB585DF0E8A520ED3F4B393AEDE81CD301A54AAD2643C87EFE087E03B5BACDFAF0BB6C30179908EBD203B1AD31C92693B431AE89ACB7F597D101E7977FC131FEB3EA8ED0AE09C7DC2
310
03478B5ED6522F48280658E179B8548D5879A0E0EE6188639214995C6F0B54411226CCDF1CFDD2875BCFFA4B19417998B480D66006D93D6034E5A01853A9AE2A125A279C323031CCA409EE4BB5FA9B224A7D1C2545CC63ED6B5B6CF20181869B225015D494652BB75564B774B72B32885EAD24E71A90D2A115E1D2C4FB10C8
310
DAF86564C73064D124F6292461F096D613B4032AF02EF39C9170E7D3302C227F474348247E84D333F43B4A504F5D4FE4F892B06D2B41DDB294532A1BE2804B6015482A5D95415FEA949167CAEB4C91D0543AD076C842D498F6CFE40B9E2A5A0055C628CCBCB75C0C7BE3E5D01C8FBCBED9BF99DD9823E7C63187CE7070EFBA
310
F77DEF66D9E45385AB7AC20355F23A47F3BFFCB1883631A621DCE062E36DFAE6AD489FB736C4467B369BB9BDD112EAB391776FF67BC3BE79377496E6FCC69979DEB2BF5CCE1636235952B0806476CF767C659269BC3FC795E2EE751085BAE67AB653FA6A0AF3FF0DA2EF9A494153E2AF1A44ABD8D55211760DA2FCD16608C5
310
C113CF517E00655FABFB348268938FB638F79571D9B13C477C5C77DC73C6BDD1785819FBC5402DCEF9EE38D72641008D6791FB498A039AB727D4062E1DE3F457E516CB730708D0A9FE57875CCE33F2109F46784FFC1DE66D424B60BC26416B0EDB874996D19864A2CD7B55FE35683A1654537ACE6D31429AF911C9F1B7D89F
310
E81B1A360DB139F4A121CDF948E06A555019B46C41CE51E4ED2F246E21FFD1CF70948665AB7B0D03B7A720504D4E9BC571A6F911CF606F3ECE7D674BC4E4E21AF58A7D551FB46AAD497DFCCDE4CFC0A3EA9A9F088F3AA27BE9640DDC31FF8C20A80C07AE77A314710D2B7554CE1BB9B080D63338FA2F84EE1F3B159ADD7452
310
2BD9CAA23A2711F4B1382F58277F1D0E9C5707C9B8D07088DA495F591C8A064EB570809EE8E0CE95B7B563A00EA5310CBA3A09F24A8A561316BA10433D3EBBFA0ABFBEA8EC3AD5EF8E973FBD62AE3B5F24A63FD771806AB90CC032FA6835756BD5ADD543D90BCE0308A46BF16DDE81476CC9F6D49869E4DA4A74559F5EAB9E
310
573CA04630B2C53CCE3EF08BF033065543FB9CD9B268B3CBF5154F6C164CA74F7C684CEBB43EBE5B37A8C04AE7A73F718CC84B83825C9DF36EF802A92FAB53D3DFA02025FAB2BAF0F82FD1512805D6E668300ECE9290C2549E6CD19E2490BD61ECD0A1DB6011C9445606E395414ABD12E8F0F4733954CDF126544F078F1826
310
D3A1ECC58A00A6A290316F0DB98E7E8339281F458AE994F5046D988C61062A18BD35C062730ADD96B5817996981E0AEA8D792538368EF73CDF974F55BF4F8F7174202A9DE4AAF674C1454AA6391314B6A9785100555F79633AF976D1153B08E770B929F24A98D3C2491A09827A23500A0763BF2709EF010A8ACB72B996D8A3
310
41D269347FD10E4AAA668ED95ECCD76B78CF169F6C3E1A5F7D446958ECB93A2F75BF1A259377DD61514EA126601852CC14F31A72FEC6FEC41278C714A17B0A46807E3F8C867FD8F3248A92B85CB267F24D155A3FC27BA7ADAD667ED0C63BEEC016530039D7F737382316DE664FB000AA65940F474B883503A8A269CD009446
310
B82EE0316DFF6A81646D549B90D4C32E87470CF51138127F99C3DDA6BEA13681045F00AEC4CDD3855A98D80CA6E0D3FF00504B030414000608080067721B4B587E88D2E1000000550100003C0000006662782F41414131323845442D313833462D343236342D423630452D4337304133334534454541442F7265736F757263
310
65732F322F636E782E786D6C4D90DD6A032110855F45845EAE3F4B206970CD4BE4AA37C1EAC44A769DC59FD2BE7D35B5D0AB19CEF918CE1C75F9DA56F20929078C0B954C5002D1A20BD12FB496FB74A2E4A255422CFF304AA2D960A15DA65AF984751F9283BBA96B57D7101F4314370F1152B0B73D7A4AEC6A725E68B61FB0
310
19666A4107F9C19C2986499620634D16DA89123618276C0253C0513D0B799CC4699A8F577938CBD7B33CBC29DE49ADDE11D7C1875820E1FE320B8B6D8D2D9150BC035AD51406D5DF68C65F3CD6E229DE6CAD7249AD838195EFBD6161331EF813F975B5E2FDC9369E0DB4D90BD13F504B030414000608080067721B4BFF15A4
310
A45D000000800000003A0000006662782F41414131323845442D313833462D343236342D423630452D4337304133334534454541442F7265736F75726365732F636E782E786D6C4D8B3B0E80201005AF42B6F75B59F0390B113044D83508C6E30BC6C26AF226F3B8BA6360974DA7271430F523308B2B198F9B80925DB70053
310
9227A2FCCB80A18E5640D320F996A81C9F32D6E9129A0D1EF74FCE750E6D57BC7165FBCA07504B030414000608080067721B4B63BC371B4301000056050000300000006662782F41414131323845442D313833462D343236342D423630452D4337304133334534454541442F636E782E786D6CCD944D6AC3301085AF62045D
310
FA47219034C80A74D1137451BA93E589ABC6968C342ACDED3B4A9DA4A5847611487662F409DE9B791AB1FE18FAEC1D7C30CED68C1715CBC06AD71ADBD52CE2265FB26C2D85770EBF612CB36A809AA53293A2F32E8E53A9858D8A7DAAF6C66EA7A242F4A689088165BA5721D42CE8571854A122BA16C2B66815AA82171E828B
310
5E03BD4733C0F45E7B50082D93B38A2FF26A99CF164F7CBEE2F72B3E7F116522A5689CEB27DE5804EFC6BB59A51D1D2DC9A944990029A23713953C3079D25634C68A92EEA508A4D7761387BB3171E3D81BAD901A553A8D803941A006517EC15294C9F10FDF8F0FCF270D746A8D078DCEEFAED6067EAE0D47690525E27F5DD8
310
837F9977CD1B59BEDEDCCF1A9E845DCCEE21B981A2FB3B09942765BBFE163FC051DAE5F34F8B058DBE45D3076517F25CEE57200D3E6D44F909504B030414000608080067721B4BB5BD73417E000000A30000000B0000006662782F636E782E786D6C4D8C410EC2201405AF42FE1E85422A0BA0418BF7682C6D882D34588CC7
310
174C17AE5E327933B2FBAC0B7ABBF4F23128A02702C885471C7D9815E47DC20250A7658A71FFBB010AC3EA14540C5ACE29E6ED40A39B86BC54BAF8F03CA0318636C2F6980A76C7BC6939BEB6C4E2DB8518C62CB7D6F4C53857A5CCAF57B6E6F517504B030414000608080067721B4BA6D797065F0000008200000007000000
310
636E782E786D6C4DCB3B0E80201045D1AD90E9FD7516806B51190811670C8A61F982B1B0BAC9C97B72CA7B1037C6D3332918DA1E04D2CAC69353902EDB8C20262D23F3F59B81A079470595414B17391D1F19B4730A5583A7ED43BBE4025D9592775E5ADFFA01504B030414000608080067721B4BECFD112DA8000000260100
310
00130000005B436F6E74656E745F54797065735D2E786D6C7D4F4B0EC22010BD0A61DF525D18634ABB506FE00510A79458060253536F2FD89D5197F3FED3F68B9BD80362B21E25DFD40D6780DADF2C1AC9671AAA3D677DD75E9E0112CB5A4C928F44E12044D22338956A1F003333F8E814E5331A1194BE2B0362DB343BA13D
310
122055543278D79E6050F344ECBC6478EDCD76CE8EABAE5449AE4298AC56946789C28AAFBEABC53F3EAF09A84A1441B91F0101CD4780756578C173A578FFDDBD00504B030414000608080067721B4B3DEE336E64000000790000001B0000006175746F6465736B2D64657369676E2D7061636B6167652E786D6C35CBC10E83
310
200C00D05F21DCA56CA76D41FC96062B120735B69A7DBE268BB7777961F8D5AF396893C2ADB70FE7ADA196782C2DF776D7A97B5933C430F15651E5469C55D70F80A4992A3ADC954792C525AE70A1E4D6AD9816CC044FEFDF01FE3FDE907802504B030414000608080067721B4B0BF4236AF40000008E0100003D0000006662
310
782F41414131323845442D313833462D343236342D423630452D4337304133334534454541442F7265736F75726365732F322F636F72652E786D6C8550CB6EC32010FC156BEFD8E047EC449848519C2FE8A93704C44589C1E251F5F30BB12BB5A79E76353B33BB3BF4FCB53C8B4FE5BCB666045262289411566A338F10C31D
310
0D509C1975D6865F34280C5FD4081906466767E3BA43C29AA04C468D956A07B9F72A40219EA919C18B0FB5F092C79018FE51AE5C3CF8AC4A526E3C4663D472976A99DCF45D2B076C9AA66E68F001D50DBEA2F6D01CD065C01322B76BDFE2CBB1BB7535ADB298D1A0979FEDC2291E94045663D2233CA0BA7F23ED891C4FA47D
310
A7556632EA834B3FEF4BF377894EAB0DFDE31657F9BF5BD42634F5EEB6293C30928E7B0D18AD723AA9BCA24B3527C9BE01504B030414000608080067721B4BAF4BD084F9000000960100003B0000006662782F41414131323845442D313833462D343236342D423630452D4337304133334534454541442F7265736F757263
310
65732F636F72652E786D6C8550CB6E833010FC15B477830D2490C8385214F2053DF566990DB512ECC88FAA9F5F3B50A93DF5B4ABD999D9DDE1A7AFE5517CA2F3DA9A015849A140A3ECA4CD3C400C37D2437112DC591B7ED1A03072C101320C82CFCEC6E706296B029A8C1A3BE1064AEF3140A11EA919C0AB0F5C642963480C
310
7F2F9F52DDE58C252B579EE031EA6993EA29B9E99B4607621CC75DDFD03DA91B7A21EDBED993734F47C2AE97AEA5E7C3EEBAAB7995C58207BDFC6C570E65C009444D5947684FEAEE8DB5477638B2F69D579929B80F2EFDBC2DCDDF8170E86D740A3DAFD6E91FD7F89CFE778DDA84A6DE5C578507C1D291AF81E0554E299557
310
84A9E644C537504B030414000608080067721B4B7AC2F023F2000000B1010000310000006662782F41414131323845442D313833462D343236342D423630452D4337304133334534454541442F636F72652E786D6C8D50CB6EC32010FC156BEF60635BB11B6122B771BFA0A7DE10100725068B47D5CF2FC4AED4DE725A343B
310
C3CC0E3D7D2FF7E24B39AFAD1980E00A0A658495DACC03C470413D1427469DB5E10F0D0AC31735408681D1D9D9B8EE90B02628935163A5DA41EEBD0A50887B7A0CE0C5552D1CF31812C3DFF0CAC58DCF0A13BCF1180D7AF9950AA7785012585D910E553DAABB0FD21EC9CB91B49FB4CC4C4663D472B7D232B9EB8B560ED838
310
8EA4EEA733227DF38EDAFAD0A2D74335A1B7AE1A9B666AA7693CD3328B19F5C1A59BF74FF275CFCA37E1BFCC71954F64D62634F56EB8293C3092F23C168C96B9C0341EEDA699CB663F504B030414000608080067721B4B61CF80A854010000DD0200000C0000006662782F636F72652E786D6C8D52DB8E832014FC15C33B0A
310
6A5BDB204D9ADA2FD8A77DA34A5D52058360FAF90B5EE2FAB0DD8D099239E7CC9C9940CEAFB60906AE7BA1640E708840C065A92A21EB1C58F3801908CE9468A5CC8F361048D6F21C781850526B65BB192A95345C7A54AA8ACF20EB7B6E405036EE9283BEFCE22D0B9935AEA37F861D2B9FACE6210EA73E4AAC15D53C2A2AC7
310
261E826B408BA2D86509DAC338415798EE933DBC64A880F8763DA4E872DCDD763189FC302546B48B7AA93933BC023446F8005106E3C3074E4FF878C2E927897C2725BDD1CEF32CEADD01FAB8BF4834E11B3EDB557FF359214D12CF7CD3440F2876EB8D054A229F8FFB8DE16D3374C22E3FC3EECD62E1E9A0819746E9D4552A
310
65D7D2C01ACB1D350AC68F4453D5318F04BFF1C46F78DE73B8A098ACDD6ACCB8EBDD1AAFBEDDA9E31A0EE61548A55BD6ACCB4D2BAEE72AB4B1B48C97AA51FA3FD38BD525CCC83F4CFA0D504B030414000608080067721B4BD727FE3C07010000B201000008000000636F72652E786D6C8D50CB6EC32010FC15B4776CF03B11
310
265214E70B7AEA8D1AE2A0D860191CB57F5F885DA9BDF5B4686676671876FA9C46F4548BD3D6B44013024899DE4A6D8616567FC30DA013678BB5FE970C9011936A21C2C0D9B0D875DEA1DE1AAF4C448D956A078573CA03EAC7F068C1F577358944AC3E28DC239945FF10834A68B2E938F37AFA59ED1725BC92C033426B4C1A
310
9CD56FB438D2C39116EF2C8D4ACED655CBDD4ACBE0AE6F5A2DC0BBAE2B9B9C5438CBC90517555EE173433A4CAF97BA20E743792D3396C665CE9C5FC29FF72321A7474E3CA32F4B378AB30F6BC75D10424964CDF8059CB034127F42AFB3FC47686D7C9EED07B70D079C86402F2218C706C378D51B666C9B7F03504B01021400
310
14000608080067721B4B0000000000000000000000003700000000000000000000000000000000006662782F41414131323845442D313833462D343236342D423630452D4337304133334534454541442F617474726962757465732E62696E504B0102140014000608080067721B4B00000000000000000000000035000000
310
00000000000000000000550000006662782F41414131323845442D313833462D343236342D423630452D4337304133334534454541442F76657274696365732E62696E504B0102140014000608080067721B4BF270F13306000000040000003600000000000000000000000000A80000006662782F41414131323845442D31
310
3833462D343236342D423630452D4337304133334534454541442F747269616E676C65732E62696E504B0102140014000608080067721B4B88E57597CD3F0000904100004200000000000000000000000000020100006662782F41414131323845442D313833462D343236342D423630452D4337304133334534454541442F
310
7265736F75726365732F322F305F67656E657269632E706E67504B0102140014000608080067721B4B51464CB4890000004301000036000000000000000000000000002F4100006662782F41414131323845442D313833462D343236342D423630452D4337304133334534454541442F6469726563746F72792E786D6C504B
310
0102140014000608080067721B4B5D9D8A6B3F070000211C000034000000000000000000000000000C4200006662782F41414131323845442D313833462D343236342D423630452D4337304133334534454541442F6F626A656374732E786D6C504B0102140014000608080067721B4B587E88D2E1000000550100003C0000
310
00000000000000000000009D4900006662782F41414131323845442D313833462D343236342D423630452D4337304133334534454541442F7265736F75726365732F322F636E782E786D6C504B0102140014000608080067721B4BFF15A4A45D000000800000003A00000000000000000000000000D84A00006662782F4141
310
4131323845442D313833462D343236342D423630452D4337304133334534454541442F7265736F75726365732F636E782E786D6C504B0102140014000608080067721B4B63BC371B430100005605000030000000000000000000000000008D4B00006662782F41414131323845442D313833462D343236342D423630452D43
310
37304133334534454541442F636E782E786D6C504B0102140014000608080067721B4BB5BD73417E000000A30000000B000000000000000000000000001E4D00006662782F636E782E786D6C504B0102140014000608080067721B4BA6D797065F000000820000000700000000000000000000000000C54D0000636E782E78
310
6D6C504B0102140014000608080067721B4BECFD112DA8000000260100001300000000000000000000000000494E00005B436F6E74656E745F54797065735D2E786D6C504B0102140014000608080067721B4B3DEE336E64000000790000001B00000000000000000000000000224F00006175746F6465736B2D6465736967
310
6E2D7061636B6167652E786D6C504B0102140014000608080067721B4B0BF4236AF40000008E0100003D00000000000000000000000000BF4F00006662782F41414131323845442D313833462D343236342D423630452D4337304133334534454541442F7265736F75726365732F322F636F72652E786D6C504B0102140014
310
000608080067721B4BAF4BD084F9000000960100003B000000000000000000000000000E5100006662782F41414131323845442D313833462D343236342D423630452D4337304133334534454541442F7265736F75726365732F636F72652E786D6C504B0102140014000608080067721B4B7AC2F023F2000000B101000031
310
00000000000000000000000000605200006662782F41414131323845442D313833462D343236342D423630452D4337304133334534454541442F636F72652E786D6C504B0102140014000608080067721B4B61CF80A854010000DD0200000C00000000000000000000000000A15300006662782F636F72652E786D6C504B01
310
02140014000608080067721B4BD727FE3C07010000B201000008000000000000000000000000001F550000636F72652E786D6C504B050600000000120012002D0600004C5600000000
  0
XRECORD
  5
17
102
{ACAD_REACTORS
330
12
102
}
330
12
100
AcDbXrecord
280
     1
270
     1
271
     1
  0
XRECORD
  5
16
102
{ACAD_REACTORS
330
12
102
}
330
12
100
AcDbXrecord
280
     1
270
     1
271
     1
  0
XRECORD
  5
18
102
{ACAD_REACTORS
330
12
102
}
330
12
100
AcDbXrecord
280
     1
270
     1
271
     1
  0
XRECORD
  5
15
102
{ACAD_REACTORS
330
12
102
}
330
12
100
AcDbXrecord
280
     1
270
     1
271
     1
  0
XRECORD
  5
24
102
{ACAD_REACTORS
330
22
102
}
330
22
100
AcDbXrecord
280
     1
270
     1
271
     1
  0
XRECORD
  5
23
102
{ACAD_REACTORS
330
22
102
}
330
22
100
AcDbXrecord
280
     1
270
     1
271
     1
  0
XRECORD
  5
27
102
{ACAD_REACTORS
330
22
102
}
330
22
100
AcDbXrecord
280
     1
270
     1
271
     1
  0
XRECORD
  5
26
102
{ACAD_REACTORS
330
22
102
}
330
22
100
AcDbXrecord
280
     1
270
     1
271
     1
  0
XRECORD
  5
28
102
{ACAD_REACTORS
330
22
102
}
330
22
100
AcDbXrecord
280
     1
270
     1
271
     1
  0
XRECORD
  5
25
102
{ACAD_REACTORS
330
22
102
}
330
22
100
AcDbXrecord
280
     1
270
     1
271
     1
  0
XRECORD
  5
777
102
{ACAD_REACTORS
330
776
102
}
330
776
100
AcDbXrecord
280
     1
102
ACAD_ROUNDTRIP_2012_MLEADER_STYLE
298
     1
  0
XRECORD
  5
779
102
{ACAD_REACTORS
330
778
102
}
330
778
100
AcDbXrecord
280
     1
102
DISPLAYNAME
  1
Imperial24
102
FLAGS
 90
        0
  0
CELLSTYLEMAP
  5
738
102
{ACAD_REACTORS
330
737
102
}
330
737
100
AcDbCellStyleMap
 90
        3
300
CELLSTYLE
  1
TABLEFORMAT_BEGIN
 90
        5
170
     1
 91
        0
 92
    32768
 62
   257
 93
        1
300
CONTENTFORMAT
  1
CONTENTFORMAT_BEGIN
 90
        0
 91
        0
 92
      512
 93
        0
300

 40
0.0
140
1.0
 94
        5
 62
     0
340
55
144
0.25
309
CONTENTFORMAT_END
171
     0
 94
        0
309
TABLEFORMAT_END
  1
CELLSTYLE_BEGIN
 90
        1
 91
        1
300
_TITLE
309
CELLSTYLE_END
300
CELLSTYLE
  1
TABLEFORMAT_BEGIN
 90
        5
170
     1
 91
        0
 92
        0
 62
   257
 93
        1
300
CONTENTFORMAT
  1
CONTENTFORMAT_BEGIN
 90
        0
 91
        0
 92
      512
 93
        0
300

 40
0.0
140
1.0
 94
        5
 62
     0
340
55
144
0.18
309
CONTENTFORMAT_END
171
     0
 94
        0
309
TABLEFORMAT_END
  1
CELLSTYLE_BEGIN
 90
        2
 91
        1
300
_HEADER
309
CELLSTYLE_END
300
CELLSTYLE
  1
TABLEFORMAT_BEGIN
 90
        5
170
     1
 91
        0
 92
        0
 62
   257
 93
        1
300
CONTENTFORMAT
  1
CONTENTFORMAT_BEGIN
 90
        0
 91
        0
 92
      512
 93
        0
300

 40
0.0
140
1.0
 94
        2
 62
     0
340
55
144
0.18
309
CONTENTFORMAT_END
171
     0
 94
        0
309
TABLEFORMAT_END
  1
CELLSTYLE_BEGIN
 90
        3
 91
        2
300
_DATA
309
CELLSTYLE_END
  0
XRECORD
  5
751
102
{ACAD_REACTORS
330
750
102
}
330
750
100
AcDbXrecord
280
     1
102
RTVSPost2010Prop28
280
     1
102
RTVSPost2010PropOp28
 70
     1
102
RTVSPost2010Prop29
280
     1
102
RTVSPost2010PropOp29
 70
     1
102
RTVSPost2010Prop30
280
     0
102
RTVSPost2010PropOp30
 70
     1
102
RTVSPost2010Prop31
280
     0
102
RTVSPost2010PropOp31
 70
     1
102
RTVSPost2010Prop32
280
     0
102
RTVSPost2010PropOp32
 70
     1
102
RTVSPost2010Prop33
280
     0
102
RTVSPost2010PropOp33
 70
     1
102
RTVSPost2010Prop34
280
     0
102
RTVSPost2010PropOp34
 70
     1
102
RTVSPost2010Prop35
280
     0
102
RTVSPost2010PropOp35
 70
     1
102
RTVSPost2010Prop36
280
     0
102
RTVSPost2010PropOp36
 70
     1
102
RTVSPost2010Prop37
 90
       50
102
RTVSPost2010PropOp37
 70
     1
102
RTVSPost2010Prop38
140
0.0
102
RTVSPost2010PropOp38
 70
     1
102
RTVSPost2010Prop39
140
1.0
102
RTVSPost2010PropOp39
 70
     1
102
RTVSPost2010Prop40
 90
        0
102
RTVSPost2010PropOp40
 70
     1
102
RTVSPost2010Prop41ColorIndex
 90
       18
102
RTVSPost2010Prop41ColorRGB
 90
        0
102
RTVSPost2010PropOp41
 70
     1
102
RTVSPost2010Prop42
 90
       50
102
RTVSPost2010PropOp42
 70
     1
102
RTVSPost2010Prop43
 90
        3
102
RTVSPost2010PropOp43
 70
     1
102
RTVSPost2010Prop44ColorIndex
 90
        5
102
RTVSPost2010Prop44ColorRGB
 90
      255
102
RTVSPost2010PropOp44
 70
     1
102
RTVSPost2010Prop45
280
     0
102
RTVSPost2010PropOp45
 70
     1
102
RTVSPost2010Prop46
 90
       50
102
RTVSPost2010PropOp46
 70
     1
102
RTVSPost2010Prop47
 90
       50
102
RTVSPost2010PropOp47
 70
     1
102
RTVSPost2010Prop48
 90
       50
102
RTVSPost2010PropOp48
 70
     1
102
RTVSPost2010Prop49
280
     0
102
RTVSPost2010PropOp49
 70
     1
102
RTVSPost2010Prop50
 90
       50
102
RTVSPost2010PropOp50
 70
     1
102
RTVSPost2010Prop51ColorIndex
 90
      256
102
RTVSPost2010Prop51ColorRGB
 90
-16777216
102
RTVSPost2010PropOp51
 70
     0
102
RTVSPost2010Prop52
140
1.0
102
RTVSPost2010PropOp52
 70
     0
102
RTVSPost2010Prop53
 90
        2
102
RTVSPost2010PropOp53
 70
     1
102
RTVSPost2010Prop54
  1
strokes_ogs.tif
102
RTVSPost2010PropOp54
 70
     1
102
RTVSPost2010Prop55
280
     0
102
RTVSPost2010PropOp55
 70
     1
102
RTVSPost2010Prop56
140
1.0
102
RTVSPost2010PropOp56
 70
     1
102
RTVSPost2010Prop57
140
1.0
102
RTVSPost2010PropOp57
 70
     1
  0
XRECORD
  5
74F
102
{ACAD_REACTORS
330
74E
102
}
330
74E
100
AcDbXrecord
280
     1
102
RTVSPost2010Prop28
280
     0
102
RTVSPost2010PropOp28
 70
     1
102
RTVSPost2010Prop29
280
     1
102
RTVSPost2010PropOp29
 70
     1
102
RTVSPost2010Prop30
280
     1
102
RTVSPost2010PropOp30
 70
     1
102
RTVSPost2010Prop31
280
     0
102
RTVSPost2010PropOp31
 70
     1
102
RTVSPost2010Prop32
280
     0
102
RTVSPost2010PropOp32
 70
     1
102
RTVSPost2010Prop33
280
     0
102
RTVSPost2010PropOp33
 70
     1
102
RTVSPost2010Prop34
280
     0
102
RTVSPost2010PropOp34
 70
     1
102
RTVSPost2010Prop35
280
     0
102
RTVSPost2010PropOp35
 70
     1
102
RTVSPost2010Prop36
280
     0
102
RTVSPost2010PropOp36
 70
     1
102
RTVSPost2010Prop37
 90
       50
102
RTVSPost2010PropOp37
 70
     1
102
RTVSPost2010Prop38
140
0.0
102
RTVSPost2010PropOp38
 70
     1
102
RTVSPost2010Prop39
140
1.0
102
RTVSPost2010PropOp39
 70
     1
102
RTVSPost2010Prop40
 90
        0
102
RTVSPost2010PropOp40
 70
     1
102
RTVSPost2010Prop41ColorIndex
 90
       18
102
RTVSPost2010Prop41ColorRGB
 90
        0
102
RTVSPost2010PropOp41
 70
     1
102
RTVSPost2010Prop42
 90
       50
102
RTVSPost2010PropOp42
 70
     1
102
RTVSPost2010Prop43
 90
        3
102
RTVSPost2010PropOp43
 70
     1
102
RTVSPost2010Prop44ColorIndex
 90
        5
102
RTVSPost2010Prop44ColorRGB
 90
      255
102
RTVSPost2010PropOp44
 70
     1
102
RTVSPost2010Prop45
280
     0
102
RTVSPost2010PropOp45
 70
     1
102
RTVSPost2010Prop46
 90
       50
102
RTVSPost2010PropOp46
 70
     1
102
RTVSPost2010Prop47
 90
       50
102
RTVSPost2010PropOp47
 70
     1
102
RTVSPost2010Prop48
 90
       50
102
RTVSPost2010PropOp48
 70
     1
102
RTVSPost2010Prop49
280
     0
102
RTVSPost2010PropOp49
 70
     1
102
RTVSPost2010Prop50
 90
       50
102
RTVSPost2010PropOp50
 70
     1
102
RTVSPost2010Prop51ColorIndex
 90
      256
102
RTVSPost2010Prop51ColorRGB
 90
-16777216
102
RTVSPost2010PropOp51
 70
     0
102
RTVSPost2010Prop52
140
1.0
102
RTVSPost2010PropOp52
 70
     0
102
RTVSPost2010Prop53
 90
        2
102
RTVSPost2010PropOp53
 70
     1
102
RTVSPost2010Prop54
  1
strokes_ogs.tif
102
RTVSPost2010PropOp54
 70
     1
102
RTVSPost2010Prop55
280
     0
102
RTVSPost2010PropOp55
 70
     1
102
RTVSPost2010Prop56
140
1.0
102
RTVSPost2010PropOp56
 70
     1
102
RTVSPost2010Prop57
140
1.0
102
RTVSPost2010PropOp57
 70
     1
  0
XRECORD
  5
75D
102
{ACAD_REACTORS
330
75C
102
}
330
75C
100
AcDbXrecord
280
     1
102
RTVSPost2010Prop28
280
     0
102
RTVSPost2010PropOp28
 70
     1
102
RTVSPost2010Prop29
280
     1
102
RTVSPost2010PropOp29
 70
     1
102
RTVSPost2010Prop30
280
     1
102
RTVSPost2010PropOp30
 70
     1
102
RTVSPost2010Prop31
280
     0
102
RTVSPost2010PropOp31
 70
     1
102
RTVSPost2010Prop32
280
     0
102
RTVSPost2010PropOp32
 70
     1
102
RTVSPost2010Prop33
280
     0
102
RTVSPost2010PropOp33
 70
     1
102
RTVSPost2010Prop34
280
     0
102
RTVSPost2010PropOp34
 70
     1
102
RTVSPost2010Prop35
280
     0
102
RTVSPost2010PropOp35
 70
     1
102
RTVSPost2010Prop36
280
     0
102
RTVSPost2010PropOp36
 70
     1
102
RTVSPost2010Prop37
 90
       50
102
RTVSPost2010PropOp37
 70
     1
102
RTVSPost2010Prop38
140
0.0
102
RTVSPost2010PropOp38
 70
     1
102
RTVSPost2010Prop39
140
1.0
102
RTVSPost2010PropOp39
 70
     1
102
RTVSPost2010Prop40
 90
        0
102
RTVSPost2010PropOp40
 70
     1
102
RTVSPost2010Prop41ColorIndex
 90
       18
102
RTVSPost2010Prop41ColorRGB
 90
        0
102
RTVSPost2010PropOp41
 70
     1
102
RTVSPost2010Prop42
 90
       50
102
RTVSPost2010PropOp42
 70
     1
102
RTVSPost2010Prop43
 90
        3
102
RTVSPost2010PropOp43
 70
     1
102
RTVSPost2010Prop44ColorIndex
 90
        5
102
RTVSPost2010Prop44ColorRGB
 90
      255
102
RTVSPost2010PropOp44
 70
     1
102
RTVSPost2010Prop45
280
     0
102
RTVSPost2010PropOp45
 70
     1
102
RTVSPost2010Prop46
 90
       50
102
RTVSPost2010PropOp46
 70
     1
102
RTVSPost2010Prop47
 90
       50
102
RTVSPost2010PropOp47
 70
     1
102
RTVSPost2010Prop48
 90
       50
102
RTVSPost2010PropOp48
 70
     1
102
RTVSPost2010Prop49
280
     0
102
RTVSPost2010PropOp49
 70
     1
102
RTVSPost2010Prop50
 90
       50
102
RTVSPost2010PropOp50
 70
     1
102
RTVSPost2010Prop51ColorIndex
 90
      256
102
RTVSPost2010Prop51ColorRGB
 90
-16777216
102
RTVSPost2010PropOp51
 70
     0
102
RTVSPost2010Prop52
140
1.0
102
RTVSPost2010PropOp52
 70
     0
102
RTVSPost2010Prop53
 90
        2
102
RTVSPost2010PropOp53
 70
     1
102
RTVSPost2010Prop54
  1
strokes_ogs.tif
102
RTVSPost2010PropOp54
 70
     1
102
RTVSPost2010Prop55
280
     0
102
RTVSPost2010PropOp55
 70
     1
102
RTVSPost2010Prop56
140
1.0
102
RTVSPost2010PropOp56
 70
     1
102
RTVSPost2010Prop57
140
1.0
102
RTVSPost2010PropOp57
 70
     1
  0
XRECORD
  5
765
102
{ACAD_REACTORS
330
764
102
}
330
764
100
AcDbXrecord
280
     1
102
RTVSPost2010Prop28
280
     0
102
RTVSPost2010PropOp28
 70
     1
102
RTVSPost2010Prop29
280
     1
102
RTVSPost2010PropOp29
 70
     1
102
RTVSPost2010Prop30
280
     1
102
RTVSPost2010PropOp30
 70
     1
102
RTVSPost2010Prop31
280
     0
102
RTVSPost2010PropOp31
 70
     1
102
RTVSPost2010Prop32
280
     0
102
RTVSPost2010PropOp32
 70
     1
102
RTVSPost2010Prop33
280
     0
102
RTVSPost2010PropOp33
 70
     1
102
RTVSPost2010Prop34
280
     0
102
RTVSPost2010PropOp34
 70
     1
102
RTVSPost2010Prop35
280
     0
102
RTVSPost2010PropOp35
 70
     1
102
RTVSPost2010Prop36
280
     0
102
RTVSPost2010PropOp36
 70
     1
102
RTVSPost2010Prop37
 90
       50
102
RTVSPost2010PropOp37
 70
     1
102
RTVSPost2010Prop38
140
0.0
102
RTVSPost2010PropOp38
 70
     1
102
RTVSPost2010Prop39
140
1.0
102
RTVSPost2010PropOp39
 70
     1
102
RTVSPost2010Prop40
 90
        0
102
RTVSPost2010PropOp40
 70
     1
102
RTVSPost2010Prop41ColorIndex
 90
       18
102
RTVSPost2010Prop41ColorRGB
 90
        0
102
RTVSPost2010PropOp41
 70
     1
102
RTVSPost2010Prop42
 90
       50
102
RTVSPost2010PropOp42
 70
     1
102
RTVSPost2010Prop43
 90
        3
102
RTVSPost2010PropOp43
 70
     1
102
RTVSPost2010Prop44ColorIndex
 90
        5
102
RTVSPost2010Prop44ColorRGB
 90
      255
102
RTVSPost2010PropOp44
 70
     1
102
RTVSPost2010Prop45
280
     0
102
RTVSPost2010PropOp45
 70
     1
102
RTVSPost2010Prop46
 90
       50
102
RTVSPost2010PropOp46
 70
     1
102
RTVSPost2010Prop47
 90
       50
102
RTVSPost2010PropOp47
 70
     1
102
RTVSPost2010Prop48
 90
       50
102
RTVSPost2010PropOp48
 70
     1
102
RTVSPost2010Prop49
280
     0
102
RTVSPost2010PropOp49
 70
     1
102
RTVSPost2010Prop50
 90
       50
102
RTVSPost2010PropOp50
 70
     1
102
RTVSPost2010Prop51ColorIndex
 90
      256
102
RTVSPost2010Prop51ColorRGB
 90
-16777216
102
RTVSPost2010PropOp51
 70
     0
102
RTVSPost2010Prop52
140
1.0
102
RTVSPost2010PropOp52
 70
     0
102
RTVSPost2010Prop53
 90
        2
102
RTVSPost2010PropOp53
 70
     1
102
RTVSPost2010Prop54
  1
strokes_ogs.tif
102
RTVSPost2010PropOp54
 70
     1
102
RTVSPost2010Prop55
280
     0
102
RTVSPost2010PropOp55
 70
     1
102
RTVSPost2010Prop56
140
1.0
102
RTVSPost2010PropOp56
 70
     1
102
RTVSPost2010Prop57
140
1.0
102
RTVSPost2010PropOp57
 70
     1
  0
XRECORD
  5
757
102
{ACAD_REACTORS
330
756
102
}
330
756
100
AcDbXrecord
280
     1
102
RTVSPost2010Prop28
280
     0
102
RTVSPost2010PropOp28
 70
     1
102
RTVSPost2010Prop29
280
     1
102
RTVSPost2010PropOp29
 70
     1
102
RTVSPost2010Prop30
280
     1
102
RTVSPost2010PropOp30
 70
     1
102
RTVSPost2010Prop31
280
     0
102
RTVSPost2010PropOp31
 70
     1
102
RTVSPost2010Prop32
280
     0
102
RTVSPost2010PropOp32
 70
     1
102
RTVSPost2010Prop33
280
     0
102
RTVSPost2010PropOp33
 70
     1
102
RTVSPost2010Prop34
280
     0
102
RTVSPost2010PropOp34
 70
     1
102
RTVSPost2010Prop35
280
     0
102
RTVSPost2010PropOp35
 70
     1
102
RTVSPost2010Prop36
280
     0
102
RTVSPost2010PropOp36
 70
     1
102
RTVSPost2010Prop37
 90
       50
102
RTVSPost2010PropOp37
 70
     1
102
RTVSPost2010Prop38
140
0.0
102
RTVSPost2010PropOp38
 70
     1
102
RTVSPost2010Prop39
140
1.0
102
RTVSPost2010PropOp39
 70
     1
102
RTVSPost2010Prop40
 90
        0
102
RTVSPost2010PropOp40
 70
     1
102
RTVSPost2010Prop41ColorIndex
 90
       18
102
RTVSPost2010Prop41ColorRGB
 90
        0
102
RTVSPost2010PropOp41
 70
     1
102
RTVSPost2010Prop42
 90
       50
102
RTVSPost2010PropOp42
 70
     1
102
RTVSPost2010Prop43
 90
        3
102
RTVSPost2010PropOp43
 70
     1
102
RTVSPost2010Prop44ColorIndex
 90
        5
102
RTVSPost2010Prop44ColorRGB
 90
      255
102
RTVSPost2010PropOp44
 70
     1
102
RTVSPost2010Prop45
280
     0
102
RTVSPost2010PropOp45
 70
     1
102
RTVSPost2010Prop46
 90
       50
102
RTVSPost2010PropOp46
 70
     1
102
RTVSPost2010Prop47
 90
       50
102
RTVSPost2010PropOp47
 70
     1
102
RTVSPost2010Prop48
 90
       50
102
RTVSPost2010PropOp48
 70
     1
102
RTVSPost2010Prop49
280
     0
102
RTVSPost2010PropOp49
 70
     1
102
RTVSPost2010Prop50
 90
       50
102
RTVSPost2010PropOp50
 70
     1
102
RTVSPost2010Prop51ColorIndex
 90
      256
102
RTVSPost2010Prop51ColorRGB
 90
-16777216
102
RTVSPost2010PropOp51
 70
     0
102
RTVSPost2010Prop52
140
1.0
102
RTVSPost2010PropOp52
 70
     0
102
RTVSPost2010Prop53
 90
        2
102
RTVSPost2010PropOp53
 70
     1
102
RTVSPost2010Prop54
  1
strokes_ogs.tif
102
RTVSPost2010PropOp54
 70
     1
102
RTVSPost2010Prop55
280
     0
102
RTVSPost2010PropOp55
 70
     1
102
RTVSPost2010Prop56
140
1.0
102
RTVSPost2010PropOp56
 70
     1
102
RTVSPost2010Prop57
140
1.0
102
RTVSPost2010PropOp57
 70
     1
  0
XRECORD
  5
75B
102
{ACAD_REACTORS
330
75A
102
}
330
75A
100
AcDbXrecord
280
     1
102
RTVSPost2010Prop28
280
     0
102
RTVSPost2010PropOp28
 70
     1
102
RTVSPost2010Prop29
280
     1
102
RTVSPost2010PropOp29
 70
     1
102
RTVSPost2010Prop30
280
     1
102
RTVSPost2010PropOp30
 70
     1
102
RTVSPost2010Prop31
280
     0
102
RTVSPost2010PropOp31
 70
     1
102
RTVSPost2010Prop32
280
     0
102
RTVSPost2010PropOp32
 70
     1
102
RTVSPost2010Prop33
280
     0
102
RTVSPost2010PropOp33
 70
     1
102
RTVSPost2010Prop34
280
     0
102
RTVSPost2010PropOp34
 70
     1
102
RTVSPost2010Prop35
280
     0
102
RTVSPost2010PropOp35
 70
     1
102
RTVSPost2010Prop36
280
     0
102
RTVSPost2010PropOp36
 70
     1
102
RTVSPost2010Prop37
 90
       50
102
RTVSPost2010PropOp37
 70
     1
102
RTVSPost2010Prop38
140
0.0
102
RTVSPost2010PropOp38
 70
     1
102
RTVSPost2010Prop39
140
1.0
102
RTVSPost2010PropOp39
 70
     1
102
RTVSPost2010Prop40
 90
        0
102
RTVSPost2010PropOp40
 70
     1
102
RTVSPost2010Prop41ColorIndex
 90
       18
102
RTVSPost2010Prop41ColorRGB
 90
        0
102
RTVSPost2010PropOp41
 70
     1
102
RTVSPost2010Prop42
 90
       50
102
RTVSPost2010PropOp42
 70
     1
102
RTVSPost2010Prop43
 90
        3
102
RTVSPost2010PropOp43
 70
     1
102
RTVSPost2010Prop44ColorIndex
 90
        5
102
RTVSPost2010Prop44ColorRGB
 90
      255
102
RTVSPost2010PropOp44
 70
     1
102
RTVSPost2010Prop45
280
     0
102
RTVSPost2010PropOp45
 70
     1
102
RTVSPost2010Prop46
 90
       50
102
RTVSPost2010PropOp46
 70
     1
102
RTVSPost2010Prop47
 90
       50
102
RTVSPost2010PropOp47
 70
     1
102
RTVSPost2010Prop48
 90
       50
102
RTVSPost2010PropOp48
 70
     1
102
RTVSPost2010Prop49
280
     0
102
RTVSPost2010PropOp49
 70
     1
102
RTVSPost2010Prop50
 90
       50
102
RTVSPost2010PropOp50
 70
     1
102
RTVSPost2010Prop51ColorIndex
 90
      256
102
RTVSPost2010Prop51ColorRGB
 90
-16777216
102
RTVSPost2010PropOp51
 70
     0
102
RTVSPost2010Prop52
140
1.0
102
RTVSPost2010PropOp52
 70
     0
102
RTVSPost2010Prop53
 90
        2
102
RTVSPost2010PropOp53
 70
     1
102
RTVSPost2010Prop54
  1
strokes_ogs.tif
102
RTVSPost2010PropOp54
 70
     1
102
RTVSPost2010Prop55
280
     0
102
RTVSPost2010PropOp55
 70
     1
102
RTVSPost2010Prop56
140
1.0
102
RTVSPost2010PropOp56
 70
     1
102
RTVSPost2010Prop57
140
1.0
102
RTVSPost2010PropOp57
 70
     1
  0
XRECORD
  5
775
102
{ACAD_REACTORS
330
774
102
}
330
774
100
AcDbXrecord
280
     1
102
RTVSPost2010Prop28
280
     0
102
RTVSPost2010PropOp28
 70
     0
102
RTVSPost2010Prop29
280
     1
102
RTVSPost2010PropOp29
 70
     0
102
RTVSPost2010Prop30
280
     1
102
RTVSPost2010PropOp30
 70
     0
102
RTVSPost2010Prop31
280
     0
102
RTVSPost2010PropOp31
 70
     0
102
RTVSPost2010Prop32
280
     0
102
RTVSPost2010PropOp32
 70
     0
102
RTVSPost2010Prop33
280
     0
102
RTVSPost2010PropOp33
 70
     0
102
RTVSPost2010Prop34
280
     0
102
RTVSPost2010PropOp34
 70
     0
102
RTVSPost2010Prop35
280
     0
102
RTVSPost2010PropOp35
 70
     0
102
RTVSPost2010Prop36
280
     0
102
RTVSPost2010PropOp36
 70
     0
102
RTVSPost2010Prop37
 90
       50
102
RTVSPost2010PropOp37
 70
     0
102
RTVSPost2010Prop38
140
0.0
102
RTVSPost2010PropOp38
 70
     0
102
RTVSPost2010Prop39
140
1.0
102
RTVSPost2010PropOp39
 70
     0
102
RTVSPost2010Prop40
 90
        0
102
RTVSPost2010PropOp40
 70
     0
102
RTVSPost2010Prop41ColorIndex
 90
       18
102
RTVSPost2010Prop41ColorRGB
 90
        0
102
RTVSPost2010PropOp41
 70
     0
102
RTVSPost2010Prop42
 90
       50
102
RTVSPost2010PropOp42
 70
     0
102
RTVSPost2010Prop43
 90
        3
102
RTVSPost2010PropOp43
 70
     0
102
RTVSPost2010Prop44ColorIndex
 90
        5
102
RTVSPost2010Prop44ColorRGB
 90
      255
102
RTVSPost2010PropOp44
 70
     0
102
RTVSPost2010Prop45
280
     0
102
RTVSPost2010PropOp45
 70
     0
102
RTVSPost2010Prop46
 90
       50
102
RTVSPost2010PropOp46
 70
     0
102
RTVSPost2010Prop47
 90
       50
102
RTVSPost2010PropOp47
 70
     0
102
RTVSPost2010Prop48
 90
       50
102
RTVSPost2010PropOp48
 70
     0
102
RTVSPost2010Prop49
280
     0
102
RTVSPost2010PropOp49
 70
     0
102
RTVSPost2010Prop50
 90
       50
102
RTVSPost2010PropOp50
 70
     0
102
RTVSPost2010Prop51ColorIndex
 90
      256
102
RTVSPost2010Prop51ColorRGB
 90
-16777216
102
RTVSPost2010PropOp51
 70
     0
102
RTVSPost2010Prop52
140
1.0
102
RTVSPost2010PropOp52
 70
     0
102
RTVSPost2010Prop53
 90
        2
102
RTVSPost2010PropOp53
 70
     0
102
RTVSPost2010Prop54
  1
strokes_ogs.tif
102
RTVSPost2010PropOp54
 70
     0
102
RTVSPost2010Prop55
280
     0
102
RTVSPost2010PropOp55
 70
     0
102
RTVSPost2010Prop56
140
1.0
102
RTVSPost2010PropOp56
 70
     0
102
RTVSPost2010Prop57
140
1.0
102
RTVSPost2010PropOp57
 70
     0
  0
XRECORD
  5
763
102
{ACAD_REACTORS
330
762
102
}
330
762
100
AcDbXrecord
280
     1
102
RTVSPost2010Prop28
280
     0
102
RTVSPost2010PropOp28
 70
     1
102
RTVSPost2010Prop29
280
     1
102
RTVSPost2010PropOp29
 70
     1
102
RTVSPost2010Prop30
280
     1
102
RTVSPost2010PropOp30
 70
     1
102
RTVSPost2010Prop31
280
     0
102
RTVSPost2010PropOp31
 70
     1
102
RTVSPost2010Prop32
280
     0
102
RTVSPost2010PropOp32
 70
     1
102
RTVSPost2010Prop33
280
     0
102
RTVSPost2010PropOp33
 70
     1
102
RTVSPost2010Prop34
280
     0
102
RTVSPost2010PropOp34
 70
     1
102
RTVSPost2010Prop35
280
     0
102
RTVSPost2010PropOp35
 70
     1
102
RTVSPost2010Prop36
280
     0
102
RTVSPost2010PropOp36
 70
     1
102
RTVSPost2010Prop37
 90
       50
102
RTVSPost2010PropOp37
 70
     1
102
RTVSPost2010Prop38
140
0.0
102
RTVSPost2010PropOp38
 70
     1
102
RTVSPost2010Prop39
140
1.0
102
RTVSPost2010PropOp39
 70
     1
102
RTVSPost2010Prop40
 90
        0
102
RTVSPost2010PropOp40
 70
     1
102
RTVSPost2010Prop41ColorIndex
 90
       18
102
RTVSPost2010Prop41ColorRGB
 90
        0
102
RTVSPost2010PropOp41
 70
     1
102
RTVSPost2010Prop42
 90
       50
102
RTVSPost2010PropOp42
 70
     1
102
RTVSPost2010Prop43
 90
        3
102
RTVSPost2010PropOp43
 70
     1
102
RTVSPost2010Prop44ColorIndex
 90
        5
102
RTVSPost2010Prop44ColorRGB
 90
      255
102
RTVSPost2010PropOp44
 70
     1
102
RTVSPost2010Prop45
280
     0
102
RTVSPost2010PropOp45
 70
     1
102
RTVSPost2010Prop46
 90
       50
102
RTVSPost2010PropOp46
 70
     1
102
RTVSPost2010Prop47
 90
       50
102
RTVSPost2010PropOp47
 70
     1
102
RTVSPost2010Prop48
 90
       50
102
RTVSPost2010PropOp48
 70
     1
102
RTVSPost2010Prop49
280
     0
102
RTVSPost2010PropOp49
 70
     1
102
RTVSPost2010Prop50
 90
       50
102
RTVSPost2010PropOp50
 70
     1
102
RTVSPost2010Prop51ColorIndex
 90
      256
102
RTVSPost2010Prop51ColorRGB
 90
-16777216
102
RTVSPost2010PropOp51
 70
     0
102
RTVSPost2010Prop52
140
1.0
102
RTVSPost2010PropOp52
 70
     0
102
RTVSPost2010Prop53
 90
        2
102
RTVSPost2010PropOp53
 70
     1
102
RTVSPost2010Prop54
  1
strokes_ogs.tif
102
RTVSPost2010PropOp54
 70
     1
102
RTVSPost2010Prop55
280
     0
102
RTVSPost2010PropOp55
 70
     1
102
RTVSPost2010Prop56
140
1.0
102
RTVSPost2010PropOp56
 70
     1
102
RTVSPost2010Prop57
140
1.0
102
RTVSPost2010PropOp57
 70
     1
  0
XRECORD
  5
747
102
{ACAD_REACTORS
330
746
102
}
330
746
100
AcDbXrecord
280
     1
102
RTVSPost2010Prop28
280
     0
102
RTVSPost2010PropOp28
 70
     1
102
RTVSPost2010Prop29
280
     1
102
RTVSPost2010PropOp29
 70
     1
102
RTVSPost2010Prop30
280
     1
102
RTVSPost2010PropOp30
 70
     1
102
RTVSPost2010Prop31
280
     0
102
RTVSPost2010PropOp31
 70
     1
102
RTVSPost2010Prop32
280
     0
102
RTVSPost2010PropOp32
 70
     1
102
RTVSPost2010Prop33
280
     0
102
RTVSPost2010PropOp33
 70
     1
102
RTVSPost2010Prop34
280
     0
102
RTVSPost2010PropOp34
 70
     1
102
RTVSPost2010Prop35
280
     0
102
RTVSPost2010PropOp35
 70
     1
102
RTVSPost2010Prop36
280
     0
102
RTVSPost2010PropOp36
 70
     1
102
RTVSPost2010Prop37
 90
       50
102
RTVSPost2010PropOp37
 70
     1
102
RTVSPost2010Prop38
140
0.0
102
RTVSPost2010PropOp38
 70
     1
102
RTVSPost2010Prop39
140
1.0
102
RTVSPost2010PropOp39
 70
     1
102
RTVSPost2010Prop40
 90
        0
102
RTVSPost2010PropOp40
 70
     1
102
RTVSPost2010Prop41ColorIndex
 90
       18
102
RTVSPost2010Prop41ColorRGB
 90
        0
102
RTVSPost2010PropOp41
 70
     1
102
RTVSPost2010Prop42
 90
       50
102
RTVSPost2010PropOp42
 70
     1
102
RTVSPost2010Prop43
 90
        3
102
RTVSPost2010PropOp43
 70
     1
102
RTVSPost2010Prop44ColorIndex
 90
        5
102
RTVSPost2010Prop44ColorRGB
 90
      255
102
RTVSPost2010PropOp44
 70
     1
102
RTVSPost2010Prop45
280
     0
102
RTVSPost2010PropOp45
 70
     1
102
RTVSPost2010Prop46
 90
       50
102
RTVSPost2010PropOp46
 70
     1
102
RTVSPost2010Prop47
 90
       50
102
RTVSPost2010PropOp47
 70
     1
102
RTVSPost2010Prop48
 90
       50
102
RTVSPost2010PropOp48
 70
     1
102
RTVSPost2010Prop49
280
     0
102
RTVSPost2010PropOp49
 70
     1
102
RTVSPost2010Prop50
 90
       50
102
RTVSPost2010PropOp50
 70
     1
102
RTVSPost2010Prop51ColorIndex
 90
      256
102
RTVSPost2010Prop51ColorRGB
 90
-16777216
102
RTVSPost2010PropOp51
 70
     0
102
RTVSPost2010Prop52
140
1.0
102
RTVSPost2010PropOp52
 70
     0
102
RTVSPost2010Prop53
 90
        2
102
RTVSPost2010PropOp53
 70
     1
102
RTVSPost2010Prop54
  1
strokes_ogs.tif
102
RTVSPost2010PropOp54
 70
     1
102
RTVSPost2010Prop55
280
     0
102
RTVSPost2010PropOp55
 70
     1
102
RTVSPost2010Prop56
140
1.0
102
RTVSPost2010PropOp56
 70
     1
102
RTVSPost2010Prop57
140
1.0
102
RTVSPost2010PropOp57
 70
     1
  0
XRECORD
  5
749
102
{ACAD_REACTORS
330
748
102
}
330
748
100
AcDbXrecord
280
     1
102
RTVSPost2010Prop28
280
     0
102
RTVSPost2010PropOp28
 70
     1
102
RTVSPost2010Prop29
280
     1
102
RTVSPost2010PropOp29
 70
     1
102
RTVSPost2010Prop30
280
     1
102
RTVSPost2010PropOp30
 70
     1
102
RTVSPost2010Prop31
280
     0
102
RTVSPost2010PropOp31
 70
     1
102
RTVSPost2010Prop32
280
     0
102
RTVSPost2010PropOp32
 70
     1
102
RTVSPost2010Prop33
280
     0
102
RTVSPost2010PropOp33
 70
     1
102
RTVSPost2010Prop34
280
     0
102
RTVSPost2010PropOp34
 70
     1
102
RTVSPost2010Prop35
280
     0
102
RTVSPost2010PropOp35
 70
     1
102
RTVSPost2010Prop36
280
     0
102
RTVSPost2010PropOp36
 70
     1
102
RTVSPost2010Prop37
 90
       50
102
RTVSPost2010PropOp37
 70
     1
102
RTVSPost2010Prop38
140
0.0
102
RTVSPost2010PropOp38
 70
     1
102
RTVSPost2010Prop39
140
1.0
102
RTVSPost2010PropOp39
 70
     1
102
RTVSPost2010Prop40
 90
        0
102
RTVSPost2010PropOp40
 70
     1
102
RTVSPost2010Prop41ColorIndex
 90
       18
102
RTVSPost2010Prop41ColorRGB
 90
        0
102
RTVSPost2010PropOp41
 70
     1
102
RTVSPost2010Prop42
 90
       50
102
RTVSPost2010PropOp42
 70
     1
102
RTVSPost2010Prop43
 90
        3
102
RTVSPost2010PropOp43
 70
     1
102
RTVSPost2010Prop44ColorIndex
 90
        5
102
RTVSPost2010Prop44ColorRGB
 90
      255
102
RTVSPost2010PropOp44
 70
     1
102
RTVSPost2010Prop45
280
     0
102
RTVSPost2010PropOp45
 70
     1
102
RTVSPost2010Prop46
 90
       50
102
RTVSPost2010PropOp46
 70
     1
102
RTVSPost2010Prop47
 90
       50
102
RTVSPost2010PropOp47
 70
     1
102
RTVSPost2010Prop48
 90
       50
102
RTVSPost2010PropOp48
 70
     1
102
RTVSPost2010Prop49
280
     0
102
RTVSPost2010PropOp49
 70
     1
102
RTVSPost2010Prop50
 90
       50
102
RTVSPost2010PropOp50
 70
     1
102
RTVSPost2010Prop51ColorIndex
 90
      256
102
RTVSPost2010Prop51ColorRGB
 90
-16777216
102
RTVSPost2010PropOp51
 70
     0
102
RTVSPost2010Prop52
140
1.0
102
RTVSPost2010PropOp52
 70
     0
102
RTVSPost2010Prop53
 90
        2
102
RTVSPost2010PropOp53
 70
     1
102
RTVSPost2010Prop54
  1
strokes_ogs.tif
102
RTVSPost2010PropOp54
 70
     1
102
RTVSPost2010Prop55
280
     0
102
RTVSPost2010PropOp55
 70
     1
102
RTVSPost2010Prop56
140
1.0
102
RTVSPost2010PropOp56
 70
     1
102
RTVSPost2010Prop57
140
1.0
102
RTVSPost2010PropOp57
 70
     1
  0
XRECORD
  5
74B
102
{ACAD_REACTORS
330
74A
102
}
330
74A
100
AcDbXrecord
280
     1
102
RTVSPost2010Prop28
280
     0
102
RTVSPost2010PropOp28
 70
     1
102
RTVSPost2010Prop29
280
     1
102
RTVSPost2010PropOp29
 70
     1
102
RTVSPost2010Prop30
280
     1
102
RTVSPost2010PropOp30
 70
     1
102
RTVSPost2010Prop31
280
     0
102
RTVSPost2010PropOp31
 70
     1
102
RTVSPost2010Prop32
280
     0
102
RTVSPost2010PropOp32
 70
     1
102
RTVSPost2010Prop33
280
     0
102
RTVSPost2010PropOp33
 70
     1
102
RTVSPost2010Prop34
280
     0
102
RTVSPost2010PropOp34
 70
     1
102
RTVSPost2010Prop35
280
     0
102
RTVSPost2010PropOp35
 70
     1
102
RTVSPost2010Prop36
280
     0
102
RTVSPost2010PropOp36
 70
     1
102
RTVSPost2010Prop37
 90
       50
102
RTVSPost2010PropOp37
 70
     1
102
RTVSPost2010Prop38
140
0.0
102
RTVSPost2010PropOp38
 70
     1
102
RTVSPost2010Prop39
140
1.0
102
RTVSPost2010PropOp39
 70
     1
102
RTVSPost2010Prop40
 90
        0
102
RTVSPost2010PropOp40
 70
     1
102
RTVSPost2010Prop41ColorIndex
 90
       18
102
RTVSPost2010Prop41ColorRGB
 90
        0
102
RTVSPost2010PropOp41
 70
     1
102
RTVSPost2010Prop42
 90
       50
102
RTVSPost2010PropOp42
 70
     1
102
RTVSPost2010Prop43
 90
        3
102
RTVSPost2010PropOp43
 70
     1
102
RTVSPost2010Prop44ColorIndex
 90
        5
102
RTVSPost2010Prop44ColorRGB
 90
      255
102
RTVSPost2010PropOp44
 70
     1
102
RTVSPost2010Prop45
280
     0
102
RTVSPost2010PropOp45
 70
     1
102
RTVSPost2010Prop46
 90
       50
102
RTVSPost2010PropOp46
 70
     1
102
RTVSPost2010Prop47
 90
       50
102
RTVSPost2010PropOp47
 70
     1
102
RTVSPost2010Prop48
 90
       50
102
RTVSPost2010PropOp48
 70
     1
102
RTVSPost2010Prop49
280
     0
102
RTVSPost2010PropOp49
 70
     1
102
RTVSPost2010Prop50
 90
       50
102
RTVSPost2010PropOp50
 70
     1
102
RTVSPost2010Prop51ColorIndex
 90
      256
102
RTVSPost2010Prop51ColorRGB
 90
-16777216
102
RTVSPost2010PropOp51
 70
     0
102
RTVSPost2010Prop52
140
1.0
102
RTVSPost2010PropOp52
 70
     0
102
RTVSPost2010Prop53
 90
        2
102
RTVSPost2010PropOp53
 70
     1
102
RTVSPost2010Prop54
  1
strokes_ogs.tif
102
RTVSPost2010PropOp54
 70
     1
102
RTVSPost2010Prop55
280
     0
102
RTVSPost2010PropOp55
 70
     1
102
RTVSPost2010Prop56
140
1.0
102
RTVSPost2010PropOp56
 70
     1
102
RTVSPost2010Prop57
140
1.0
102
RTVSPost2010PropOp57
 70
     1
  0
XRECORD
  5
74D
102
{ACAD_REACTORS
330
74C
102
}
330
74C
100
AcDbXrecord
280
     1
102
RTVSPost2010Prop28
280
     0
102
RTVSPost2010PropOp28
 70
     1
102
RTVSPost2010Prop29
280
     1
102
RTVSPost2010PropOp29
 70
     1
102
RTVSPost2010Prop30
280
     1
102
RTVSPost2010PropOp30
 70
     1
102
RTVSPost2010Prop31
280
     0
102
RTVSPost2010PropOp31
 70
     1
102
RTVSPost2010Prop32
280
     0
102
RTVSPost2010PropOp32
 70
     1
102
RTVSPost2010Prop33
280
     0
102
RTVSPost2010PropOp33
 70
     1
102
RTVSPost2010Prop34
280
     0
102
RTVSPost2010PropOp34
 70
     1
102
RTVSPost2010Prop35
280
     0
102
RTVSPost2010PropOp35
 70
     1
102
RTVSPost2010Prop36
280
     0
102
RTVSPost2010PropOp36
 70
     1
102
RTVSPost2010Prop37
 90
       50
102
RTVSPost2010PropOp37
 70
     1
102
RTVSPost2010Prop38
140
0.0
102
RTVSPost2010PropOp38
 70
     1
102
RTVSPost2010Prop39
140
1.0
102
RTVSPost2010PropOp39
 70
     1
102
RTVSPost2010Prop40
 90
        0
102
RTVSPost2010PropOp40
 70
     1
102
RTVSPost2010Prop41ColorIndex
 90
       18
102
RTVSPost2010Prop41ColorRGB
 90
        0
102
RTVSPost2010PropOp41
 70
     1
102
RTVSPost2010Prop42
 90
       50
102
RTVSPost2010PropOp42
 70
     1
102
RTVSPost2010Prop43
 90
        3
102
RTVSPost2010PropOp43
 70
     1
102
RTVSPost2010Prop44ColorIndex
 90
        5
102
RTVSPost2010Prop44ColorRGB
 90
      255
102
RTVSPost2010PropOp44
 70
     1
102
RTVSPost2010Prop45
280
     0
102
RTVSPost2010PropOp45
 70
     1
102
RTVSPost2010Prop46
 90
       50
102
RTVSPost2010PropOp46
 70
     1
102
RTVSPost2010Prop47
 90
       50
102
RTVSPost2010PropOp47
 70
     1
102
RTVSPost2010Prop48
 90
       50
102
RTVSPost2010PropOp48
 70
     1
102
RTVSPost2010Prop49
280
     0
102
RTVSPost2010PropOp49
 70
     1
102
RTVSPost2010Prop50
 90
       50
102
RTVSPost2010PropOp50
 70
     1
102
RTVSPost2010Prop51ColorIndex
 90
      256
102
RTVSPost2010Prop51ColorRGB
 90
-16777216
102
RTVSPost2010PropOp51
 70
     0
102
RTVSPost2010Prop52
140
1.0
102
RTVSPost2010PropOp52
 70
     0
102
RTVSPost2010Prop53
 90
        2
102
RTVSPost2010PropOp53
 70
     1
102
RTVSPost2010Prop54
  1
strokes_ogs.tif
102
RTVSPost2010PropOp54
 70
     1
102
RTVSPost2010Prop55
280
     0
102
RTVSPost2010PropOp55
 70
     1
102
RTVSPost2010Prop56
140
1.0
102
RTVSPost2010PropOp56
 70
     1
102
RTVSPost2010Prop57
140
1.0
102
RTVSPost2010PropOp57
 70
     1
  0
XRECORD
  5
755
102
{ACAD_REACTORS
330
754
102
}
330
754
100
AcDbXrecord
280
     1
102
RTVSPost2010Prop28
280
     0
102
RTVSPost2010PropOp28
 70
     1
102
RTVSPost2010Prop29
280
     1
102
RTVSPost2010PropOp29
 70
     1
102
RTVSPost2010Prop30
280
     1
102
RTVSPost2010PropOp30
 70
     1
102
RTVSPost2010Prop31
280
     0
102
RTVSPost2010PropOp31
 70
     1
102
RTVSPost2010Prop32
280
     0
102
RTVSPost2010PropOp32
 70
     1
102
RTVSPost2010Prop33
280
     0
102
RTVSPost2010PropOp33
 70
     1
102
RTVSPost2010Prop34
280
     0
102
RTVSPost2010PropOp34
 70
     1
102
RTVSPost2010Prop35
280
     0
102
RTVSPost2010PropOp35
 70
     1
102
RTVSPost2010Prop36
280
     0
102
RTVSPost2010PropOp36
 70
     1
102
RTVSPost2010Prop37
 90
       50
102
RTVSPost2010PropOp37
 70
     1
102
RTVSPost2010Prop38
140
0.0
102
RTVSPost2010PropOp38
 70
     1
102
RTVSPost2010Prop39
140
1.0
102
RTVSPost2010PropOp39
 70
     1
102
RTVSPost2010Prop40
 90
        0
102
RTVSPost2010PropOp40
 70
     1
102
RTVSPost2010Prop41ColorIndex
 90
       18
102
RTVSPost2010Prop41ColorRGB
 90
        0
102
RTVSPost2010PropOp41
 70
     1
102
RTVSPost2010Prop42
 90
       50
102
RTVSPost2010PropOp42
 70
     1
102
RTVSPost2010Prop43
 90
        3
102
RTVSPost2010PropOp43
 70
     1
102
RTVSPost2010Prop44ColorIndex
 90
        5
102
RTVSPost2010Prop44ColorRGB
 90
      255
102
RTVSPost2010PropOp44
 70
     1
102
RTVSPost2010Prop45
280
     0
102
RTVSPost2010PropOp45
 70
     1
102
RTVSPost2010Prop46
 90
       50
102
RTVSPost2010PropOp46
 70
     1
102
RTVSPost2010Prop47
 90
       50
102
RTVSPost2010PropOp47
 70
     1
102
RTVSPost2010Prop48
 90
       50
102
RTVSPost2010PropOp48
 70
     1
102
RTVSPost2010Prop49
280
     0
102
RTVSPost2010PropOp49
 70
     1
102
RTVSPost2010Prop50
 90
       50
102
RTVSPost2010PropOp50
 70
     1
102
RTVSPost2010Prop51ColorIndex
 90
      256
102
RTVSPost2010Prop51ColorRGB
 90
-16777216
102
RTVSPost2010PropOp51
 70
     0
102
RTVSPost2010Prop52
140
1.0
102
RTVSPost2010PropOp52
 70
     0
102
RTVSPost2010Prop53
 90
        2
102
RTVSPost2010PropOp53
 70
     1
102
RTVSPost2010Prop54
  1
strokes_ogs.tif
102
RTVSPost2010PropOp54
 70
     1
102
RTVSPost2010Prop55
280
     0
102
RTVSPost2010PropOp55
 70
     1
102
RTVSPost2010Prop56
140
1.0
102
RTVSPost2010PropOp56
 70
     1
102
RTVSPost2010Prop57
140
1.0
102
RTVSPost2010PropOp57
 70
     1
  0
XRECORD
  5
771
102
{ACAD_REACTORS
330
770
102
}
330
770
100
AcDbXrecord
280
     1
102
RTVSPost2010Prop28
280
     0
102
RTVSPost2010PropOp28
 70
     0
102
RTVSPost2010Prop29
280
     1
102
RTVSPost2010PropOp29
 70
     0
102
RTVSPost2010Prop30
280
     1
102
RTVSPost2010PropOp30
 70
     0
102
RTVSPost2010Prop31
280
     0
102
RTVSPost2010PropOp31
 70
     0
102
RTVSPost2010Prop32
280
     0
102
RTVSPost2010PropOp32
 70
     0
102
RTVSPost2010Prop33
280
     0
102
RTVSPost2010PropOp33
 70
     0
102
RTVSPost2010Prop34
280
     0
102
RTVSPost2010PropOp34
 70
     0
102
RTVSPost2010Prop35
280
     0
102
RTVSPost2010PropOp35
 70
     0
102
RTVSPost2010Prop36
280
     0
102
RTVSPost2010PropOp36
 70
     0
102
RTVSPost2010Prop37
 90
       50
102
RTVSPost2010PropOp37
 70
     0
102
RTVSPost2010Prop38
140
0.0
102
RTVSPost2010PropOp38
 70
     0
102
RTVSPost2010Prop39
140
1.0
102
RTVSPost2010PropOp39
 70
     0
102
RTVSPost2010Prop40
 90
        0
102
RTVSPost2010PropOp40
 70
     0
102
RTVSPost2010Prop41ColorIndex
 90
       18
102
RTVSPost2010Prop41ColorRGB
 90
        0
102
RTVSPost2010PropOp41
 70
     0
102
RTVSPost2010Prop42
 90
       50
102
RTVSPost2010PropOp42
 70
     0
102
RTVSPost2010Prop43
 90
        3
102
RTVSPost2010PropOp43
 70
     0
102
RTVSPost2010Prop44ColorIndex
 90
        5
102
RTVSPost2010Prop44ColorRGB
 90
      255
102
RTVSPost2010PropOp44
 70
     0
102
RTVSPost2010Prop45
280
     0
102
RTVSPost2010PropOp45
 70
     0
102
RTVSPost2010Prop46
 90
       50
102
RTVSPost2010PropOp46
 70
     0
102
RTVSPost2010Prop47
 90
       50
102
RTVSPost2010PropOp47
 70
     0
102
RTVSPost2010Prop48
 90
       50
102
RTVSPost2010PropOp48
 70
     0
102
RTVSPost2010Prop49
280
     0
102
RTVSPost2010PropOp49
 70
     0
102
RTVSPost2010Prop50
 90
       50
102
RTVSPost2010PropOp50
 70
     0
102
RTVSPost2010Prop51ColorIndex
 90
      256
102
RTVSPost2010Prop51ColorRGB
 90
-16777216
102
RTVSPost2010PropOp51
 70
     0
102
RTVSPost2010Prop52
140
1.0
102
RTVSPost2010PropOp52
 70
     0
102
RTVSPost2010Prop53
 90
        2
102
RTVSPost2010PropOp53
 70
     0
102
RTVSPost2010Prop54
  1
strokes_ogs.tif
102
RTVSPost2010PropOp54
 70
     0
102
RTVSPost2010Prop55
280
     0
102
RTVSPost2010PropOp55
 70
     0
102
RTVSPost2010Prop56
140
1.0
102
RTVSPost2010PropOp56
 70
     0
102
RTVSPost2010Prop57
140
1.0
102
RTVSPost2010PropOp57
 70
     0
  0
XRECORD
  5
761
102
{ACAD_REACTORS
330
760
102
}
330
760
100
AcDbXrecord
280
     1
102
RTVSPost2010Prop28
280
     0
102
RTVSPost2010PropOp28
 70
     1
102
RTVSPost2010Prop29
280
     1
102
RTVSPost2010PropOp29
 70
     1
102
RTVSPost2010Prop30
280
     1
102
RTVSPost2010PropOp30
 70
     1
102
RTVSPost2010Prop31
280
     0
102
RTVSPost2010PropOp31
 70
     1
102
RTVSPost2010Prop32
280
     0
102
RTVSPost2010PropOp32
 70
     1
102
RTVSPost2010Prop33
280
     0
102
RTVSPost2010PropOp33
 70
     1
102
RTVSPost2010Prop34
280
     0
102
RTVSPost2010PropOp34
 70
     1
102
RTVSPost2010Prop35
280
     0
102
RTVSPost2010PropOp35
 70
     1
102
RTVSPost2010Prop36
280
     0
102
RTVSPost2010PropOp36
 70
     1
102
RTVSPost2010Prop37
 90
       50
102
RTVSPost2010PropOp37
 70
     1
102
RTVSPost2010Prop38
140
0.0
102
RTVSPost2010PropOp38
 70
     1
102
RTVSPost2010Prop39
140
1.0
102
RTVSPost2010PropOp39
 70
     1
102
RTVSPost2010Prop40
 90
        0
102
RTVSPost2010PropOp40
 70
     1
102
RTVSPost2010Prop41ColorIndex
 90
       18
102
RTVSPost2010Prop41ColorRGB
 90
        0
102
RTVSPost2010PropOp41
 70
     1
102
RTVSPost2010Prop42
 90
       50
102
RTVSPost2010PropOp42
 70
     1
102
RTVSPost2010Prop43
 90
        3
102
RTVSPost2010PropOp43
 70
     1
102
RTVSPost2010Prop44ColorIndex
 90
        5
102
RTVSPost2010Prop44ColorRGB
 90
      255
102
RTVSPost2010PropOp44
 70
     1
102
RTVSPost2010Prop45
280
     0
102
RTVSPost2010PropOp45
 70
     1
102
RTVSPost2010Prop46
 90
       50
102
RTVSPost2010PropOp46
 70
     1
102
RTVSPost2010Prop47
 90
       50
102
RTVSPost2010PropOp47
 70
     1
102
RTVSPost2010Prop48
 90
       50
102
RTVSPost2010PropOp48
 70
     1
102
RTVSPost2010Prop49
280
     0
102
RTVSPost2010PropOp49
 70
     1
102
RTVSPost2010Prop50
 90
       50
102
RTVSPost2010PropOp50
 70
     1
102
RTVSPost2010Prop51ColorIndex
 90
      256
102
RTVSPost2010Prop51ColorRGB
 90
-16777216
102
RTVSPost2010PropOp51
 70
     0
102
RTVSPost2010Prop52
140
1.0
102
RTVSPost2010PropOp52
 70
     0
102
RTVSPost2010Prop53
 90
        2
102
RTVSPost2010PropOp53
 70
     1
102
RTVSPost2010Prop54
  1
strokes_ogs.tif
102
RTVSPost2010PropOp54
 70
     1
102
RTVSPost2010Prop55
280
     0
102
RTVSPost2010PropOp55
 70
     1
102
RTVSPost2010Prop56
140
1.0
102
RTVSPost2010PropOp56
 70
     1
102
RTVSPost2010Prop57
140
1.0
102
RTVSPost2010PropOp57
 70
     1
  0
XRECORD
  5
773
102
{ACAD_REACTORS
330
772
102
}
330
772
100
AcDbXrecord
280
     1
102
RTVSPost2010Prop28
280
     0
102
RTVSPost2010PropOp28
 70
     0
102
RTVSPost2010Prop29
280
     1
102
RTVSPost2010PropOp29
 70
     0
102
RTVSPost2010Prop30
280
     1
102
RTVSPost2010PropOp30
 70
     0
102
RTVSPost2010Prop31
280
     0
102
RTVSPost2010PropOp31
 70
     0
102
RTVSPost2010Prop32
280
     0
102
RTVSPost2010PropOp32
 70
     0
102
RTVSPost2010Prop33
280
     0
102
RTVSPost2010PropOp33
 70
     0
102
RTVSPost2010Prop34
280
     0
102
RTVSPost2010PropOp34
 70
     0
102
RTVSPost2010Prop35
280
     0
102
RTVSPost2010PropOp35
 70
     0
102
RTVSPost2010Prop36
280
     0
102
RTVSPost2010PropOp36
 70
     0
102
RTVSPost2010Prop37
 90
       50
102
RTVSPost2010PropOp37
 70
     0
102
RTVSPost2010Prop38
140
0.0
102
RTVSPost2010PropOp38
 70
     0
102
RTVSPost2010Prop39
140
1.0
102
RTVSPost2010PropOp39
 70
     0
102
RTVSPost2010Prop40
 90
        0
102
RTVSPost2010PropOp40
 70
     0
102
RTVSPost2010Prop41ColorIndex
 90
       18
102
RTVSPost2010Prop41ColorRGB
 90
        0
102
RTVSPost2010PropOp41
 70
     0
102
RTVSPost2010Prop42
 90
       50
102
RTVSPost2010PropOp42
 70
     0
102
RTVSPost2010Prop43
 90
        3
102
RTVSPost2010PropOp43
 70
     0
102
RTVSPost2010Prop44ColorIndex
 90
        5
102
RTVSPost2010Prop44ColorRGB
 90
      255
102
RTVSPost2010PropOp44
 70
     0
102
RTVSPost2010Prop45
280
     0
102
RTVSPost2010PropOp45
 70
     0
102
RTVSPost2010Prop46
 90
       50
102
RTVSPost2010PropOp46
 70
     0
102
RTVSPost2010Prop47
 90
       50
102
RTVSPost2010PropOp47
 70
     0
102
RTVSPost2010Prop48
 90
       50
102
RTVSPost2010PropOp48
 70
     0
102
RTVSPost2010Prop49
280
     0
102
RTVSPost2010PropOp49
 70
     0
102
RTVSPost2010Prop50
 90
       50
102
RTVSPost2010PropOp50
 70
     0
102
RTVSPost2010Prop51ColorIndex
 90
      256
102
RTVSPost2010Prop51ColorRGB
 90
-16777216
102
RTVSPost2010PropOp51
 70
     0
102
RTVSPost2010Prop52
140
1.0
102
RTVSPost2010PropOp52
 70
     0
102
RTVSPost2010Prop53
 90
        2
102
RTVSPost2010PropOp53
 70
     0
102
RTVSPost2010Prop54
  1
strokes_ogs.tif
102
RTVSPost2010PropOp54
 70
     0
102
RTVSPost2010Prop55
280
     0
102
RTVSPost2010PropOp55
 70
     0
102
RTVSPost2010Prop56
140
1.0
102
RTVSPost2010PropOp56
 70
     0
102
RTVSPost2010Prop57
140
1.0
102
RTVSPost2010PropOp57
 70
     0
  0
XRECORD
  5
759
102
{ACAD_REACTORS
330
758
102
}
330
758
100
AcDbXrecord
280
     1
102
RTVSPost2010Prop28
280
     0
102
RTVSPost2010PropOp28
 70
     1
102
RTVSPost2010Prop29
280
     1
102
RTVSPost2010PropOp29
 70
     1
102
RTVSPost2010Prop30
280
     1
102
RTVSPost2010PropOp30
 70
     1
102
RTVSPost2010Prop31
280
     0
102
RTVSPost2010PropOp31
 70
     1
102
RTVSPost2010Prop32
280
     0
102
RTVSPost2010PropOp32
 70
     1
102
RTVSPost2010Prop33
280
     0
102
RTVSPost2010PropOp33
 70
     1
102
RTVSPost2010Prop34
280
     0
102
RTVSPost2010PropOp34
 70
     1
102
RTVSPost2010Prop35
280
     0
102
RTVSPost2010PropOp35
 70
     1
102
RTVSPost2010Prop36
280
     0
102
RTVSPost2010PropOp36
 70
     1
102
RTVSPost2010Prop37
 90
       50
102
RTVSPost2010PropOp37
 70
     1
102
RTVSPost2010Prop38
140
0.0
102
RTVSPost2010PropOp38
 70
     1
102
RTVSPost2010Prop39
140
1.0
102
RTVSPost2010PropOp39
 70
     1
102
RTVSPost2010Prop40
 90
        0
102
RTVSPost2010PropOp40
 70
     1
102
RTVSPost2010Prop41ColorIndex
 90
       18
102
RTVSPost2010Prop41ColorRGB
 90
        0
102
RTVSPost2010PropOp41
 70
     1
102
RTVSPost2010Prop42
 90
       50
102
RTVSPost2010PropOp42
 70
     1
102
RTVSPost2010Prop43
 90
        3
102
RTVSPost2010PropOp43
 70
     1
102
RTVSPost2010Prop44ColorIndex
 90
        5
102
RTVSPost2010Prop44ColorRGB
 90
      255
102
RTVSPost2010PropOp44
 70
     1
102
RTVSPost2010Prop45
280
     0
102
RTVSPost2010PropOp45
 70
     1
102
RTVSPost2010Prop46
 90
       50
102
RTVSPost2010PropOp46
 70
     1
102
RTVSPost2010Prop47
 90
       50
102
RTVSPost2010PropOp47
 70
     1
102
RTVSPost2010Prop48
 90
       50
102
RTVSPost2010PropOp48
 70
     1
102
RTVSPost2010Prop49
280
     0
102
RTVSPost2010PropOp49
 70
     1
102
RTVSPost2010Prop50
 90
       50
102
RTVSPost2010PropOp50
 70
     1
102
RTVSPost2010Prop51ColorIndex
 90
      256
102
RTVSPost2010Prop51ColorRGB
 90
-16777216
102
RTVSPost2010PropOp51
 70
     0
102
RTVSPost2010Prop52
140
1.0
102
RTVSPost2010PropOp52
 70
     0
102
RTVSPost2010Prop53
 90
        2
102
RTVSPost2010PropOp53
 70
     1
102
RTVSPost2010Prop54
  1
strokes_ogs.tif
102
RTVSPost2010PropOp54
 70
     1
102
RTVSPost2010Prop55
280
     0
102
RTVSPost2010PropOp55
 70
     1
102
RTVSPost2010Prop56
140
1.0
102
RTVSPost2010PropOp56
 70
     1
102
RTVSPost2010Prop57
140
1.0
102
RTVSPost2010PropOp57
 70
     1
  0
XRECORD
  5
76F
102
{ACAD_REACTORS
330
76E
102
}
330
76E
100
AcDbXrecord
280
     1
102
RTVSPost2010Prop28
280
     0
102
RTVSPost2010PropOp28
 70
     1
102
RTVSPost2010Prop29
280
     1
102
RTVSPost2010PropOp29
 70
     1
102
RTVSPost2010Prop30
280
     1
102
RTVSPost2010PropOp30
 70
     1
102
RTVSPost2010Prop31
280
     0
102
RTVSPost2010PropOp31
 70
     1
102
RTVSPost2010Prop32
280
     0
102
RTVSPost2010PropOp32
 70
     1
102
RTVSPost2010Prop33
280
     0
102
RTVSPost2010PropOp33
 70
     1
102
RTVSPost2010Prop34
280
     0
102
RTVSPost2010PropOp34
 70
     1
102
RTVSPost2010Prop35
280
     0
102
RTVSPost2010PropOp35
 70
     1
102
RTVSPost2010Prop36
280
     0
102
RTVSPost2010PropOp36
 70
     1
102
RTVSPost2010Prop37
 90
       50
102
RTVSPost2010PropOp37
 70
     1
102
RTVSPost2010Prop38
140
0.0
102
RTVSPost2010PropOp38
 70
     1
102
RTVSPost2010Prop39
140
1.0
102
RTVSPost2010PropOp39
 70
     1
102
RTVSPost2010Prop40
 90
        0
102
RTVSPost2010PropOp40
 70
     1
102
RTVSPost2010Prop41ColorIndex
 90
       18
102
RTVSPost2010Prop41ColorRGB
 90
        0
102
RTVSPost2010PropOp41
 70
     1
102
RTVSPost2010Prop42
 90
       50
102
RTVSPost2010PropOp42
 70
     1
102
RTVSPost2010Prop43
 90
        3
102
RTVSPost2010PropOp43
 70
     1
102
RTVSPost2010Prop44ColorIndex
 90
        5
102
RTVSPost2010Prop44ColorRGB
 90
      255
102
RTVSPost2010PropOp44
 70
     1
102
RTVSPost2010Prop45
280
     0
102
RTVSPost2010PropOp45
 70
     1
102
RTVSPost2010Prop46
 90
       50
102
RTVSPost2010PropOp46
 70
     1
102
RTVSPost2010Prop47
 90
       50
102
RTVSPost2010PropOp47
 70
     1
102
RTVSPost2010Prop48
 90
       50
102
RTVSPost2010PropOp48
 70
     1
102
RTVSPost2010Prop49
280
     0
102
RTVSPost2010PropOp49
 70
     1
102
RTVSPost2010Prop50
 90
       50
102
RTVSPost2010PropOp50
 70
     1
102
RTVSPost2010Prop51ColorIndex
 90
      256
102
RTVSPost2010Prop51ColorRGB
 90
-16777216
102
RTVSPost2010PropOp51
 70
     0
102
RTVSPost2010Prop52
140
1.0
102
RTVSPost2010PropOp52
 70
     0
102
RTVSPost2010Prop53
 90
        2
102
RTVSPost2010PropOp53
 70
     1
102
RTVSPost2010Prop54
  1
strokes_ogs.tif
102
RTVSPost2010PropOp54
 70
     1
102
RTVSPost2010Prop55
280
     0
102
RTVSPost2010PropOp55
 70
     1
102
RTVSPost2010Prop56
140
1.0
102
RTVSPost2010PropOp56
 70
     1
102
RTVSPost2010Prop57
140
1.0
102
RTVSPost2010PropOp57
 70
     1
  0
XRECORD
  5
76D
102
{ACAD_REACTORS
330
76C
102
}
330
76C
100
AcDbXrecord
280
     1
102
RTVSPost2010Prop28
280
     0
102
RTVSPost2010PropOp28
 70
     1
102
RTVSPost2010Prop29
280
     1
102
RTVSPost2010PropOp29
 70
     1
102
RTVSPost2010Prop30
280
     1
102
RTVSPost2010PropOp30
 70
     1
102
RTVSPost2010Prop31
280
     0
102
RTVSPost2010PropOp31
 70
     1
102
RTVSPost2010Prop32
280
     0
102
RTVSPost2010PropOp32
 70
     1
102
RTVSPost2010Prop33
280
     0
102
RTVSPost2010PropOp33
 70
     1
102
RTVSPost2010Prop34
280
     0
102
RTVSPost2010PropOp34
 70
     1
102
RTVSPost2010Prop35
280
     0
102
RTVSPost2010PropOp35
 70
     1
102
RTVSPost2010Prop36
280
     0
102
RTVSPost2010PropOp36
 70
     1
102
RTVSPost2010Prop37
 90
       50
102
RTVSPost2010PropOp37
 70
     1
102
RTVSPost2010Prop38
140
0.0
102
RTVSPost2010PropOp38
 70
     1
102
RTVSPost2010Prop39
140
1.0
102
RTVSPost2010PropOp39
 70
     1
102
RTVSPost2010Prop40
 90
        0
102
RTVSPost2010PropOp40
 70
     1
102
RTVSPost2010Prop41ColorIndex
 90
       18
102
RTVSPost2010Prop41ColorRGB
 90
        0
102
RTVSPost2010PropOp41
 70
     1
102
RTVSPost2010Prop42
 90
       50
102
RTVSPost2010PropOp42
 70
     1
102
RTVSPost2010Prop43
 90
        3
102
RTVSPost2010PropOp43
 70
     1
102
RTVSPost2010Prop44ColorIndex
 90
        5
102
RTVSPost2010Prop44ColorRGB
 90
      255
102
RTVSPost2010PropOp44
 70
     1
102
RTVSPost2010Prop45
280
     0
102
RTVSPost2010PropOp45
 70
     1
102
RTVSPost2010Prop46
 90
       50
102
RTVSPost2010PropOp46
 70
     1
102
RTVSPost2010Prop47
 90
       50
102
RTVSPost2010PropOp47
 70
     1
102
RTVSPost2010Prop48
 90
       50
102
RTVSPost2010PropOp48
 70
     1
102
RTVSPost2010Prop49
280
     0
102
RTVSPost2010PropOp49
 70
     1
102
RTVSPost2010Prop50
 90
       50
102
RTVSPost2010PropOp50
 70
     1
102
RTVSPost2010Prop51ColorIndex
 90
      256
102
RTVSPost2010Prop51ColorRGB
 90
-16777216
102
RTVSPost2010PropOp51
 70
     0
102
RTVSPost2010Prop52
140
1.0
102
RTVSPost2010PropOp52
 70
     0
102
RTVSPost2010Prop53
 90
        2
102
RTVSPost2010PropOp53
 70
     1
102
RTVSPost2010Prop54
  1
strokes_ogs.tif
102
RTVSPost2010PropOp54
 70
     1
102
RTVSPost2010Prop55
280
     0
102
RTVSPost2010PropOp55
 70
     1
102
RTVSPost2010Prop56
140
1.0
102
RTVSPost2010PropOp56
 70
     1
102
RTVSPost2010Prop57
140
1.0
102
RTVSPost2010PropOp57
 70
     1
  0
XRECORD
  5
767
102
{ACAD_REACTORS
330
766
102
}
330
766
100
AcDbXrecord
280
     1
102
RTVSPost2010Prop28
280
     0
102
RTVSPost2010PropOp28
 70
     1
102
RTVSPost2010Prop29
280
     1
102
RTVSPost2010PropOp29
 70
     1
102
RTVSPost2010Prop30
280
     1
102
RTVSPost2010PropOp30
 70
     1
102
RTVSPost2010Prop31
280
     0
102
RTVSPost2010PropOp31
 70
     1
102
RTVSPost2010Prop32
280
     0
102
RTVSPost2010PropOp32
 70
     1
102
RTVSPost2010Prop33
280
     0
102
RTVSPost2010PropOp33
 70
     1
102
RTVSPost2010Prop34
280
     0
102
RTVSPost2010PropOp34
 70
     1
102
RTVSPost2010Prop35
280
     0
102
RTVSPost2010PropOp35
 70
     1
102
RTVSPost2010Prop36
280
     0
102
RTVSPost2010PropOp36
 70
     1
102
RTVSPost2010Prop37
 90
       50
102
RTVSPost2010PropOp37
 70
     1
102
RTVSPost2010Prop38
140
0.0
102
RTVSPost2010PropOp38
 70
     1
102
RTVSPost2010Prop39
140
1.0
102
RTVSPost2010PropOp39
 70
     1
102
RTVSPost2010Prop40
 90
        0
102
RTVSPost2010PropOp40
 70
     1
102
RTVSPost2010Prop41ColorIndex
 90
       18
102
RTVSPost2010Prop41ColorRGB
 90
        0
102
RTVSPost2010PropOp41
 70
     1
102
RTVSPost2010Prop42
 90
       50
102
RTVSPost2010PropOp42
 70
     1
102
RTVSPost2010Prop43
 90
        3
102
RTVSPost2010PropOp43
 70
     1
102
RTVSPost2010Prop44ColorIndex
 90
        5
102
RTVSPost2010Prop44ColorRGB
 90
      255
102
RTVSPost2010PropOp44
 70
     1
102
RTVSPost2010Prop45
280
     0
102
RTVSPost2010PropOp45
 70
     1
102
RTVSPost2010Prop46
 90
       50
102
RTVSPost2010PropOp46
 70
     1
102
RTVSPost2010Prop47
 90
       50
102
RTVSPost2010PropOp47
 70
     1
102
RTVSPost2010Prop48
 90
       50
102
RTVSPost2010PropOp48
 70
     1
102
RTVSPost2010Prop49
280
     0
102
RTVSPost2010PropOp49
 70
     1
102
RTVSPost2010Prop50
 90
       50
102
RTVSPost2010PropOp50
 70
     1
102
RTVSPost2010Prop51ColorIndex
 90
      256
102
RTVSPost2010Prop51ColorRGB
 90
-16777216
102
RTVSPost2010PropOp51
 70
     0
102
RTVSPost2010Prop52
140
1.0
102
RTVSPost2010PropOp52
 70
     0
102
RTVSPost2010Prop53
 90
        2
102
RTVSPost2010PropOp53
 70
     1
102
RTVSPost2010Prop54
  1
strokes_ogs.tif
102
RTVSPost2010PropOp54
 70
     1
102
RTVSPost2010Prop55
280
     0
102
RTVSPost2010PropOp55
 70
     1
102
RTVSPost2010Prop56
140
1.0
102
RTVSPost2010PropOp56
 70
     1
102
RTVSPost2010Prop57
140
1.0
102
RTVSPost2010PropOp57
 70
     1
  0
XRECORD
  5
769
102
{ACAD_REACTORS
330
768
102
}
330
768
100
AcDbXrecord
280
     1
102
RTVSPost2010Prop28
280
     0
102
RTVSPost2010PropOp28
 70
     1
102
RTVSPost2010Prop29
280
     1
102
RTVSPost2010PropOp29
 70
     1
102
RTVSPost2010Prop30
280
     1
102
RTVSPost2010PropOp30
 70
     1
102
RTVSPost2010Prop31
280
     0
102
RTVSPost2010PropOp31
 70
     1
102
RTVSPost2010Prop32
280
     0
102
RTVSPost2010PropOp32
 70
     1
102
RTVSPost2010Prop33
280
     0
102
RTVSPost2010PropOp33
 70
     1
102
RTVSPost2010Prop34
280
     0
102
RTVSPost2010PropOp34
 70
     1
102
RTVSPost2010Prop35
280
     0
102
RTVSPost2010PropOp35
 70
     1
102
RTVSPost2010Prop36
280
     0
102
RTVSPost2010PropOp36
 70
     1
102
RTVSPost2010Prop37
 90
       50
102
RTVSPost2010PropOp37
 70
     1
102
RTVSPost2010Prop38
140
0.0
102
RTVSPost2010PropOp38
 70
     1
102
RTVSPost2010Prop39
140
1.0
102
RTVSPost2010PropOp39
 70
     1
102
RTVSPost2010Prop40
 90
        0
102
RTVSPost2010PropOp40
 70
     1
102
RTVSPost2010Prop41ColorIndex
 90
       18
102
RTVSPost2010Prop41ColorRGB
 90
        0
102
RTVSPost2010PropOp41
 70
     1
102
RTVSPost2010Prop42
 90
       50
102
RTVSPost2010PropOp42
 70
     1
102
RTVSPost2010Prop43
 90
        3
102
RTVSPost2010PropOp43
 70
     1
102
RTVSPost2010Prop44ColorIndex
 90
        5
102
RTVSPost2010Prop44ColorRGB
 90
      255
102
RTVSPost2010PropOp44
 70
     1
102
RTVSPost2010Prop45
280
     0
102
RTVSPost2010PropOp45
 70
     1
102
RTVSPost2010Prop46
 90
       50
102
RTVSPost2010PropOp46
 70
     1
102
RTVSPost2010Prop47
 90
       50
102
RTVSPost2010PropOp47
 70
     1
102
RTVSPost2010Prop48
 90
       50
102
RTVSPost2010PropOp48
 70
     1
102
RTVSPost2010Prop49
280
     0
102
RTVSPost2010PropOp49
 70
     1
102
RTVSPost2010Prop50
 90
       50
102
RTVSPost2010PropOp50
 70
     1
102
RTVSPost2010Prop51ColorIndex
 90
      256
102
RTVSPost2010Prop51ColorRGB
 90
-16777216
102
RTVSPost2010PropOp51
 70
     0
102
RTVSPost2010Prop52
140
1.0
102
RTVSPost2010PropOp52
 70
     0
102
RTVSPost2010Prop53
 90
        2
102
RTVSPost2010PropOp53
 70
     1
102
RTVSPost2010Prop54
  1
strokes_ogs.tif
102
RTVSPost2010PropOp54
 70
     1
102
RTVSPost2010Prop55
280
     0
102
RTVSPost2010PropOp55
 70
     1
102
RTVSPost2010Prop56
140
1.0
102
RTVSPost2010PropOp56
 70
     1
102
RTVSPost2010Prop57
140
1.0
102
RTVSPost2010PropOp57
 70
     1
  0
XRECORD
  5
75F
102
{ACAD_REACTORS
330
75E
102
}
330
75E
100
AcDbXrecord
280
     1
102
RTVSPost2010Prop28
280
     0
102
RTVSPost2010PropOp28
 70
     1
102
RTVSPost2010Prop29
280
     1
102
RTVSPost2010PropOp29
 70
     1
102
RTVSPost2010Prop30
280
     1
102
RTVSPost2010PropOp30
 70
     1
102
RTVSPost2010Prop31
280
     0
102
RTVSPost2010PropOp31
 70
     1
102
RTVSPost2010Prop32
280
     0
102
RTVSPost2010PropOp32
 70
     1
102
RTVSPost2010Prop33
280
     0
102
RTVSPost2010PropOp33
 70
     1
102
RTVSPost2010Prop34
280
     0
102
RTVSPost2010PropOp34
 70
     1
102
RTVSPost2010Prop35
280
     0
102
RTVSPost2010PropOp35
 70
     1
102
RTVSPost2010Prop36
280
     0
102
RTVSPost2010PropOp36
 70
     1
102
RTVSPost2010Prop37
 90
       50
102
RTVSPost2010PropOp37
 70
     1
102
RTVSPost2010Prop38
140
0.0
102
RTVSPost2010PropOp38
 70
     1
102
RTVSPost2010Prop39
140
1.0
102
RTVSPost2010PropOp39
 70
     1
102
RTVSPost2010Prop40
 90
        0
102
RTVSPost2010PropOp40
 70
     1
102
RTVSPost2010Prop41ColorIndex
 90
       18
102
RTVSPost2010Prop41ColorRGB
 90
        0
102
RTVSPost2010PropOp41
 70
     1
102
RTVSPost2010Prop42
 90
       50
102
RTVSPost2010PropOp42
 70
     1
102
RTVSPost2010Prop43
 90
        3
102
RTVSPost2010PropOp43
 70
     1
102
RTVSPost2010Prop44ColorIndex
 90
        5
102
RTVSPost2010Prop44ColorRGB
 90
      255
102
RTVSPost2010PropOp44
 70
     1
102
RTVSPost2010Prop45
280
     0
102
RTVSPost2010PropOp45
 70
     1
102
RTVSPost2010Prop46
 90
       50
102
RTVSPost2010PropOp46
 70
     1
102
RTVSPost2010Prop47
 90
       50
102
RTVSPost2010PropOp47
 70
     1
102
RTVSPost2010Prop48
 90
       50
102
RTVSPost2010PropOp48
 70
     1
102
RTVSPost2010Prop49
280
     0
102
RTVSPost2010PropOp49
 70
     1
102
RTVSPost2010Prop50
 90
       50
102
RTVSPost2010PropOp50
 70
     1
102
RTVSPost2010Prop51ColorIndex
 90
      256
102
RTVSPost2010Prop51ColorRGB
 90
-16777216
102
RTVSPost2010PropOp51
 70
     0
102
RTVSPost2010Prop52
140
1.0
102
RTVSPost2010PropOp52
 70
     0
102
RTVSPost2010Prop53
 90
        2
102
RTVSPost2010PropOp53
 70
     1
102
RTVSPost2010Prop54
  1
strokes_ogs.tif
102
RTVSPost2010PropOp54
 70
     1
102
RTVSPost2010Prop55
280
     0
102
RTVSPost2010PropOp55
 70
     1
102
RTVSPost2010Prop56
140
1.0
102
RTVSPost2010PropOp56
 70
     1
102
RTVSPost2010Prop57
140
1.0
102
RTVSPost2010PropOp57
 70
     1
  0
XRECORD
  5
753
102
{ACAD_REACTORS
330
752
102
}
330
752
100
AcDbXrecord
280
     1
102
RTVSPost2010Prop28
280
     0
102
RTVSPost2010PropOp28
 70
     1
102
RTVSPost2010Prop29
280
     1
102
RTVSPost2010PropOp29
 70
     1
102
RTVSPost2010Prop30
280
     1
102
RTVSPost2010PropOp30
 70
     1
102
RTVSPost2010Prop31
280
     0
102
RTVSPost2010PropOp31
 70
     1
102
RTVSPost2010Prop32
280
     0
102
RTVSPost2010PropOp32
 70
     1
102
RTVSPost2010Prop33
280
     0
102
RTVSPost2010PropOp33
 70
     1
102
RTVSPost2010Prop34
280
     0
102
RTVSPost2010PropOp34
 70
     1
102
RTVSPost2010Prop35
280
     0
102
RTVSPost2010PropOp35
 70
     1
102
RTVSPost2010Prop36
280
     0
102
RTVSPost2010PropOp36
 70
     1
102
RTVSPost2010Prop37
 90
       50
102
RTVSPost2010PropOp37
 70
     1
102
RTVSPost2010Prop38
140
0.0
102
RTVSPost2010PropOp38
 70
     1
102
RTVSPost2010Prop39
140
1.0
102
RTVSPost2010PropOp39
 70
     1
102
RTVSPost2010Prop40
 90
        0
102
RTVSPost2010PropOp40
 70
     1
102
RTVSPost2010Prop41ColorIndex
 90
       18
102
RTVSPost2010Prop41ColorRGB
 90
        0
102
RTVSPost2010PropOp41
 70
     1
102
RTVSPost2010Prop42
 90
       50
102
RTVSPost2010PropOp42
 70
     1
102
RTVSPost2010Prop43
 90
        3
102
RTVSPost2010PropOp43
 70
     1
102
RTVSPost2010Prop44ColorIndex
 90
        5
102
RTVSPost2010Prop44ColorRGB
 90
      255
102
RTVSPost2010PropOp44
 70
     1
102
RTVSPost2010Prop45
280
     0
102
RTVSPost2010PropOp45
 70
     1
102
RTVSPost2010Prop46
 90
       50
102
RTVSPost2010PropOp46
 70
     1
102
RTVSPost2010Prop47
 90
       50
102
RTVSPost2010PropOp47
 70
     1
102
RTVSPost2010Prop48
 90
       50
102
RTVSPost2010PropOp48
 70
     1
102
RTVSPost2010Prop49
280
     0
102
RTVSPost2010PropOp49
 70
     1
102
RTVSPost2010Prop50
 90
       50
102
RTVSPost2010PropOp50
 70
     1
102
RTVSPost2010Prop51ColorIndex
 90
      256
102
RTVSPost2010Prop51ColorRGB
 90
-16777216
102
RTVSPost2010PropOp51
 70
     0
102
RTVSPost2010Prop52
140
1.0
102
RTVSPost2010PropOp52
 70
     0
102
RTVSPost2010Prop53
 90
        2
102
RTVSPost2010PropOp53
 70
     1
102
RTVSPost2010Prop54
  1
strokes_ogs.tif
102
RTVSPost2010PropOp54
 70
     1
102
RTVSPost2010Prop55
280
     0
102
RTVSPost2010PropOp55
 70
     1
102
RTVSPost2010Prop56
140
1.0
102
RTVSPost2010PropOp56
 70
     1
102
RTVSPost2010Prop57
140
1.0
102
RTVSPost2010PropOp57
 70
     1
  0
XRECORD
  5
76B
102
{ACAD_REACTORS
330
76A
102
}
330
76A
100
AcDbXrecord
280
     1
102
RTVSPost2010Prop28
280
     0
102
RTVSPost2010PropOp28
 70
     1
102
RTVSPost2010Prop29
280
     1
102
RTVSPost2010PropOp29
 70
     1
102
RTVSPost2010Prop30
280
     1
102
RTVSPost2010PropOp30
 70
     1
102
RTVSPost2010Prop31
280
     0
102
RTVSPost2010PropOp31
 70
     1
102
RTVSPost2010Prop32
280
     0
102
RTVSPost2010PropOp32
 70
     1
102
RTVSPost2010Prop33
280
     0
102
RTVSPost2010PropOp33
 70
     1
102
RTVSPost2010Prop34
280
     0
102
RTVSPost2010PropOp34
 70
     1
102
RTVSPost2010Prop35
280
     0
102
RTVSPost2010PropOp35
 70
     1
102
RTVSPost2010Prop36
280
     0
102
RTVSPost2010PropOp36
 70
     1
102
RTVSPost2010Prop37
 90
       50
102
RTVSPost2010PropOp37
 70
     1
102
RTVSPost2010Prop38
140
0.0
102
RTVSPost2010PropOp38
 70
     1
102
RTVSPost2010Prop39
140
1.0
102
RTVSPost2010PropOp39
 70
     1
102
RTVSPost2010Prop40
 90
        0
102
RTVSPost2010PropOp40
 70
     1
102
RTVSPost2010Prop41ColorIndex
 90
       18
102
RTVSPost2010Prop41ColorRGB
 90
        0
102
RTVSPost2010PropOp41
 70
     1
102
RTVSPost2010Prop42
 90
       50
102
RTVSPost2010PropOp42
 70
     1
102
RTVSPost2010Prop43
 90
        3
102
RTVSPost2010PropOp43
 70
     1
102
RTVSPost2010Prop44ColorIndex
 90
        5
102
RTVSPost2010Prop44ColorRGB
 90
      255
102
RTVSPost2010PropOp44
 70
     1
102
RTVSPost2010Prop45
280
     0
102
RTVSPost2010PropOp45
 70
     1
102
RTVSPost2010Prop46
 90
       50
102
RTVSPost2010PropOp46
 70
     1
102
RTVSPost2010Prop47
 90
       50
102
RTVSPost2010PropOp47
 70
     1
102
RTVSPost2010Prop48
 90
       50
102
RTVSPost2010PropOp48
 70
     1
102
RTVSPost2010Prop49
280
     0
102
RTVSPost2010PropOp49
 70
     1
102
RTVSPost2010Prop50
 90
       50
102
RTVSPost2010PropOp50
 70
     1
102
RTVSPost2010Prop51ColorIndex
 90
      256
102
RTVSPost2010Prop51ColorRGB
 90
-16777216
102
RTVSPost2010PropOp51
 70
     0
102
RTVSPost2010Prop52
140
1.0
102
RTVSPost2010PropOp52
 70
     0
102
RTVSPost2010Prop53
 90
        2
102
RTVSPost2010PropOp53
 70
     1
102
RTVSPost2010Prop54
  1
strokes_ogs.tif
102
RTVSPost2010PropOp54
 70
     1
102
RTVSPost2010Prop55
280
     0
102
RTVSPost2010PropOp55
 70
     1
102
RTVSPost2010Prop56
140
1.0
102
RTVSPost2010PropOp56
 70
     1
102
RTVSPost2010Prop57
140
1.0
102
RTVSPost2010PropOp57
 70
     1
  0
ENDSEC
  0
EOF
